#TITLE:TSAR BOMBA;
#SUBTITLE:;
#ARTIST:L.E.D.;
#TITLETRANSLIT:;
#SUBTITLETRANSLIT:;
#ARTISTTRANSLIT:;
#GENRE:;
#CREDIT:;
#BANNER:;
#BACKGROUND:TSAR BOMBA.png;
#LYRICSPATH:;
#CDTITLE:;
#MUSIC:[ROUND D] - TSAR BOMBA.ogg;
#OFFSET:-0.579350;
#SAMPLESTART:35.902328;
#SAMPLELENGTH:10.184208;
#SELECTABLE:YES;
#BPMS:0.000000=95.000000
,40.000000=190.000000
,72.000000=95.000000
,80.000000=190.000000
;
#STOPS:
;
#BGCHANGES:;
#KEYSOUNDS:;
#ATTACKS:;

//---------------dance-single - ----------------
#NOTES:
     dance-single:
     :
     Hard:
     10:
     0.807793,1.000000,0.164616,0.386847,0.358039,620.000000,20.000000,47.000000,0.000000,0.000000,0.000000,0.807793,1.000000,0.164616,0.386847,0.358039,620.000000,20.000000,47.000000,0.000000,0.000000,0.000000:
// measure 0
0000
0000
0000
0000
,  // measure 1
0000
0000
0000
0000
,  // measure 2
1001
0000
1000
0001
0100
0000
0001
0000
0010
0000
0100
1000
0001
0000
1000
0000
,  // measure 3
0110
0000
0000
0000
0010
0000
0000
0000
1000
0000
0000
0000
0001
0000
0000
0000
0000
0000
0010
0000
0000
0000
0000
0000
0001
0000
0000
0000
0000
0000
0100
0000
0000
0010
0000
0000
1000
0000
0000
0000
0000
0000
0001
0000
0000
0000
0000
0000
,  // measure 4
1100
0000
0001
1000
0100
0000
0010
0000
0100
0000
1000
0010
0001
0000
0010
0000
,  // measure 5
0100
0000
0000
0000
0100
0000
0000
0000
0100
0000
0000
0000
0001
0000
0000
0000
0000
0000
1000
0000
0000
0000
0000
0000
0100
0000
0000
0000
0000
0000
1000
0000
0000
0001
0000
0000
0100
0000
0000
0000
0000
0000
0010
0000
0000
0000
0000
0000
,  // measure 6
2002
0000
0000
3003
0010
1000
0010
1000
0001
1000
0001
1000
0100
1000
0100
1000
,  // measure 7
0100
0000
0000
0000
0100
0000
0000
0000
0100
0000
0000
0000
0010
0000
0000
0001
0000
0000
0010
0000
0000
0001
0000
0000
1000
0000
0000
0001
0000
0000
0100
0000
0000
0010
0000
0000
1000
0000
0000
0100
0000
0000
0010
0000
0000
0001
0000
0000
,  // measure 8
1000
0000
0000
0000
0000
0000
0000
0000
0000
0000
0000
0000
0000
0000
0000
0000
1000
0000
0000
0000
0000
0000
0000
0000
0000
0000
0000
0000
0000
0000
0000
0000
1000
0000
0000
0000
0000
0000
0000
0000
0000
0000
0000
0000
0000
0000
0000
0000
0001
0000
0000
0000
0000
0000
0000
0000
0000
0000
0000
0000
0100
0000
0000
0000
0000
0000
0000
0000
0000
0000
0000
0000
0010
0000
0000
0000
0000
0000
0000
0000
0000
0000
0000
0000
1000
0000
0000
0000
0000
0000
0000
0000
0000
0000
0000
0000
0100
0000
0000
0000
0000
0000
1000
0000
0000
0000
0000
0000
0100
0000
0000
0000
0000
0000
1000
0000
0000
0000
0000
0000
0001
0000
0000
0000
0000
0000
0100
0000
0000
0000
0000
0000
0001
0000
0000
0000
0000
0000
0100
0000
0000
0000
0000
0000
0010
0000
0000
0000
0000
0000
0000
0000
0000
0000
0000
0000
0100
0000
0000
0000
0000
0000
0000
0000
0000
0000
0000
0000
0010
0000
0000
0000
0000
0000
0000
0000
0000
0000
0000
0000
0100
0000
0000
0000
0000
0000
0000
0000
0000
0000
0000
0000
,  // measure 9
0001
0000
0010
0000
0001
0000
0010
0000
0000
0100
0000
0000
1000
0000
0000
0100
0000
0000
1000
0000
0000
0100
0000
0000
0010
0000
0000
0001
0000
0000
0100
0000
0000
0010
0000
0000
1000
0000
0000
0100
0000
0000
0001
0000
0000
0100
0000
0000
,  // measure 10
2000
0100
0000
0100
,  // measure 11
0000
0100
0000
0100
,  // measure 12
3002
0100
0000
0100
,  // measure 13
2003
0100
3020
0130
,  // measure 14
0110
0000
0000
0000
1000
0000
0001
0000
1000
0000
0100
0000
1000
0001
1000
0000
,  // measure 15
1100
0000
0000
0000
0010
0000
0001
0000
1000
0000
0001
0000
0100
0001
0100
0000
,  // measure 16
0101
0001
0100
0010
1010
1000
0100
0010
,  // measure 17
0001
0010
0001
0000
0010
0100
0010
0000
0100
1000
0100
1000
0001
0000
0000
0000
,  // measure 18
0100
0000
0010
1000
0000
0010
0100
0000
0001
1000
0100
0000
0010
0100
0000
0010
,  // measure 19
0001
0000
0100
0010
0000
1000
0100
0100
0010
0000
0001
0010
0000
0010
0100
0000
,  // measure 20
1000
0001
0100
0010
1000
0100
0001
0100
,  // measure 21
0010
0001
0100
0010
0001
0010
0110
0000
,  // measure 22
1000
0000
1000
0000
1000
0000
1000
0000
2000
0000
0000
0000
3001
0000
1000
0001
,  // measure 23
1000
1000
0001
1000
2000
0000
0200
3300
,  // measure 24
0110
0000
1000
0002
0000
1003
0100
0000
,  // measure 25
0010
0001
0010
0001
0010
0000
0100
0000
0200
0000
1300
0000
2000
0000
3002
0000
,  // measure 26
0103
0100
0010
0010
1000
1000
0001
0001
,  // measure 27
0010
0010
0100
1000
1000
1000
0010
0100
,  // measure 28
0001
0001
0001
1000
1000
1000
0001
1000
,  // measure 29
0100
0100
0100
0010
0010
0010
0100
1000
,  // measure 30
0001
0000
0001
0000
1000
0000
0001
0000
0002
0000
0000
0000
1003
0000
0001
1000
,  // measure 31
0001
0001
1000
0001
0002
0000
0020
0033
,  // measure 32
0200
1000
1300
0001
0100
1000
0100
0001
,  // measure 33
2000
0100
3100
0010
0002
1000
1003
0001
,  // measure 34
0020
0000
0130
0010
0000
0001
1000
0000
,  // measure 35
0010
0100
0001
1000
1100
0000
0011
0000
,  // measure 36
1010
1000
0010
1000
0100
0010
0001
0100
,  // measure 37
0001
0001
0010
0001
1000
1000
0010
1000
,  // measure 38
0100
0010
0001
0010
1000
0010
0001
0100
,  // measure 39
0010
0000
0010
0000
0010
0000
2000
0000
0000
0000
3001
1000
0001
0000
0010
0000
,  // measure 40
0002
0010
0013
0100
1000
0001
0100
1000
,  // measure 41
0200
0010
0310
0100
0002
1000
1003
0001
,  // measure 42
0020
0000
0130
0010
0000
0001
1000
0000
,  // measure 43
0010
0100
0100
0001
1000
0100
0001
0100
,  // measure 44
0010
0010
0100
1000
0100
0010
0001
0100
,  // measure 45
0001
0001
0010
0001
1000
1000
0010
1000
,  // measure 46
0200
0000
1000
2300
0000
0001
3002
0000
,  // measure 47
0103
0000
0010
1000
0010
0000
0100
0000
0001
0000
2000
0000
0000
0000
3100
0000
,  // measure 48
0020
0001
0000
0001
0000
0001
0000
0031
,  // measure 49
0200
1000
0000
1000
0000
1000
0000
1300
,  // measure 50
0200
0010
0000
0010
0000
0010
0000
0310
,  // measure 51
2000
0001
0000
3001
0020
0100
0000
0130
,  // measure 52
1100
0000
0000
0000
0001
0000
1000
0000
0100
0000
0001
0000
0100
0010
0100
0000
,  // measure 53
0011
0000
0000
0000
1000
0000
0001
0000
0100
0010
0200
0000
0000
0000
0310
0000
,  // measure 54
1100
0000
0000
0000
1000
0000
0001
0000
0100
0000
1000
0000
0100
0010
0100
0000
,  // measure 55
0101
0000
0000
0000
0001
0000
0010
0000
0100
1000
0020
0000
0000
0000
0130
0000
,  // measure 56
1001
0000
0001
1000
0100
0000
0010
0100
,  // measure 57
0010
0001
0100
1000
0100
0001
1000
0100
,  // measure 58
0010
0000
0100
1000
0001
0000
0100
0010
,  // measure 59
1000
0100
0010
0002
0000
1003
0020
0000
,  // measure 60
0130
0000
0001
1000
0100
1000
0010
0100
,  // measure 61
1000
0001
0010
0100
0001
0010
1000
0001
,  // measure 62
0100
1000
0010
0100
1000
0001
0010
1000
,  // measure 63
0100
0010
0001
2000
0000
3010
0002
0000
,  // measure 64
0023
0000
0100
0000
1030
0100
0010
0001
,  // measure 65
0100
0010
0001
1000
0100
0001
0010
0100
,  // measure 66
1000
0000
1000
0001
1000
0000
0200
0000
0000
0000
0310
0000
0001
0000
1000
0000
,  // measure 67
0010
0100
0010
0100
0010
0000
0001
0000
0010
0000
1000
0000
0001
0000
0010
0000
,  // measure 68
0200
0000
0010
0000
1300
0100
0001
1000
,  // measure 69
0010
0100
1000
0001
0100
1000
0100
0001
,  // measure 70
1000
0000
1000
0000
0200
0000
0000
0000
0310
0000
0001
0010
0001
0010
0001
0010
,  // measure 71
0100
0100
0100
1000
1000
1000
0001
0001
,  // measure 72
0200
0000
0010
0000
1300
1000
0100
0001
,  // measure 73
1000
0100
0100
0010
0001
1000
1000
0010
,  // measure 74
0100
0100
0001
2000
0000
3100
0010
0000
,  // measure 75
0001
0100
0001
0100
0001
0000
0100
0000
0010
0000
0010
0000
1000
0000
1000
0000
,  // measure 76
0002
0000
0010
0000
0103
1000
0100
0010
,  // measure 77
1000
0100
0010
1000
0010
0100
1000
0010
,  // measure 78
1001
0001
0100
0010
1001
1000
0010
0100
,  // measure 79
0001
0010
0001
0010
0001
0010
0100
1000
0100
1000
0100
1000
0001
0010
0100
1000
,  // measure 80
0001
0001
0000
0000
0000
0000
0000
0000
;

//---------------dance-single - ----------------
#NOTES:
     dance-single:
     :
     Medium:
     8:
     0.591441,0.560568,0.049385,0.452694,0.061731,442.000000,6.000000,55.000000,0.000000,0.000000,0.000000,0.591441,0.560568,0.049385,0.452694,0.061731,442.000000,6.000000,55.000000,0.000000,0.000000,0.000000:
0000
0000
0000
0000
,
0000
0000
0000
0000
,
1100
0000
0000
1000
0001
0000
0000
0000
0100
0000
0001
0100
0001
0000
0000
0000
,
1000
0000
0000
0000
0001
0000
0000
0000
1000
0000
0000
0000
0100
0000
0000
0000
0000
0000
0000
0000
0000
0000
0000
0000
0100
0000
0000
0000
0000
0000
1000
0000
0000
0100
0000
0000
1000
0000
0000
0000
0000
0000
0000
0000
0000
0000
0000
0000
,
0010
0000
0000
0010
0100
0000
0000
0000
0010
0000
1000
0001
1000
0000
0000
0000
,
0100
0000
0000
0000
0010
0000
0000
0000
0100
0000
0000
0000
1000
0000
0000
0000
0000
0000
0000
0000
0000
0000
0000
0000
0001
0000
0000
0000
0000
0000
0100
0000
0000
0001
0000
0000
0100
0000
0000
0000
0000
0000
0000
0000
0000
0000
0000
0000
,
0210
1000
0001
0310
,
2000
0100
0001
3010
,
0002
0010
1000
0103
,
0020
1000
0100
0031
,
2000
0100
0000
0100
,
0000
0100
0000
3100
,
0002
0100
0000
0100
,
0000
0100
0000
0103
,
0110
0000
1000
0100
1000
0001
0000
0100
,
0010
0000
0100
0001
1000
0001
0000
0010
,
0100
0100
1000
0000
0100
0100
0001
0000
,
0100
1000
0010
0100
0001
0000
1001
0000
,
1000
0000
0000
1000
0001
0000
0000
0000
0010
0000
0100
1000
0001
0000
0000
0000
,
0100
0000
0000
0000
0010
0000
0000
0000
0100
0000
0000
0000
0001
0000
0000
0000
0000
0000
0000
0000
0000
0000
0000
0000
1000
0000
0000
0000
0000
0000
0100
0000
0000
1000
0000
0000
0001
0000
0000
0000
0000
0000
0000
0000
0000
0000
0000
0000
,
0100
0000
0010
1000
0000
1000
0100
0010
,
0001
0000
0001
1000
0000
1000
0010
0100
,
0001
1000
0001
1000
0002
0000
0000
0013
,
0100
0010
0100
0010
0100
0000
0110
0000
,
1000
0000
1000
0002
0000
1003
0100
0000
,
2000
0000
3001
0100
0001
1000
0100
1000
,
0020
2030
3200
0320
,
0031
0100
0010
1000
0001
1000
0010
0100
,
0002
0023
2030
3020
,
0031
0100
0001
1000
0001
1000
0100
0010
,
0001
1000
0001
1000
0002
0000
0000
0103
,
0010
0100
0010
0100
0010
0000
0110
0000
,
2000
0100
0001
0010
,
3002
0010
0203
1000
,
0320
0000
1030
0001
0000
1000
0100
0000
,
0010
0001
0000
1000
0001
0000
0100
0000
,
0020
0001
0100
1000
,
0230
1000
0302
1000
,
0013
0100
0010
0001
1000
0001
1000
0001
,
0100
0000
0100
0010
0000
1000
0001
1000
,
0200
0010
0001
1000
,
0320
1000
0230
0001
,
1300
0000
1000
0001
0000
1000
0010
0000
,
0100
0010
0100
0001
0010
0100
1000
0001
,
0200
0010
1000
0001
,
0320
0001
0230
1000
,
0302
0000
1003
0200
0000
1300
0002
0000
,
0103
0010
0100
0010
0100
0002
0000
1003
,
0200
0010
0000
0010
0000
0010
0000
0010
,
0000
1000
0000
1000
0000
1000
0300
1000
,
0002
0100
0000
0100
0000
0100
0000
0100
,
0000
1000
0000
1000
0000
0010
0003
0010
,
0010
0000
0100
1000
0001
0100
0000
0010
,
0100
0000
0100
0010
1000
0001
0000
0001
,
0010
0000
0100
1000
0001
0100
0000
0100
,
0010
0000
1000
0001
0010
0100
0000
0100
,
1000
0000
0010
0000
0001
0000
0010
0100
,
0000
0010
0000
1000
0100
0010
0001
0000
,
1000
0000
0100
0000
0001
0000
0100
1000
,
0010
0100
0010
0200
0000
0301
2000
0000
,
3100
0000
0001
0000
0100
0000
1000
0010
,
0000
0001
0000
0010
0100
0001
1000
0000
,
0001
0000
0010
0000
1000
0000
0010
0100
,
1000
0001
1000
0002
0000
0103
0020
0000
,
2030
0000
0001
0000
3100
0010
0100
0010
,
0001
0010
0001
0010
0001
1000
0001
1000
,
0001
0001
0100
0020
0000
1030
0001
0000
,
1000
0100
1000
0100
0100
0010
0001
0000
,
0002
0000
0010
0000
1003
0010
1000
0010
,
0100
0010
0100
0010
0100
0001
0100
0001
,
1000
0100
2000
0000
3200
0010
0010
0310
,
0002
0000
0000
2003
0000
0000
3020
0000
,
0230
0000
1000
0000
0310
0100
0010
0100
,
0001
1000
0001
1000
0100
0010
0001
1000
,
0100
0100
0100
2000
0000
3001
0100
0001
,
0020
0100
0130
2000
0000
3001
0200
0000
,
0320
0000
0001
0000
0130
0010
0100
0010
,
1000
0010
1000
0010
1000
0100
0010
0001
,
0100
0100
0010
0100
0001
0001
1000
0001
,
0010
0010
0010
0100
0100
0100
1000
0001
,
0100
0100
0000
0000
0000
0000
0000
0000
;

//---------------dance-single - ----------------
#NOTES:
     dance-single:
     :
     Easy:
     6:
     0.447990,0.494619,0.164616,0.551463,0.000000,294.000000,20.000000,67.000000,0.000000,0.000000,0.000000,0.447990,0.494619,0.164616,0.551463,0.000000,294.000000,20.000000,67.000000,0.000000,0.000000,0.000000:
0000
0000
0000
0000
,
0000
0000
0000
0000
,
2100
0000
0001
0000
0010
0010
3010
0000
,
0102
0000
1000
0000
0010
0010
0013
0000
,
0200
0000
0001
0000
0010
0010
1300
0001
,
0200
0000
1000
0000
0010
0010
0301
1000
,
2002
3003
1000
0000
0001
0000
0100
0000
,
0020
1030
0001
0010
,
0200
1300
0001
0100
,
0020
0130
0001
1000
,
0200
0000
0000
0000
,
0000
0000
0000
0000
,
0320
0000
0000
0000
,
0032
0000
2003
0000
,
3010
0010
0100
0001
,
1001
1000
0100
0010
,
1001
0100
1001
0100
,
1010
0110
1001
0110
,
1001
0000
0100
0000
1000
0000
0010
0010
,
0010
0000
0100
0000
0001
0000
0010
0010
,
0010
0100
0010
0001
,
1000
0001
0100
0010
,
1000
0001
2000
0000
,
3100
0100
0010
0110
,
0002
0000
0003
1000
0000
0000
0001
0000
,
0200
0310
0010
1000
,
0001
0001
1000
1000
,
0100
0010
0010
0100
,
1000
1000
0001
0001
,
0100
0010
0010
0100
,
0001
1000
0002
0000
,
0013
0010
0100
0110
,
2000
0100
0100
0100
,
3002
0100
2003
0100
,
3002
0000
0000
1003
0000
0001
1000
0000
,
0100
0010
0000
0100
0010
0000
0001
0000
,
0200
0010
0010
0010
,
0320
1000
2030
3001
,
0000
0001
1000
0000
0100
0000
0010
0000
,
0001
0000
0001
2000
0000
0000
3010
0000
,
0200
0001
0001
0301
,
0002
1000
2003
0100
,
3200
0000
0000
0310
0000
0100
0010
0000
,
0001
0100
1000
0100
,
0002
0010
0010
0010
,
2003
0010
3002
0010
,
2003
0000
3001
1000
0000
0001
1000
0000
,
0001
0000
0100
0000
0010
0100
0000
0010
,
2000
0000
0000
0000
,
3002
0000
0000
0000
,
0023
0000
0000
0000
,
0230
0000
2300
0000
,
3001
0001
0010
0100
,
1001
1000
0010
0100
,
1001
0100
0010
1000
,
1001
0010
0100
1000
,
1001
0001
0100
0100
,
0010
0000
0010
0000
1000
0001
1000
0000
,
0100
0100
0010
0010
,
0001
0000
1000
0001
0000
1000
0001
0000
,
0100
0200
0320
2030
,
3200
0320
0032
2003
,
3002
0203
0320
2030
,
3001
0000
1000
0001
0000
1000
0001
0000
,
0020
0000
0130
1000
,
0001
1000
0010
0100
,
0001
0000
0001
1000
0000
0000
0100
0000
,
0020
0000
0000
0230
0000
0000
2300
0000
,
3002
0000
0103
0100
,
0010
1000
0100
0010
,
0001
1002
0103
0010
,
2000
0000
0000
3200
0000
0000
0320
0000
,
0032
0000
1003
1000
,
0100
0010
0010
0010
,
0001
0000
0001
2000
0000
0000
3010
0000
,
0200
0000
0000
0320
0000
0000
2030
0000
,
3002
0000
1003
0100
,
0010
0001
0100
0010
,
1001
0100
1001
0100
,
0002
0000
0000
0023
0000
0000
0230
0000
,
1300
0001
0000
0000
0000
0000
0000
0000
;
