#TITLE:On and On;
#SUBTITLE:;
#ARTIST:VIXX;
#TITLETRANSLIT:;
#SUBTITLETRANSLIT:;
#ARTISTTRANSLIT:;
#GENRE:;
#CREDIT:;
#BANNER:[ROUND D] - On and On.png;
#BACKGROUND:[ROUND D] - On and On-bg.png;
#LYRICSPATH:;
#CDTITLE:;
#MUSIC:[ROUND D] - On and On.ogg;
#OFFSET:-0.016000;
#SAMPLESTART:34.058998;
#SAMPLELENGTH:18.150999;
#SELECTABLE:YES;
#BPMS:0.000000=119.000000
;
#STOPS:
;
#BGCHANGES:;
#KEYSOUNDS:;
#ATTACKS:;

//---------------dance-single - ----------------
#NOTES:
     dance-single:
     :
     Hard:
     8:
     0.478644,0.457338,0.127465,0.127465,0.259483,340.000000,14.000000,14.000000,0.000000,0.000000,0.000000,0.478644,0.457338,0.127465,0.127465,0.259483,340.000000,14.000000,14.000000,0.000000,0.000000,0.000000:
// measure 0
0000
0000
0000
0000
,  // measure 1
0000
0000
0000
0000
,  // measure 2
0001
0000
1000
0000
0010
0000
1000
0000
0100
0000
0000
0100
0010
0000
0000
0000
,  // measure 3
0001
1000
0000
1000
0010
0000
1000
0000
0001
0000
0100
0000
0001
0000
0010
0000
,  // measure 4
1000
0000
1000
0100
0000
0000
0000
0000
0001
0000
0100
0000
1000
0000
0100
0000
,  // measure 5
0001
0000
0000
0001
0010
0000
0000
0010
0100
0000
1000
0000
0100
0000
0010
0000
,  // measure 6
0001
1000
0000
1000
0010
0000
0100
0000
0001
0000
0000
1000
0100
0000
0000
0000
,  // measure 7
0010
0100
0001
0010
0100
1000
0001
1000
,  // measure 8
0010
0100
0000
0100
0001
0000
0000
0000
0010
0100
0000
0100
1000
0000
0000
0000
,  // measure 9
0001
1000
0000
1000
0001
0000
0010
0000
0200
0000
0000
0000
0300
0000
0000
0000
,  // measure 10
0001
0100
0001
0100
0000
0010
0000
0100
0000
0010
0000
0000
0000
0000
0100
0000
,  // measure 11
1000
0100
1000
0100
0000
0010
0000
0100
0000
0010
0000
0000
1000
0000
0001
0000
,  // measure 12
1000
0000
0000
1000
0010
0000
0000
0010
0100
0000
0000
0100
0001
0000
0000
0001
,  // measure 13
0010
0000
0000
0010
0100
0000
0000
0100
2000
0000
0000
0000
3010
0000
0020
0000
,  // measure 14
0000
0000
0030
0000
0000
1000
0001
0020
,  // measure 15
0000
0000
0000
0000
0030
0000
0001
0000
0010
0000
0000
0100
0000
0000
1000
0000
,  // measure 16
0020
0000
0000
0000
0030
0000
0000
1000
,  // measure 17
1100
0101
1010
1001
,  // measure 18
0011
0000
0000
0000
1100
0000
0000
0000
1000
0000
0001
1000
0000
1000
0002
0000
,  // measure 19
0000
0000
0013
0000
1000
0001
0100
0010
,  // measure 20
1010
0000
0000
0000
0101
0000
0000
0000
0001
0000
1000
0001
0000
0001
2000
0000
,  // measure 21
0000
0000
3010
0000
0001
1000
0100
0010
,  // measure 22
0001
0000
0100
0000
0001
0000
0010
0000
0001
0000
0100
0001
0000
0000
0000
0000
,  // measure 23
1000
0000
0100
0000
1000
0000
0010
0000
1000
0000
0100
1000
0000
0000
0000
0000
,  // measure 24
0001
1000
0010
0100
0001
0010
0100
1000
,  // measure 25
0100
0001
0100
1000
0010
1001
0000
0220
,  // measure 26
0000
0000
0000
0000
0330
0000
0000
0001
,  // measure 27
1000
0010
1000
0010
0100
0001
1000
0000
,  // measure 28
0001
0010
0001
0010
0100
1000
0001
1000
,  // measure 29
0100
0010
0100
0001
0100
0001
1000
0001
,  // measure 30
1000
0000
0100
0010
0000
0010
0001
0000
1000
0000
0010
0100
0000
0100
0001
0000
,  // measure 31
0000
1000
0010
0100
0001
0010
1000
0010
,  // measure 32
0001
0100
0010
0100
1000
0001
1001
0000
,  // measure 33
0000
0000
0010
0000
0001
0000
1000
0000
0001
0000
0010
0100
0000
0100
1000
0000
,  // measure 34
0001
0000
1000
0000
0010
0000
0001
0000
0010
0000
0000
0010
0000
0000
0020
0000
,  // measure 35
0000
0000
0000
0030
,  // measure 36
0001
1000
0001
1000
0001
0100
0100
0100
,  // measure 37
0020
0000
0000
0000
0130
0000
0000
0000
1000
0000
0001
0100
0000
0100
0020
0000
,  // measure 38
1000
0000
0001
0000
1030
0100
0010
0001
,  // measure 39
2000
0000
0000
0000
3001
0000
0000
0000
0010
0000
0001
1000
0000
1000
0200
0000
,  // measure 40
0001
0000
1000
0000
0301
0100
1000
0010
,  // measure 41
0001
0000
0100
0000
0001
0000
0010
0000
0001
0000
0100
0001
0000
0000
0000
0000
,  // measure 42
1000
0000
0100
0000
1000
0000
0010
0000
1000
0000
0100
1000
0000
0000
0110
0000
,  // measure 43
0000
0100
0001
1000
0100
1000
0001
0100
,  // measure 44
0010
1000
0010
0001
0010
0100
0000
1001
,  // measure 45
0000
0000
0010
0000
0000
0000
0001
0000
1000
0000
0100
1000
0000
0000
0001
0000
,  // measure 46
0010
0000
0010
0000
0010
0000
0010
0000
0100
0000
0010
0001
0000
0000
1000
0000
,  // measure 47
0000
0000
0010
0000
0000
0000
0001
0000
0100
0000
0010
1000
0000
0000
0100
0000
,  // measure 48
0010
0000
0010
0000
0010
0000
0010
0000
0001
0000
1000
0010
0000
0000
0001
0000
,  // measure 49
0000
0000
0100
0000
0000
0000
1000
0000
0100
0000
1000
0001
0000
0000
1000
0000
,  // measure 50
0010
0000
0010
0000
0010
0000
0010
0000
0100
0000
0010
0100
0000
0000
0000
0000
,  // measure 51
0000
0100
0001
0001
1000
1000
0010
0010
,  // measure 52
0100
0001
1000
0100
1000
0001
0000
0110
;

//---------------dance-single - ----------------
#NOTES:
     dance-single:
     :
     Beginner:
     1:
     0.085844,0.144081,0.000000,0.009105,0.000000,65.000000,0.000000,1.000000,0.000000,0.000000,0.000000,0.085844,0.144081,0.000000,0.009105,0.000000,65.000000,0.000000,1.000000,0.000000,0.000000,0.000000:
0000
0000
0000
0000
,
0000
0000
0000
0000
,
0001
0000
0000
0000
,
1000
0000
0000
0000
,
0001
0000
0000
0000
,
0100
0000
0100
0000
,
1000
0000
0000
0000
,
0001
0000
0000
0000
,
1000
0000
0000
0000
,
0100
0000
0100
0000
,
0010
0000
0000
0000
,
1000
0000
0000
0000
,
0001
0000
0000
0000
,
0100
0000
0000
0000
,
0010
0000
0000
0000
,
0001
0000
0000
0000
,
1000
0000
0000
0000
,
0100
0000
0100
0000
,
0010
0000
0010
0000
,
0010
0000
0000
0000
,
1000
0000
1000
0000
,
1000
0000
0000
0000
,
0001
0000
0001
0000
,
0001
0000
0001
0000
,
0100
0000
0000
0000
,
0010
0000
0000
0000
,
0000
0000
0000
0000
,
1000
0000
0000
0000
,
0001
0000
0000
0000
,
0100
0000
0000
0000
,
0010
0000
0000
0000
,
0001
0000
0001
0000
,
1000
0000
1000
0000
,
0001
0000
1000
0000
,
0001
0000
1000
0000
,
0020
0000
0000
0000
,
0000
0000
0030
0000
,
0000
0100
0000
0000
,
0100
0000
0000
0000
,
1000
0000
0000
0000
,
1000
0000
0000
0000
,
0001
0000
0000
0000
,
0001
0000
0000
0000
,
0010
0000
0000
0000
,
0010
0000
0000
0000
,
1000
0000
1000
0000
,
1000
0000
0000
0000
,
0001
0000
0001
0000
,
0001
0000
0000
0000
,
0010
0000
0010
0000
,
0010
0000
0000
0000
,
0000
0100
0000
0100
,
0000
0010
0000
0010
;

//---------------dance-single - ----------------
#NOTES:
     dance-single:
     :
     Easy:
     3:
     0.241924,0.264149,0.091046,0.072837,0.000000,168.000000,10.000000,8.000000,0.000000,0.000000,0.000000,0.241924,0.264149,0.091046,0.072837,0.000000,168.000000,10.000000,8.000000,0.000000,0.000000,0.000000:
0000
0000
0000
0000
,
0000
0000
0000
0000
,
0001
0000
1000
0000
,
0010
0010
0010
0010
,
0100
0000
0001
1000
,
0020
0100
0130
0000
,
0001
0000
0001
0000
,
0100
0100
0100
0100
,
1000
0000
0001
1000
,
0010
0010
0100
0100
,
0001
0000
1000
0000
,
0001
0000
1000
0001
,
1000
0010
0100
0001
,
1000
0100
0010
0001
,
0002
0000
0003
1000
,
2000
3000
0020
0030
,
0200
0000
0300
0000
,
0001
0001
1000
1000
,
0010
0100
0001
1000
,
0002
0000
0003
0000
,
1000
0010
0100
0001
,
2000
0000
3000
0000
,
0100
0100
0010
0010
,
0001
0001
1000
1000
,
0001
1000
0010
0100
,
0001
1000
0100
1000
,
0001
0000
0000
0000
,
0010
1000
0010
1000
,
0001
0100
0001
0100
,
0010
0001
0010
0001
,
1000
0100
1000
0100
,
0001
1000
0001
1000
,
0001
1000
0001
0001
,
0000
0100
0010
0100
,
0010
0010
0100
0200
,
0000
0000
0001
0001
,
0301
0000
0001
1000
,
0000
1001
0001
1000
,
0010
1000
0010
0000
,
0001
1000
0100
0010
,
0001
0010
0001
0100
,
1000
1000
0001
0001
,
0010
0010
0100
0100
,
1000
0100
0010
0001
,
1000
0010
0100
0001
,
0000
1100
0001
0101
,
0010
0010
0100
0100
,
0000
0011
1000
1010
,
0010
0001
1000
0001
,
0000
0011
1000
1100
,
0001
0100
1000
0001
,
0000
1010
0001
0101
,
1000
0001
0100
0110
;

//---------------dance-single - ----------------
#NOTES:
     dance-single:
     :
     Medium:
     6:
     0.353781,0.433267,0.081942,0.145674,0.040971,247.000000,9.000000,16.000000,0.000000,0.000000,0.000000,0.353781,0.433267,0.081942,0.145674,0.040971,247.000000,9.000000,16.000000,0.000000,0.000000,0.000000:
// measure 0
0000
0000
0000
0000
,  // measure 1
0000
0000
0000
0000
,  // measure 2
0001
0000
1000
0010
1000
0000
0100
0000
,  // measure 3
0001
0100
0001
0000
1000
0100
1000
0000
,  // measure 4
0001
0000
0010
0000
0100
0010
0001
1000
,  // measure 5
0020
0230
0302
0003
,  // measure 6
1000
0100
1000
0000
0001
0000
1000
0000
,  // measure 7
0010
0100
0010
0000
1000
0001
0010
0000
,  // measure 8
0100
0010
0100
0000
1000
0001
1000
0000
,  // measure 9
0010
0100
0001
1000
,  // measure 10
0001
0100
0001
0000
1000
1000
0000
0000
,  // measure 11
0010
1000
0010
0000
0001
0001
1000
0001
,  // measure 12
0020
0230
2300
3002
,  // measure 13
0203
0000
0000
0000
0320
0000
0000
0030
2000
0000
0000
0000
3001
0000
0002
0000
,  // measure 14
0000
0000
0000
0000
0000
0000
0000
0003
0000
0000
1000
0000
0010
0000
2000
0000
,  // measure 15
0000
0000
0000
0000
3000
0000
0000
0000
0100
0000
0000
0010
0000
0000
0100
0000
,  // measure 16
0020
0000
0000
0000
0000
0030
0000
0001
,  // measure 17
1000
0010
0100
0001
,  // measure 18
1100
0000
0101
0000
0010
1000
0010
0200
,  // measure 19
0000
0000
0000
0000
0000
0000
0000
0300
0000
0000
0000
0000
0001
0000
1000
0000
,  // measure 20
0010
0000
0100
0000
1000
0001
1000
0020
,  // measure 21
0000
0000
0000
0000
0000
0000
0000
0030
0000
0000
0000
0000
0001
0000
0100
0000
,  // measure 22
0010
0000
0000
0000
1000
0000
0000
0000
0001
0000
0000
1000
0000
0000
0000
0000
,  // measure 23
0100
0000
0000
0000
1000
0000
0000
0000
0010
0000
0000
0100
0000
0000
0000
0000
,  // measure 24
0001
1000
0010
0000
1000
0001
0010
0000
,  // measure 25
0100
0010
0100
0010
0001
1000
0000
1001
,  // measure 26
0000
0000
0000
0000
,  // measure 27
1000
0000
0100
0000
0001
0001
0001
0000
,  // measure 28
0100
0000
0010
0000
1000
1000
0001
0001
,  // measure 29
0000
1000
0100
1000
0001
0000
0100
0000
,  // measure 30
0010
0100
0010
0000
1000
0001
1000
0000
,  // measure 31
0001
0000
0010
0100
0010
0100
0010
0100
,  // measure 32
1000
0001
1000
0001
1000
0000
1001
0000
,  // measure 33
0000
0000
0010
0000
0100
0001
0100
0000
,  // measure 34
0010
1000
0001
0000
1000
0100
0010
0002
,  // measure 35
0000
0000
0000
0000
0000
0000
0000
0000
1000
0000
0000
0000
1000
0003
0000
0000
,  // measure 36
0000
0010
0100
0001
,  // measure 37
0000
0000
0110
0000
0001
1000
0010
1000
,  // measure 38
0001
0100
1000
0100
,  // measure 39
0010
0100
0010
0000
0001
0010
1000
0010
,  // measure 40
0001
0000
0100
0000
0010
0000
1000
0001
,  // measure 41
1000
0010
1000
0000
0001
0000
0101
0000
,  // measure 42
1000
0010
1000
0000
0001
0000
0011
0000
,  // measure 43
1000
0100
1000
0000
0001
0010
0001
0000
,  // measure 44
0100
0010
0100
0001
1000
0001
0000
1001
,  // measure 45
0000
0000
0010
0000
0000
0000
0010
0000
1000
0000
0000
0001
0000
0000
0100
0000
,  // measure 46
0010
0000
0000
0000
1000
0000
0000
0000
0100
0000
0000
1000
0000
0000
0000
0000
,  // measure 47
0000
0000
0001
0000
0000
0000
0001
0000
0010
0000
0000
0100
0000
0000
0010
0000
,  // measure 48
0001
0000
0000
0000
1000
0000
0000
0000
0010
0000
0000
0001
0000
0000
0100
0000
,  // measure 49
0000
0000
1000
0000
0000
0000
0100
0000
0001
0000
0000
1000
0000
0000
0100
0000
,  // measure 50
0010
0000
0100
0000
0010
0000
0001
0000
1000
0000
0000
0010
0000
0000
0000
0000
,  // measure 51
0000
0001
0100
0000
0010
1000
0010
0000
,  // measure 52
1000
0100
0010
0001
0000
1000
0000
1001
;
