#VERSION:0.83;
#TITLE:ONE MORE TIME;
#SUBTITLE:;
#ARTIST:SARA;
#TITLETRANSLIT:One More Time;
#SUBTITLETRANSLIT:;
#ARTISTTRANSLIT:Sara;
#GENRE:SUPER EUROBEAT;
#ORIGIN:;
#CREDIT:;
#BANNER:[ROUND D] - ONE MORE TIME-bn.png;
#BACKGROUND:[ROUND D] - ONE MORE TIME-bg.png;
#PREVIEWVID:;
#JACKET:[ROUND D] - ONE MORE TIME-jacket.png;
#CDIMAGE:;
#DISCIMAGE:;
#LYRICSPATH:;
#CDTITLE:;
#MUSIC:[ROUND D] - ONE MORE TIME.ogg;
#OFFSET:0.600000;
#SAMPLESTART:63.920002;
#SAMPLELENGTH:12.180000;
#SELECTABLE:YES;
#DISPLAYBPM:158.000000;
#BPMS:0.000=158.000;
#STOPS:132.500=0.190,
133.000=0.190,
171.000=0.285,
171.250=0.285,
171.500=0.285,
171.750=0.285,
232.500=0.760;
#DELAYS:;
#WARPS:33.000=6.000;
#TIMESIGNATURES:0.000=4=4;
#TICKCOUNTS:0.000=4;
#COMBOS:0.000=1;
#SPEEDS:0.000=1.000=0.000=0;
#SCROLLS:0.000=1.000;
#FAKES:;
#LABELS:0.000=Song Start;
#LASTSECONDHINT:112.500000;
#BGCHANGES:;
#KEYSOUNDS:;
#ATTACKS:
;

//---------------dance-single - ----------------
#NOTEDATA:;
#CHARTNAME:;
#STEPSTYPE:dance-single;
#DESCRIPTION:;
#CHARTSTYLE:;
#DIFFICULTY:Beginner;
#METER:2;
#RADARVALUES:0.175076,0.286350,0.068561,0.257105,0.000000,143.000000,135.000000,8.000000,30.000000,0.000000,0.000000,0.000000,0.000000,0.000000,0.175076,0.286350,0.068561,0.257105,0.000000,143.000000,135.000000,8.000000,30.000000,0.000000,0.000000,0.000000,0.000000,0.000000;
#CREDIT:;
#DISPLAYBPM:158.000000;
#NOTES:
0000
0000
0000
0000
,
0000
0000
0000
0000
,
0000
0000
0000
0000
,
0000
0000
0000
0000
,
0000
0000
1000
0000
,
0100
0000
0010
0000
,
0001
0000
0010
0000
,
0100
0000
1000
0000
,
0000
0000
0000
0000
,
0000
0000
0000
0000
,
1000
1000
1000
0000
,
0000
0000
0000
0000
,
0001
0001
0001
0000
,
0000
0000
0000
0000
,
0010
0010
0010
0000
,
0000
0000
0000
0000
,
0100
0100
0100
0000
,
0110
0000
0000
1001
,
1000
0000
0100
0000
,
0001
0000
0100
0000
,
1000
0000
0010
0000
,
0100
0000
0001
0000
,
0010
0000
0100
0000
,
1000
0000
0010
0000
,
0001
0000
0010
0000
,
0100
0000
0110
0000
,
2000
0000
3100
0000
,
0000
0010
0010
0000
,
0001
0000
1000
0000
,
2002
0000
3003
0000
,
0002
0000
0013
0000
,
0000
0100
0100
0000
,
1000
0000
0001
0000
,
0200
0000
0300
0010
,
0000
1000
0000
0100
,
0000
0010
0000
0100
,
0000
1000
0000
0010
,
0000
1001
0000
0010
,
0000
0001
0000
0100
,
0000
0010
0000
0100
,
0000
0001
0000
0010
,
0000
0100
0000
2000
,
0000
0000
3000
0001
,
0100
0100
0100
0000
,
0002
0000
2003
0000
,
3010
0010
0010
0000
,
0200
0000
0320
0000
,
1030
1000
1000
0000
,
0020
0000
0230
0000
,
0301
0001
0001
0001
,
0002
0000
2003
0000
,
3100
0100
0100
0000
,
2000
0000
3002
0000
,
0013
0010
0010
0000
,
0200
0000
0320
0000
,
0031
0001
0001
0000
,
0020
0000
0230
0000
,
1300
1000
1000
1000
,
1000
1001
0100
0000
,
0010
0000
1000
0000
,
0100
0000
0010
0000
,
0100
0000
1000
0000
,
2001
0000
3100
0000
,
0010
0000
0001
0000
,
0100
0000
0001
0000
,
0010
0000
0100
0000
,
1002
0000
0203
0000
,
0000
0300
0020
0000
,
0000
0030
2000
0000
,
0000
3000
0002
0000
,
0000
0003
0020
0000
,
0000
0030
0200
0000
,
0000
0300
2000
0000
,
0000
3000
0002
0000
,
0000
0003
0000
0000
;

//---------------dance-single - ----------------
#NOTEDATA:;
#CHARTNAME:;
#STEPSTYPE:dance-single;
#DESCRIPTION:;
#CHARTSTYLE:;
#DIFFICULTY:Easy;
#METER:4;
#RADARVALUES:0.313423,0.381800,0.197114,0.299955,0.000000,256.000000,233.000000,23.000000,35.000000,0.000000,0.000000,0.000000,0.000000,0.000000,0.313423,0.381800,0.197114,0.299955,0.000000,256.000000,233.000000,23.000000,35.000000,0.000000,0.000000,0.000000,0.000000,0.000000;
#CREDIT:;
#DISPLAYBPM:158.000000;
#NOTES:
0000
0000
0000
0000
,
0000
0000
0000
0000
,
0000
0000
0000
0000
,
0000
0000
0000
0000
,
0000
0000
1000
1000
,
0100
0100
0010
0010
,
0001
0001
0010
0010
,
0100
0100
1000
0001
,
0100
0000
0000
0000
,
0000
0000
0000
0000
,
0010
0010
0010
0000
,
1000
0010
0001
0010
,
0100
0100
0100
0000
,
0001
0100
1000
0100
,
0001
0001
0001
0000
,
0010
0100
0001
0100
,
1000
0000
1000
0000
1000
0000
0000
0010
,
0000
0100
0000
0000
0000
0000
1001
0000
,
2000
0000
3010
1000
,
0002
0000
1003
0001
,
0200
0000
0301
1000
,
0002
0013
2000
3001
,
0200
0000
0310
0001
,
2000
0000
3010
0100
,
0002
0000
0013
0100
,
2000
3010
0002
0013
,
2000
0000
3200
0000
,
0000
1300
1000
0010
,
0001
0010
1000
0100
,
0010
0010
0020
0030
,
0002
0000
0023
0000
,
0000
0031
0001
0100
,
1000
0100
0001
0010
,
0200
0000
0000
0300
1001
0000
0010
0000
,
0001
0010
1000
0010
,
0100
0001
1000
0010
,
0001
0010
1000
0010
,
0100
1000
0001
0100
,
0010
1000
0001
0010
,
0100
1000
0001
0010
,
0001
1000
0100
0100
,
0000
0010
0010
0001
,
1000
0001
1000
0020
,
0130
0100
0100
0000
,
1001
0010
1001
0100
,
0001
0001
0001
0000
,
0110
0001
0110
1000
,
0010
0010
0010
0000
,
1001
0100
1001
0010
,
1000
0000
1000
0000
1000
0000
0000
0001
,
0000
0001
0000
0000
0100
0000
0010
0000
,
1010
1010
1010
0000
,
0010
0100
0010
0100
,
0101
0101
0101
0000
,
0001
1000
0001
1000
,
1100
0110
0011
0000
,
0001
1000
0001
1000
,
0010
0000
0100
0000
0010
0000
0000
0110
,
0000
2002
3003
0000
0200
0000
0000
0000
,
0310
1000
0002
0000
,
0013
0001
2000
0000
,
3100
1000
0002
0013
,
2000
3010
0200
0000
,
0310
0001
2000
0000
,
3010
1000
0002
0000
,
0103
0001
2000
3010
,
0002
0013
2000
0000
,
3010
0100
0002
0000
,
0103
0010
2000
0000
,
3001
0100
0110
1001
,
0110
1001
0002
0000
,
0013
0100
2000
0000
,
3100
0010
0002
0000
,
0103
0010
1000
0100
,
0010
0001
0000
0000
;

//---------------dance-single - ----------------
#NOTEDATA:;
#CHARTNAME:;
#STEPSTYPE:dance-single;
#DESCRIPTION:;
#CHARTSTYLE:;
#DIFFICULTY:Medium;
#METER:6;
#RADARVALUES:0.459115,0.638477,0.522779,0.385657,0.008570,375.000000,314.000000,61.000000,45.000000,0.000000,0.000000,0.000000,0.000000,0.000000,0.459115,0.638477,0.522779,0.385657,0.008570,375.000000,314.000000,61.000000,45.000000,0.000000,0.000000,0.000000,0.000000,0.000000;
#CREDIT:;
#DISPLAYBPM:158.000000;
#NOTES:
0000
0000
0000
0000
,
0000
0000
0000
0000
,
0000
0000
0000
0000
,
0000
0000
0000
0000
,
0000
0000
0000
0000
1000
0100
1000
0000
,
0001
0100
0001
0000
0010
0001
0010
0000
,
0100
1000
0100
0000
1000
0010
1000
0000
,
0001
0100
0001
0000
0010
0100
0010
0100
,
0010
0000
0000
0000
,
0000
0000
0000
0000
,
0110
1001
0110
0000
,
0001
0010
0001
0010
0000
0001
0100
0000
,
0110
1001
0110
0000
,
0010
1000
0010
1000
0000
0100
0010
0000
,
0011
1100
0011
0000
,
0001
1000
0001
1000
0000
0010
0100
0000
,
1010
0000
0011
0000
0101
0000
1000
1000
,
0000
0200
0000
0000
0300
0000
1001
0000
,
2000
0000
3100
0000
0010
0100
0010
0000
,
0002
0000
0103
0000
0010
1000
0001
0000
,
0200
0000
0301
0000
1000
0100
0001
0000
,
2000
3020
0032
0023
,
0230
0000
1300
0000
0010
1000
0001
0000
,
0020
0000
0031
0000
0100
0001
1000
0000
,
0002
0000
0103
0000
0010
1000
0001
0000
,
2000
3200
0320
0032
,
2003
0000
0000
0010
3020
0000
0000
0000
,
0030
0000
0100
0010
1000
0001
0010
0000
,
0001
0000
0001
1000
0000
1000
0010
0200
,
0000
0300
0000
0001
0100
0010
1000
0000
,
0002
0000
0000
0010
0023
0000
0000
0000
,
0030
0000
0100
1000
0010
0100
0001
0000
,
0010
0000
0010
0100
0000
0100
1000
0001
,
0000
0101
1100
0220
0000
0330
0001
0100
,
0001
0100
0000
0001
1000
0100
0000
0100
,
0000
0010
0000
0010
0000
0100
1000
0100
,
1000
0100
0000
1000
0001
0010
0000
0010
,
0000
0100
0000
0100
0000
0000
1000
0100
,
0010
0001
0000
0100
0010
1000
0000
1000
,
0000
0001
0000
0001
0000
0100
0001
0100
,
0010
0100
0000
0002
0000
2003
0000
3000
,
0000
0100
0010
0001
0010
0100
1000
0100
,
0020
0000
0000
0000
0000
0000
0000
0000
0030
0000
0000
0000
0110
1001
0110
1001
,
0101
0101
1010
0000
,
1000
0010
0100
0010
0000
1000
0001
0000
,
0011
0011
1100
0000
,
1000
0100
1000
0020
0000
0130
0001
0000
,
1001
1001
0110
0000
,
0010
0100
0001
0020
0000
0130
1000
0000
,
1100
0000
0101
0000
0011
0000
1000
1000
,
0000
0020
0000
0000
0030
0000
0110
0000
,
1010
1100
1010
0000
,
0100
0010
0100
0010
0000
0100
0001
0000
,
0011
0101
0011
0000
,
0001
0100
0001
0100
0000
0010
1000
0000
,
1001
1001
0110
0000
,
0010
1000
0100
0020
0000
0031
0100
0000
,
0101
0000
1100
0000
1010
0000
0001
0001
,
0000
0020
0130
0000
1100
0000
1100
0000
,
0010
0100
0010
0000
0011
0000
0011
0000
,
0001
1000
0001
0000
0101
0000
0101
0000
,
0100
0010
0100
0000
1010
0000
0101
0000
,
1010
0101
0110
0110
,
1000
0001
1000
0000
1001
0000
1001
0000
,
0100
0010
0100
0000
0110
0000
1001
0000
,
1000
0100
0010
0000
0001
0010
0100
0000
,
1000
0001
1000
0000
0200
0000
0000
0000
,
1000
0001
2300
0000
,
0010
0100
3002
0000
,
0100
0010
2003
3020
,
0032
0023
0230
0000
,
0001
1000
0302
0000
,
0010
0100
2003
0000
,
0100
3020
0230
0302
,
2003
3200
0300
0000
;

//---------------dance-single - ----------------
#NOTEDATA:;
#CHARTNAME:;
#STEPSTYPE:dance-single;
#DESCRIPTION:;
#CHARTSTYLE:;
#DIFFICULTY:Hard;
#METER:7;
#RADARVALUES:0.535023,0.670400,0.471359,0.497069,0.068561,437.000000,382.000000,55.000000,58.000000,0.000000,0.000000,0.000000,0.000000,0.000000,0.535023,0.670400,0.471359,0.497069,0.068561,437.000000,382.000000,55.000000,58.000000,0.000000,0.000000,0.000000,0.000000,0.000000;
#CREDIT:;
#DISPLAYBPM:158.000000;
#NOTES:
// measure 0
0000
0000
0000
0000
,  // measure 1
0000
0000
0000
0000
,  // measure 2
0000
0000
0000
0000
,  // measure 3
0000
0000
0000
0000
,  // measure 4
0000
0000
0000
0000
0000
0000
0000
0000
1000
0000
0001
0000
0100
0000
0001
0020
,  // measure 5
0000
0000
0130
0000
0000
0000
0000
0000
1000
0000
0001
0000
0100
0000
0010
2000
,  // measure 6
0000
0000
3100
0000
0010
0000
0001
0000
1000
0000
0010
0000
0100
0000
0001
0200
,  // measure 7
0000
0000
0310
0000
0000
0000
0000
0000
1000
0000
0100
0000
0010
0000
0001
0200
,  // measure 8
0000
0310
0000
0000
0000
0000
0000
0000
,  // measure 9
0000
0000
0000
0000
,  // measure 10
1010
0110
0101
0000
,  // measure 11
0001
0100
1000
0200
0000
0310
1000
0001
,  // measure 12
0011
0110
1100
0000
,  // measure 13
1000
0100
0010
0002
0000
0013
0100
1000
,  // measure 14
1100
0110
0011
0000
,  // measure 15
0001
0010
0100
2000
0000
3100
0010
0001
,  // measure 16
1001
0000
0110
0000
1010
0000
0001
0100
,  // measure 17
0000
0220
0000
0000
0000
0330
1001
0000
,  // measure 18
1000
0100
0001
0100
1000
0010
1000
0000
,  // measure 19
0001
0100
1000
0100
0001
0010
0100
0000
,  // measure 20
1000
0100
0010
0000
0001
0100
0010
0000
,  // measure 21
1000
0010
0100
0010
0001
0010
0100
0000
,  // measure 22
0001
0010
1000
0010
0001
0100
0010
0000
,  // measure 23
1000
0010
0001
0010
1000
0100
0010
0000
,  // measure 24
0001
0010
1000
0000
0010
0001
0100
0000
,  // measure 25
0010
1000
0100
1000
0010
0100
0001
1000
,  // measure 26
0200
0000
0000
0301
0200
0000
1000
0300
,  // measure 27
0200
2300
3020
0230
,  // measure 28
0301
0000
0001
1000
0000
1000
0100
0020
,  // measure 29
0000
1000
0000
0002
0000
0030
0203
0000
,  // measure 30
0320
0000
0000
0031
0020
0000
1000
0030
,  // measure 31
0020
0230
0302
0023
,  // measure 32
0130
0000
1000
0100
0000
0010
0001
0100
,  // measure 33
0000
0110
1010
0202
0000
0303
1000
0100
,  // measure 34
0010
0100
1000
0100
0010
0001
0000
0101
,  // measure 35
0000
0011
0000
0201
0000
0000
0301
0100
,  // measure 36
0010
0100
0001
0100
0010
1000
0000
1100
,  // measure 37
0000
0110
0000
0021
0000
0000
0130
0010
,  // measure 38
0001
1000
0100
0010
0001
1000
0000
1100
,  // measure 39
0000
1010
0000
1100
0000
0100
0010
0001
,  // measure 40
0100
0020
0000
2030
0000
3002
0000
0000
,  // measure 41
0000
0103
0010
0100
0010
0100
0001
1000
,  // measure 42
0020
0000
0000
0000
0230
0000
0000
0000
0302
0000
0003
0000
0011
1100
1010
0101
,  // measure 43
0011
0110
1100
0000
,  // measure 44
1000
0010
0100
0020
0000
1030
0001
1000
,  // measure 45
1100
0110
0011
0000
,  // measure 46
0001
1000
0100
0002
0000
0103
1000
0001
,  // measure 47
0011
1001
1100
0000
,  // measure 48
1000
0100
1000
0020
0000
0130
0001
0100
,  // measure 49
0110
0000
1001
0000
0110
0000
0100
0010
,  // measure 50
0000
0000
0100
0000
0010
0000
1000
0000
0100
0010
0100
0010
0001
1000
0001
1000
,  // measure 51
0100
1001
0011
0000
,  // measure 52
0001
0010
0100
0020
0000
0031
1000
0001
,  // measure 53
0101
1001
1010
0000
,  // measure 54
1000
0001
0100
2000
0000
3100
0010
1000
,  // measure 55
1100
0101
1100
0000
,  // measure 56
0100
0010
0001
2000
0000
3010
0100
0001
,  // measure 57
1001
0000
0110
0000
1001
0000
0010
0100
,  // measure 58
0000
0000
0220
0330
1001
0000
0000
0000
1000
0000
0010
0000
0100
0000
0010
0000
,  // measure 59
1000
0001
0010
0000
0001
0100
0010
0100
,  // measure 60
0001
1000
0100
0000
1000
0001
0200
0000
,  // measure 61
0301
1000
0020
0000
0130
0010
0001
1000
,  // measure 62
0100
0010
1000
0000
0001
0010
0100
0010
,  // measure 63
0001
1000
0010
0000
1000
0100
0010
0100
,  // measure 64
1000
0001
0100
0000
1000
0100
0010
0000
,  // measure 65
0100
0001
0010
0000
0001
1000
0010
0100
,  // measure 66
1000
0000
0001
0000
0010
0000
0100
0000
0002
0000
0000
0000
0010
0000
0000
0010
,  // measure 67
0000
0000
0010
0000
0010
0000
0000
0000
2003
0000
0000
0000
0100
0000
0000
0100
,  // measure 68
0000
0000
0100
0000
3100
0000
0000
0000
0200
0000
0000
0000
1000
0000
0000
1000
,  // measure 69
0000
1000
1000
0000
0320
0000
0032
0000
,  // measure 70
2003
0000
0000
0000
3200
0000
0000
0000
2300
0000
0000
0000
0001
0000
0000
0001
,  // measure 71
0000
0000
0001
0000
0001
0000
0000
0000
3020
0000
0000
0000
0100
0000
0000
0100
,  // measure 72
0000
0000
0100
0000
0100
0000
0000
0000
0230
0000
0000
0000
1000
0000
0000
1000
,  // measure 73
0000
1000
1000
0000
0320
0000
2030
0000
,  // measure 74
3200
0302
0003
0000
;
