#TITLE:Наедине;
#ARTIST:Нюша;
#TITLETRANSLIT:Naedine;
#ARTISTTRANSLIT:Nyusha;
#CREDIT:Lisek;
#BANNER:[ROUND D] - Naedine.png;
#BACKGROUND:[ROUND D] - Naedine-bg.png;
#CDTITLE:cdtitle.png;
#MUSIC:[ROUND D] - Naedine.ogg;
#OFFSET:-0.300;
#SAMPLESTART:92.966;
#SAMPLELENGTH:16.520;
#SELECTABLE:YES;
#BPMS:0.000=120.000,128.000=60.000,156.000=120.000;
#STOPS:155.000=2.000
;
#BGCHANGES:;

//---------------dance-single - ----------------
#NOTES:
     dance-single:
     Lisek:
     Hard:
     7:
     0.407,0.622,0.116,0.160,0.178:
1000
0000
0010
0000
1000
0100
0010
0000
,
0001
0000
0100
0000
0001
0010
0100
0000
,
1000
0000
0100
0000
0010
0001
0100
0000
,
0001
0000
0010
0000
0100
1000
0010
0000
,
0100
0000
0001
0000
1000
0010
1000
0000
,
0100
0000
0010
0000
0001
1000
0001
0000
,
1000
0000
0100
0000
0010
0001
1000
0000
,
0001
0000
0010
0000
0100
1000
0001
0000
,
2000
0000
3020
0000
1030
0100
0010
0000
,
0002
0000
0203
0000
0310
1000
0001
0000
,
2000
0000
3200
0000
0310
0001
1000
0000
,
0002
0000
0203
0000
0301
1000
0010
0000
,
2000
0000
3020
0000
0130
0001
0010
0000
,
0002
0000
2003
0000
3100
0010
0001
0000
,
0200
0000
0320
0000
1030
0100
1000
0000
,
0010
0010
0020
0000
0000
0000
0000
0000
,
1030
0100
0001
0100
1000
0010
0100
0000
,
0001
0010
1000
0010
0001
0100
0010
0000
,
1000
0000
0010
0000
0100
0000
0001
0100
0000
0000
0000
0000
0110
0000
0000
0000
,
0100
0000
0001
0000
1000
0000
0010
0100
0000
0100
0000
0000
0110
0000
0000
0000
,
0100
0010
1000
0100
0001
0100
1000
0000
,
0010
0100
0001
0100
1000
0100
0001
0000
,
1000
0000
0100
0000
0010
0000
0001
0100
0000
0000
0000
0000
1001
0000
0000
0000
,
0001
0000
0010
0000
0100
0000
1000
0001
0000
0001
0000
0000
1001
0000
0000
0000
,
0001
0100
1000
0100
0001
0010
0100
0000
,
1000
0100
0001
0100
1000
0100
0010
0000
,
0001
0000
1000
0000
0100
0000
1000
0100
0000
0000
0000
0000
0110
0000
0000
0000
,
1000
0000
0001
0000
0100
0000
0001
0100
0000
0100
0000
0000
0110
0000
0000
0000
,
0010
0100
0001
0100
1000
0100
0001
0000
,
0100
0010
1000
0100
0001
0100
1000
0000
,
0001
0000
1000
0000
0010
0000
0100
0010
0000
0000
0000
0000
1001
0000
0000
0000
,
1000
0000
0001
0000
0100
0000
0010
0100
0000
0100
0000
0000
1001
0000
0000
0000
,
1000
0010
0100
0001
,
0010
0100
1000
0001
,
0100
0010
1000
0100
,
0010
0001
1000
0001
,
1000
0000
0000
0100
0000
0000
1000
0000
0000
0010
0000
0010
0100
0000
0100
0000
0001
0000
0000
0100
0000
0000
0001
0000
0000
1000
0000
1000
0010
0000
0010
0000
,
1000
0000
0000
0100
0000
0000
0010
0000
0000
0001
0000
0001
1000
0000
1000
0000
0001
0000
0000
0100
0000
0000
0010
0000
0000
1000
0000
1000
0001
0000
0001
0000
,
1000
0000
0000
0100
0000
0000
0010
0000
0000
0100
0000
0100
1000
0000
1000
0000
0020
0000
0000
0000
0000
0000
0000
0000
0030
0000
0000
0000
0000
0000
0000
0000
,
1000
0100
0001
0100
1000
0010
0100
0000
,
0001
0010
1000
0010
0001
0100
0010
0000
,
1000
0000
0010
0000
0100
0000
0010
1000
0000
0000
0000
0000
0110
0000
0000
0000
,
0001
0000
0100
0000
0010
0000
0100
0001
0000
0001
0000
0000
0110
0000
0000
0000
,
0010
1000
0100
0001
0100
1000
0010
0000
,
0100
0001
0100
1000
0100
0001
0100
0000
,
0010
0000
1000
0000
0001
0000
0010
0001
0000
0000
0000
0000
1001
0000
0000
0000
,
0100
0000
0001
0000
1000
0000
0100
1000
0000
1000
0000
0000
1001
0000
0000
0000
,
0001
0010
1000
0010
0001
1000
0100
0000
,
1000
0100
0001
0100
1000
0001
0010
0000
,
0001
0000
1000
0000
0100
0000
1000
0010
0000
0000
0000
0000
0110
0000
0000
0000
,
1000
0000
0001
0000
0100
0000
0001
0010
0000
0010
0000
0000
0110
0000
0000
0000
,
0100
1000
0100
0001
0100
1000
0100
0000
,
1000
0010
0001
0010
1000
0010
0100
0000
,
0001
0000
1000
0000
0010
0000
0100
0010
0000
0000
0000
0000
1001
0000
0000
0000
,
1000
0000
0010
0000
0100
0000
0001
1000
0000
1000
0000
0000
1001
0000
0000
0000
,
0002
0000
0000
1003
0200
0000
0320
0000
,
0032
0000
0000
1003
0020
0000
0000
0000
,
0230
0000
0000
0000
,
0000
0000
0000
0000
,
0300
0000
0000
0000
;

//---------------dance-single - ----------------
#NOTES:
     dance-single:
     Lisek:
     Medium:
     4:
     0.236,0.236,0.007,0.342,0.000: // measure 1
1000
0001
0200
0300
,  // measure 2
0001
1000
0020
0030
,  // measure 3
1000
0100
0020
0030
,  // measure 4
0001
1000
0200
0300
,  // measure 5
1000
0010
0200
0300
,  // measure 6
0001
0100
0020
0030
,  // measure 7
1000
0100
0020
0030
,  // measure 8
0001
0010
0200
0300
,  // measure 9
1000
0001
0200
0310
,  // measure 10
1000
0100
0020
0031
,  // measure 11
1000
0001
0200
0301
,  // measure 12
1000
0001
0020
0130
,  // measure 13
1000
0001
0200
0310
,  // measure 14
1000
0100
0020
0130
,  // measure 15
1000
0001
0020
0031
,  // measure 16
2002
0000
0000
3003
,  // measure 17
1000
0000
0001
0000
0100
0001
0100
0000
,  // measure 18
0001
0000
1000
0000
0010
1000
0010
0000
,  // measure 19
2000
0000
3000
0100
,  // measure 20
0020
0000
0030
0001
,  // measure 21
1000
0000
0100
0000
1000
0010
0100
0000
,  // measure 22
0001
0000
0010
0000
0001
0100
0010
0000
,  // measure 23
0200
0000
0300
0010
,  // measure 24
2000
0000
3000
0001
,  // measure 25
1000
0000
0010
0000
0100
0010
0100
0000
,  // measure 26
0001
0000
0100
0000
0010
0100
0010
0000
,  // measure 27
0200
0000
0300
0001
,  // measure 28
0020
0000
0030
0100
,  // measure 29
1000
0000
0010
0000
1000
0100
0010
0000
,  // measure 30
0001
0000
0100
0000
0001
0010
0100
0000
,  // measure 31
2000
0000
3000
0001
,  // measure 32
0200
0000
0300
0010
,  // measure 33
2000
0000
3002
0000
,  // measure 34
0023
0000
0000
0000
,  // measure 35
0230
0000
2300
0000
,  // measure 36
3002
0000
0000
0000
,  // measure 37
2003
0000
3200
0000
,  // measure 38
0320
0000
0000
0000
,  // measure 39
0032
0000
2003
3000
,  // measure 40
0001
0000
0100
0000
0001
1000
0010
0000
,  // measure 41
1000
0000
0100
0000
0010
0001
1000
0000
,  // measure 42
0020
0000
0030
0100
,  // measure 43
0002
0000
0003
1000
,  // measure 44
0001
0000
1000
0000
0010
0100
0001
0000
,  // measure 45
1000
0000
0100
0000
0010
0001
1000
0000
,  // measure 46
0020
0000
0030
1000
,  // measure 47
0200
0000
0300
0010
,  // measure 48
0001
0000
1000
0000
0010
1000
0001
0000
,  // measure 49
1000
0000
0100
0000
0010
0001
1000
0000
,  // measure 50
0002
0000
0003
1000
,  // measure 51
0200
0000
0300
1000
,  // measure 52
0001
0000
0010
0000
0100
1000
0001
0000
,  // measure 53
1000
0000
0100
0000
0010
0001
1000
0000
,  // measure 54
0002
0000
0003
0100
,  // measure 55
0020
0000
0030
1000
,  // measure 56
0002
0000
0000
0000
,  // measure 57
2003
0000
0000
0000
,  // measure 58
3020
0000
0000
0000
,  // measure 59
0000
0000
0000
0000
,  // measure 60
0030
0000
0000
0000
;

//---------------dance-single - ----------------
#NOTES:
     dance-single:
     Lisek:
     Beginner:
     1:
     0.056,0.064,0.000,0.094,0.000:
0000
0000
0000
0000
,
0000
0000
0000
0000
,
0000
0000
0000
0000
,
0000
0000
0000
0000
,
1000
0000
0000
0000
,
0001
0000
0000
0000
,
0100
0000
0000
0000
,
0001
0000
0000
0000
,
1000
0000
0000
0000
,
0010
0000
0000
0000
,
0100
0000
0000
0000
,
0010
0000
0000
0000
,
1000
0000
0000
0000
,
0001
0000
0000
0000
,
0100
0000
0000
0000
,
0010
0000
0000
0000
,
2000
0000
0000
0000
,
3000
0000
0000
0000
,
0001
0000
0000
0000
,
1000
0000
0000
0000
,
0002
0000
0000
0000
,
0003
0000
0000
0000
,
1000
0000
0000
0000
,
0010
0000
0000
0000
,
0200
0000
0000
0000
,
0300
0000
0000
0000
,
0010
0000
0000
0000
,
0100
0000
0000
0000
,
0020
0000
0000
0000
,
0030
0000
0000
0000
,
1000
0000
0000
0000
,
0001
0000
0000
0000
,
2000
0000
0000
0000
,
0000
0000
0000
3000
,
0002
0000
0000
0000
,
0000
0000
0000
0003
,
0200
0000
0000
0000
,
0300
0000
0000
0000
,
0020
0000
0000
0030
,
0000
0000
0000
0000
,
0000
0000
0000
0000
,
1000
0000
0000
0000
,
0001
0000
0000
0000
,
2000
0000
0000
0000
,
3000
0000
0000
0000
,
0010
0000
0000
0000
,
0100
0000
0000
0000
,
0002
0000
0000
0000
,
0003
0000
0000
0000
,
1000
0000
0000
0000
,
0010
0000
0000
0000
,
0200
0000
0000
0000
,
0300
0000
0000
0000
,
0010
0000
0000
0000
,
0100
0000
0000
0000
,
0020
0000
0000
0000
,
0000
0000
0000
0000
,
0230
0000
0000
0000
,
0000
0000
0000
0000
,
0300
0000
0000
0000
;

//---------------dance-single - ----------------
#NOTES:
     dance-single:
     Lisek:
     Easy:
     2:
     0.123,0.150,0.007,0.233,0.000:
1000
0000
0000
0000
,
0010
0000
0000
0000
,
0100
0000
0000
0000
,
0001
0000
0000
0000
,
1000
0000
0000
0000
,
0100
0000
0000
0000
,
0010
0000
0000
0000
,
0001
0000
0000
0000
,
1000
0000
0010
0000
,
0100
0000
0010
0000
,
1000
0000
0010
0000
,
0100
0000
0010
0000
,
1000
0000
0001
0000
,
0100
0000
0010
0000
,
0100
0000
0001
0000
,
2002
0000
0000
3003
,
1000
0000
0100
0000
,
0010
0000
0001
0000
,
2000
0000
3000
0000
,
0002
0000
0003
0000
,
1000
0000
0010
0000
,
0100
0000
0010
0000
,
2000
0000
3000
0000
,
0002
0000
0003
0000
,
1000
0000
0100
0000
,
0010
0000
0001
0000
,
2000
0000
3000
0000
,
0002
0000
0003
0000
,
1000
0000
0010
0000
,
0100
0000
0010
0000
,
2000
0000
3000
0000
,
0002
0000
0003
0000
,
2000
0000
3002
0000
,
0203
0000
0000
0000
,
0320
0000
2030
0000
,
3002
0000
0000
0000
,
2003
0000
3200
0000
,
0320
0000
0000
0000
,
0032
0000
2003
3000
,
0001
0000
1000
0000
,
0010
0000
1000
0000
,
0002
0000
0003
0000
,
2000
0000
3000
0000
,
0010
0000
1000
0000
,
0001
0000
0100
0000
,
0002
0000
0003
0000
,
2000
0000
3000
0000
,
0010
0000
1000
0000
,
0001
0000
0100
0000
,
0002
0000
0003
0000
,
2000
0000
3000
0000
,
0010
0000
1000
0000
,
0100
0000
1000
0000
,
0002
0000
0003
0000
,
2000
0000
3000
0000
,
0020
0000
0000
0000
,
0230
0000
0000
0000
,
0320
0000
0000
0000
,
0000
0000
0000
0000
,
0030
0000
0000
0000
;
