#TITLE:너나 잘해;
#SUBTITLE:;
#ARTIST:에일리;
#TITLETRANSLIT:Mind Your Own Business;
#SUBTITLETRANSLIT:;
#ARTISTTRANSLIT:Ailee;
#GENRE:K-POP;
#CREDIT:Telperion+;
#BANNER:[ROUND D] - Mind Your Own Business.png;
#BACKGROUND:[ROUND D] - Mind Your Own Business-bg.png;
#JACKET:[ROUND D] - Mind Your Own Business-jacket.png;
#LYRICSPATH:;
#CDTITLE:cdtitle.png;
#MUSIC:[ROUND D] - Mind Your Own Business.ogg;
#OFFSET:-0.011000;
#SAMPLESTART:46.283001;
#SAMPLELENGTH:17.883999;
#SELECTABLE:YES;
#BPMS:0.000000=107.000000
;
#STOPS:
;
#BGCHANGES:;
#KEYSOUNDS:;
#ATTACKS:;

//---------------dance-single - Telperion----------------
#NOTES:
     dance-single:
     Telperion:
     Hard:
     7:
     0.439942,0.486906,0.262601,0.381965,0.326262,387.000000,354.000000,33.000000,48.000000,0.000000,0.000000,0.439942,0.486906,0.262601,0.381965,0.326262,387.000000,354.000000,33.000000,48.000000,0.000000,0.000000:
0000
0000
0000
0000
,
0000
0000
0000
0000
,
0000
0000
0000
0000
,
0000
0000
0000
0000
,
0000
0000
0000
0000
0000
0000
0000
1000
,
0001
0000
0000
0100
0000
0000
0020
0000
0000
0000
0000
0000
0030
0000
0000
1000
0000
0010
0100
0000
0010
1000
0000
1000
,
0001
0010
0200
0000
0300
1000
0100
0010
,
0011
0000
0000
0000
0000
0000
1000
0000
0000
0000
0000
0000
0000
0000
0000
0000
0000
0000
0010
0000
0000
1000
0000
0000
0010
0000
0000
0000
0000
0000
0000
0000
0000
0000
0100
0000
0000
0000
0000
0000
0000
0000
0002
0000
0000
0000
0000
0000
,
1000
0000
0000
0000
0000
0010
0000
0000
0000
2003
0000
0000
0001
0000
0000
0000
0000
0010
0000
0000
0000
3001
0000
0000
,
1000
0000
0000
0100
0000
0000
0020
0000
0000
0000
0000
0000
0030
0000
0000
0001
0000
0010
0100
0000
0010
0001
0000
0001
,
1000
0010
0002
0000
0003
0010
1000
0001
,
1001
0000
0000
1000
0000
0100
1000
0000
0010
0000
0000
0000
0101
0000
0000
0001
0000
0100
0001
0000
0010
0000
0000
0000
,
2100
0000
0000
0000
0000
0001
0000
0000
0000
3100
0000
0000
1000
0000
0000
1000
0000
0000
0001
0000
0100
0010
0000
0000
,
2000
0000
0000
0010
0000
0000
3002
0000
0000
1003
0000
0000
0001
0000
0010
0000
0000
0100
0000
0000
1000
0000
0000
1000
,
0002
0000
0000
0100
0000
0000
2003
0000
0000
3001
0000
0000
1000
0000
0010
0000
0000
0100
0000
0000
0001
0000
0000
0100
,
0010
1000
1010
0000
1000
0001
0010
0110
,
0000
0000
0000
0001
0000
0000
0010
0000
0001
0000
0000
1000
0000
0000
0000
0020
0000
0000
0100
0000
0000
0030
0000
0000
,
2000
0000
0000
0100
0000
0000
3002
0000
0000
1003
0000
0000
0001
0000
0100
0000
0000
0010
0000
0000
1000
0000
0000
1000
,
0002
0000
0000
0010
0000
0000
2003
0000
0000
3001
0000
0000
1000
0000
0100
0000
0000
0010
0000
0000
0001
0000
0000
0010
,
0100
1100
1001
0101
,
1010
0000
0010
0000
0000
0100
0000
0000
0001
0000
0000
0011
0000
0000
0000
0010
0000
0000
0100
0000
0000
1000
0000
0000
,
0001
0100
2000
0000
3100
1000
0100
0001
,
1000
0000
0000
0100
0000
0000
0002
0000
0000
0000
0000
0000
0103
0000
0000
0001
0000
0000
0100
0000
0010
0100
0000
0100
,
1000
0000
0000
0000
0000
1100
0000
0000
0000
2002
0000
0000
0000
0000
0000
0000
0000
0000
3003
0000
0000
0000
0000
0000
,
0001
0000
0000
0000
0000
0101
0000
0000
0000
2001
0000
0000
3200
0000
0000
1300
0000
0000
1000
0000
0000
0100
0000
0000
,
1000
0010
0002
0000
0013
0001
0010
1000
,
0001
0000
0000
0010
0000
0000
1000
0000
0000
0020
0000
0000
0000
0000
0000
0031
0000
0000
1000
0000
0010
0100
0000
0100
,
0001
0000
0000
0000
0000
1001
0000
0000
0000
0022
0000
0000
0000
0000
0000
0000
0000
0000
0033
0000
0000
0000
0000
0000
,
1000
0000
0000
0000
0000
1001
0000
0000
0000
1020
0000
0000
0200
0000
0000
0000
0000
0000
0330
0000
0000
0000
0000
0000
,
0000
0000
0000
0001
0000
0000
0100
0000
0000
0001
0000
0000
1000
0000
0000
0000
0000
0100
0000
0000
0000
0010
0000
0000
,
0000
0000
0000
1000
0000
0000
0100
0000
0000
1000
0000
0000
0001
0000
0000
0000
0000
0100
0000
0000
0000
0010
0000
0000
,
0000
1000
0010
1000
0100
0001
0100
2000
,
0000
0000
3001
0000
0010
0001
0000
1000
0000
0000
0020
0000
0030
0000
0000
0000
,
0000
0000
0000
1000
0000
0000
0100
0000
0000
1000
0000
0000
0001
0000
0000
0000
0000
0100
0000
0000
0000
0010
0000
0000
,
0000
0000
0000
0001
0000
0000
0100
0000
0000
0001
0000
0000
1000
0000
0000
0000
0000
0100
0000
0000
0000
0010
0000
0000
,
0000
0001
0010
0001
0100
1000
0100
0002
,
0010
1000
0100
1003
,
0001
0000
0000
0010
0000
0000
0100
0000
1000
0001
0000
0100
0000
0000
0010
0000
0000
1000
0010
0000
0000
0100
0000
0000
,
0001
0100
2000
0000
3100
1000
0100
0001
,
1000
0000
0000
0100
0000
0000
0002
0000
0000
0000
0000
0000
0103
0000
0000
0001
0000
0000
0100
0000
0010
0001
0000
0001
,
1000
0000
0000
0000
0000
1100
0000
0000
0000
2020
0000
0000
0000
0000
0000
0000
0000
0000
3030
0000
0000
0000
0000
0000
,
0001
0000
0000
0000
0000
0101
0000
0000
0000
0021
0000
0000
0230
0000
0000
1300
0000
0000
1000
0000
0000
0100
0000
0000
,
1000
0010
0002
0000
0013
0001
0010
1000
,
0001
0000
0000
0010
0000
0000
1000
0000
0000
0020
0000
0000
0000
0000
0000
0031
0000
0000
1000
0000
0010
0100
0000
0100
,
0001
0000
0000
0000
0000
1001
0000
0000
0000
0021
0000
0000
0100
0000
0000
0000
0000
0000
0230
0000
0000
0000
0000
0000
,
1300
0000
0000
0000
0000
1001
0000
0000
0000
1020
0000
0000
0230
0000
0000
0001
0000
0000
0301
0000
0100
0001
0000
0001
,
1000
0000
0000
0100
0000
0000
0010
0000
0000
0100
0000
0000
1000
0000
0001
1000
0000
0100
0000
0000
0000
0010
0000
0000
,
0001
0000
0000
0100
0000
0000
0010
0000
0000
1000
0000
0000
0001
0000
1000
0001
0000
0100
0000
0000
0000
0000
0000
0000
,
0001
0000
0000
0010
0000
0000
0100
0000
0000
0010
0000
0000
0001
0000
1000
0100
0000
1000
0000
0000
0000
0010
0000
0000
,
0100
0000
0000
0100
0000
0000
0010
0000
1000
0000
0000
0002
0000
0000
0000
0010
0000
0000
1003
0000
0001
0000
0000
0000
,
0011
0000
0000
0010
0000
0000
0100
0000
1000
0000
0000
0020
0000
0000
0000
0100
0000
0000
1030
0000
0001
0000
0000
0000
,
1010
0000
0000
0010
0000
0000
0100
0000
0001
0000
0000
2000
0000
0000
0000
0100
0000
0000
3001
0000
1000
0000
0000
0200
,
0000
0000
0010
0000
0300
2000
0010
3000
,
0001
0000
0011
0000
1000
1000
1010
0000
,
0001
0000
0101
0000
1000
1000
1100
0100
,
0010
0000
0100
0000
1000
1000
0000
0000
;

//---------------dance-single - Telperion----------------
#NOTES:
     dance-single:
     Telperion:
     Medium:
     5:
     0.321714,0.331981,0.119364,0.214855,0.083555,283.000000,268.000000,15.000000,27.000000,0.000000,0.000000,0.321714,0.331981,0.119364,0.214855,0.083555,283.000000,268.000000,15.000000,27.000000,0.000000,0.000000:
0000
0000
0000
0000
,
0000
0000
0000
0000
,
0000
0000
0000
0000
,
0000
0000
0000
0000
,
0000
0000
0000
0000
0000
0000
0000
0001
,
0100
0010
2000
0000
3000
1000
0010
1000
,
0100
0010
0002
0000
0003
0001
0010
0100
,
1100
1000
0000
0001
0001
0000
0100
0000
,
0101
0000
0001
0000
1000
1000
0000
0001
,
1000
0100
0020
0000
0030
0010
0100
1000
,
0001
0100
2000
0000
3000
0100
0010
0100
,
0001
0001
1000
0000
1000
1000
0001
0000
,
0011
0000
0001
0000
1000
1000
0000
0000
,
0001
0010
0100
0000
1000
0000
0101
0000
,
1000
0010
0100
0000
0001
0000
1100
0000
,
0001
0010
0001
0000
1000
0010
0100
0010
,
0001
0010
1000
0001
,
1000
0010
0100
0000
0001
0000
1100
0000
,
0001
0010
0100
0000
1000
0000
0101
0000
,
1000
1000
0001
0001
,
0010
0000
0001
0000
0000
1000
0000
0000
0010
0000
0000
0100
0000
0000
0000
0000
0000
0000
0000
0000
0000
0000
0000
0000
,
0001
0010
0002
0000
0003
1000
0001
0010
,
0100
0010
0002
0000
0003
1000
0010
0100
,
0001
0000
0000
0000
0000
0001
0000
0000
0000
0102
0000
0000
0000
0000
0000
0000
0000
0000
0003
0000
0000
0000
0000
0000
,
1000
0000
0000
0000
0000
1000
0000
0000
0000
2000
0000
0000
0100
0000
0000
3001
0000
0000
1000
0000
0000
0001
0000
0000
,
0100
0010
2000
0000
3000
0001
0010
0100
,
1000
0010
0200
0000
0300
0001
0010
0100
,
1000
0000
0000
0000
0000
1000
0000
0000
0000
2100
0000
0000
0000
0000
0000
0000
0000
0000
3000
0000
0000
0000
0000
0000
,
0001
0000
0000
0000
0000
0001
0000
0000
0000
0002
0000
0000
0100
0000
0000
0000
0000
0000
0003
0000
0000
0000
0000
0000
,
0000
0000
0000
1000
0000
0000
0100
0000
0000
1000
0000
0000
0001
0000
0000
0000
0000
0100
0000
0000
0000
0010
0000
0000
,
0000
0000
0000
0001
0000
0000
0100
0000
0000
0001
0000
0000
1000
0000
0000
0000
0000
0100
0000
0000
0000
0010
0000
0000
,
0000
0001
0010
0001
0100
1000
0100
0002
,
0000
0000
1003
0000
1000
0000
0000
0010
0000
0000
0200
0000
0300
0000
0000
0000
,
0000
0000
0000
0001
0000
0000
0100
0000
0000
0001
0000
0000
1000
0000
0000
0000
0000
0100
0000
0000
0000
0010
0000
0000
,
0000
0000
0000
1000
0000
0000
0100
0000
0000
1000
0000
0000
0001
0000
0000
0000
0000
0100
0000
0000
0000
0010
0000
0000
,
0000
1000
0010
1000
0100
0001
0100
2000
,
0010
0001
0100
3001
,
1020
0100
0001
1030
,
0001
0010
0002
0000
0003
1000
0001
0100
,
0010
0100
0002
0000
0003
1000
0100
0010
,
0001
0000
0000
0000
0000
0001
0000
0000
0000
0012
0000
0000
0000
0000
0000
0000
0000
0000
0003
0000
0000
0000
0000
0000
,
1000
0000
0000
0000
0000
1000
0000
0000
0000
2000
0000
0000
0010
0000
0000
3001
0000
0000
1000
0000
0000
0010
0000
0000
,
0100
0100
2002
0000
3003
0001
0100
0010
,
1000
0100
0020
0000
0030
0001
0100
0010
,
1000
0000
0000
0000
0000
1000
0000
0000
0000
2010
0000
0000
0000
0000
0000
0000
0000
0000
3000
0000
0000
0000
0000
0000
,
0001
0000
0000
0000
0000
0001
0000
0000
0000
0002
0000
0000
0010
0000
0000
0000
0000
0000
0003
0000
0000
0000
0000
0000
,
1000
1000
0010
0010
1000
0001
0000
0010
,
0001
0001
0100
0100
0001
1000
0000
0000
,
0100
0100
1000
1000
0010
1000
0000
0001
,
0010
0000
0000
0100
0000
0000
1000
0000
0000
0000
0000
0001
0000
0000
0000
0001
0000
0000
0100
0000
0000
0000
0000
0000
,
0010
0000
0000
0100
0000
0000
0001
0000
0000
0000
0000
1000
0000
0000
0000
1000
0000
0000
0100
0000
0000
0000
0000
0000
,
0010
0000
0000
0001
0000
0000
1000
0000
0000
0000
0000
0010
0000
0000
0000
1000
0000
0000
0001
0000
0000
0000
0000
0020
,
0000
0000
0030
0000
0000
0200
0000
0300
,
1000
0000
0001
0000
0100
0100
0000
0000
,
0010
1010
0000
0101
,
1000
0000
0001
0000
0010
0010
0000
0000
;

//---------------dance-single - Telperion----------------
#NOTES:
     dance-single:
     Telperion:
     Easy:
     2:
     0.193256,0.243453,0.103449,0.167110,0.000000,170.000000,157.000000,13.000000,21.000000,0.000000,0.000000,0.193256,0.243453,0.103449,0.167110,0.000000,170.000000,157.000000,13.000000,21.000000,0.000000,0.000000:
0000
0000
0000
0000
,
0000
0000
0000
0000
,
0000
0000
0000
0000
,
0000
0000
0000
0000
,
0000
0000
0000
0000
,
2000
0010
3000
0001
,
0002
0010
0003
1000
,
1010
0000
0010
0100
,
0001
0010
0100
1000
,
0002
0100
0003
1000
,
2000
0100
3000
0001
,
0101
0000
1100
0000
,
0011
1000
0010
0100
,
0001
0000
1000
0100
,
0001
0000
1000
0010
,
0001
0000
1000
0001
,
0100
0100
0100
0000
,
0001
0000
0001
0100
,
1000
0000
0001
0010
,
1000
1000
0001
0001
,
0020
0000
0130
0000
,
1200
0010
0300
1000
,
0201
0010
0300
0001
,
1000
0010
0100
0001
,
1000
0001
0100
0010
,
1020
0100
0030
1000
,
0021
0100
0030
0001
,
1000
0100
0010
0001
,
1000
0001
0010
0100
,
2000
0000
3000
0000
,
0002
0000
0003
0000
,
0200
0000
0300
0000
,
0020
0000
2030
3000
,
0002
0000
0003
0000
,
2000
0000
3000
0000
,
0100
0000
0100
0000
,
0010
0010
0010
0010
,
0001
1000
0010
1001
,
0201
0010
0300
0001
,
1200
0010
0300
1000
,
0001
0010
0100
1000
,
0001
1000
0100
1000
,
0000
0021
0030
0001
,
1020
0100
0030
1000
,
0001
0100
0010
1000
,
0001
1000
0010
0100
,
0001
0001
1000
0000
,
1000
1000
0001
0000
,
0010
0010
0100
0000
,
1000
0100
1000
0010
,
0001
0100
0001
0010
,
1000
0100
1000
0010
,
0002
0100
0003
0100
,
0010
0000
0100
0000
0001
0001
0000
0000
,
1000
0100
0001
0100
,
0010
0000
0100
0000
1000
1000
0000
0000
;

//---------------dance-single - Telperion----------------
#NOTES:
     dance-single:
     Telperion:
     Beginner:
     1:
     0.055703,0.087534,0.000000,0.007958,0.000000,49.000000,49.000000,0.000000,1.000000,0.000000,0.000000,0.055703,0.087534,0.000000,0.007958,0.000000,49.000000,49.000000,0.000000,1.000000,0.000000,0.000000:
// measure 0
0000
0000
0000
0000
,  // measure 1
0000
0000
0000
0000
,  // measure 2
0000
0000
0000
0000
,  // measure 3
0000
0000
0000
0000
,  // measure 4
0000
0000
0000
0000
,  // measure 5
1000
0000
0000
0000
,  // measure 6
0001
0000
0000
0000
,  // measure 7
0100
0000
0000
0000
,  // measure 8
1000
0000
0000
0000
,  // measure 9
0001
0000
0000
0000
,  // measure 10
0010
0000
0000
0000
,  // measure 11
1000
0000
0000
0000
,  // measure 12
0001
0000
0000
0000
,  // measure 13
0100
0000
0000
0000
,  // measure 14
0100
0000
0000
0000
,  // measure 15
0100
0000
0000
0000
,  // measure 16
0010
0000
0010
0000
,  // measure 17
0100
0000
0000
0000
,  // measure 18
0100
0000
0000
0000
,  // measure 19
0100
0000
0100
0000
,  // measure 20
0001
0000
0000
0000
,  // measure 21
1000
0000
0000
0000
,  // measure 22
0001
0000
0000
0000
,  // measure 23
0010
0000
0000
0000
,  // measure 24
1000
0000
0000
0000
,  // measure 25
0001
0000
0000
0000
,  // measure 26
1000
0000
0000
0000
,  // measure 27
0010
0000
0000
0000
,  // measure 28
0001
0000
0000
0000
,  // measure 29
0100
0000
0000
0000
,  // measure 30
0000
0000
0000
0000
,  // measure 31
0010
0000
0000
0000
,  // measure 32
0000
0000
0000
0000
,  // measure 33
1000
0000
0000
0000
,  // measure 34
0000
0000
0000
0000
,  // measure 35
0001
0000
0000
0000
,  // measure 36
0000
0000
0000
0000
,  // measure 37
0020
0000
0000
0030
,  // measure 38
0100
0000
0000
0000
,  // measure 39
0100
0000
0000
0000
,  // measure 40
1000
0000
0000
0000
,  // measure 41
1000
0000
0000
0000
,  // measure 42
0001
0000
0000
0000
,  // measure 43
0001
0000
0000
0000
,  // measure 44
0100
0000
0000
0000
,  // measure 45
0100
0000
0000
0000
,  // measure 46
0001
0000
0000
0000
,  // measure 47
1000
0000
0000
0000
,  // measure 48
0010
0000
0000
0000
,  // measure 49
0001
0000
0000
0000
,  // measure 50
0001
0000
0000
0000
,  // measure 51
1000
0000
0000
0000
,  // measure 52
1000
0000
0000
0000
,  // measure 53
0100
0000
0000
0000
,  // measure 54
0100
0000
0000
0000
,  // measure 55
0010
0000
0000
0000
;
