#VERSION:0.83;
#TITLE:Living In The City;
#SUBTITLE:;
#ARTIST:TJ Davis;
#TITLETRANSLIT:;
#SUBTITLETRANSLIT:;
#ARTISTTRANSLIT:;
#GENRE:;
#ORIGIN:;
#CREDIT:;
#BANNER:[ROUND D] - Living In The City.png;
#BACKGROUND:[ROUND D] - Living In The City-bg.png;
#PREVIEWVID:;
#JACKET:[ROUND D] - Living In The City-jacket.png;
#CDIMAGE:;
#DISCIMAGE:;
#LYRICSPATH:;
#CDTITLE:cdtitle.png;
#MUSIC:[ROUND D] - Living In The City.ogg;
#OFFSET:-1.081472;
#SAMPLESTART:15.697093;
#SAMPLELENGTH:12.952973;
#SELECTABLE:YES;
#BPMS:0.000=148.000;
#STOPS:;
#DELAYS:;
#WARPS:;
#TIMESIGNATURES:0.000=4=4;
#TICKCOUNTS:0.000=4;
#COMBOS:0.000=1;
#SPEEDS:0.000=1.000=0.000=0;
#SCROLLS:0.000=1.000;
#FAKES:;
#LABELS:0.000=Song Start;
#BGCHANGES:;
#KEYSOUNDS:;
#ATTACKS:
;

//---------------dance-single - ----------------
#NOTEDATA:;
#CHARTNAME:;
#STEPSTYPE:dance-single;
#DESCRIPTION:;
#CHARTSTYLE:;
#DIFFICULTY:Hard;
#METER:8;
#RADARVALUES:0.482971,0.488977,0.053102,0.451363,0.044251,382.000000,376.000000,6.000000,51.000000,0.000000,0.000000,2.000000,0.000000,0.000000,0.482971,0.488977,0.053102,0.451363,0.044251,382.000000,376.000000,6.000000,51.000000,0.000000,0.000000,2.000000,0.000000,0.000000;
#CREDIT:;
#NOTES:
0000
0000
0000
0000
,
0000
0000
0000
0000
,
0000
0000
0000
0000
,
0000
0000
0000
0000
,
0001
0000
0000
0000
0010
0000
0000
0001
1000
0000
0010
0000
0000
0000
0010
0000
,
0100
0000
0001
0000
1000
0100
0000
0100
,
1000
0000
0000
0000
0010
0000
0000
1000
0001
0000
0010
0000
0000
0000
0001
0000
,
0100
0000
0000
0000
0010
0000
0000
0010
1000
0000
0001
0000
0010
0000
0100
0000
,
2000
0000
0000
0000
3000
0000
0000
0000
4000
0004
0000
0000
0000
3000
0003
0000
,
1000
0010
0100
0001
0010
0001
0100
0010
,
2000
0000
3001
1000
0100
0001
0100
1000
,
0001
0100
0010
1000
0100
1000
0010
0100
,
0002
0000
0013
2000
0000
3020
0000
0031
,
0100
0010
0100
0001
1000
0100
0010
0001
,
2000
0000
3001
0200
0000
1300
0200
0000
,
0310
0100
0001
1000
0200
0000
0310
0001
,
1000
0000
0010
0000
0100
0000
0001
0000
0000
0100
0001
0000
1000
0000
0100
0000
,
0010
0001
0100
0001
0010
0100
1000
0001
,
0200
0000
0301
0100
1000
0100
0001
0010
,
0100
1000
0010
1000
0100
0010
0001
1000
,
0020
0000
0031
0020
0000
2030
0000
3100
,
1000
0010
0100
0010
1000
0001
0010
0100
,
2000
0000
3100
0002
0000
0103
2000
0000
,
3001
0100
0010
1000
0200
0000
0310
0001
,
0100
0000
0010
0000
1000
0000
0001
0000
0000
1000
0001
0000
1000
0001
1000
0000
,
0100
0000
0100
0000
1000
0100
0010
0002
,
1000
1003
0020
0230
,
0302
0000
1003
0000
0001
0010
0100
2000
,
0001
0000
3001
0000
0001
0001
1000
0001
,
0100
0000
0100
0000
0001
0100
0010
2000
,
0001
3001
0020
0230
,
2300
0000
3001
0100
0020
0000
0130
0002
,
0000
1000
1003
0000
1000
1000
0001
1000
,
0100
0010
0001
0200
0000
0310
0000
0000
,
1010
0000
0100
0002
0000
0000
1003
0000
,
0010
1000
0100
0020
0000
0130
0000
0000
,
0011
0000
0100
2000
0000
0000
3001
0000
,
1000
0010
0100
0001
0010
0001
0100
0000
,
0010
0000
0010
0000
1000
0000
0001
0020
,
0000
0000
0230
0000
0310
0100
0010
0001
,
1000
0000
1001
0000
0001
1000
0001
0100
,
0001
0010
0100
1000
0010
1000
0100
0010
,
0002
0000
1003
0001
0100
1000
0100
0001
,
1000
0100
0010
0001
0100
0001
0010
0100
,
2000
0000
3010
0002
0000
0023
0000
1030
,
0100
0010
0100
1000
0001
0100
0010
1000
,
0002
0000
1003
0200
0000
0301
0200
0000
,
0310
0100
1000
0001
0200
0000
0310
1000
,
0001
0000
0010
0000
0100
0000
1000
0000
0000
0100
1000
0000
0001
0000
0100
0000
,
0010
1000
0100
1000
0010
0001
1000
0100
,
0002
0000
0013
1000
0010
0001
1000
0010
,
0100
0001
0010
0100
1000
0010
0100
0001
,
0020
0000
1030
0020
0000
0032
0000
0103
,
0010
1000
0100
1000
0001
0100
0010
1000
,
0002
0000
0103
2000
0000
3100
0002
0000
,
1003
0100
0010
0001
0200
0000
1300
0100
,
0001
0000
0010
0000
0100
0000
1000
0000
0000
0001
1000
0000
0001
1000
0001
0000
,
1000
0000
1001
0000
0000
1000
0100
0010
,
0001
0000
0011
0000
0000
0001
0100
0010
,
1000
0100
1000
0100
0010
0001
1000
0010
,
0100
0000
0110
0000
0000
1000
0100
0010
,
0002
0000
1000
0000
1000
1000
0000
0000
,
1003
0000
0000
0001
0000
0000
0100
0000
,
0010
0000
0010
0000
0100
0010
0000
0000
,
1000
0000
0000
0100
0000
0000
0010
0000
,
0001
0000
0000
0000
;

//---------------dance-single - ----------------
#NOTEDATA:;
#CHARTNAME:;
#STEPSTYPE:dance-single;
#DESCRIPTION:;
#CHARTSTYLE:;
#DIFFICULTY:Medium;
#METER:6;
#RADARVALUES:0.388147,0.402687,0.035401,0.371711,0.000000,307.000000,303.000000,4.000000,42.000000,0.000000,0.000000,0.000000,0.000000,0.000000,0.388147,0.402687,0.035401,0.371711,0.000000,307.000000,303.000000,4.000000,42.000000,0.000000,0.000000,0.000000,0.000000,0.000000;
#CREDIT:;
#NOTES:
0000
0000
0000
0000
,
0000
0000
0000
0000
,
0000
0000
0000
0000
,
0000
0000
0000
0000
,
0001
0000
0010
0000
0001
0010
0000
0000
,
0100
0000
1000
0000
0100
1000
0000
0000
,
0001
0000
0100
0000
0001
0100
0000
0000
,
0010
1000
0001
0010
,
0200
0300
2002
3003
,
1000
0010
1000
0010
0100
0002
0000
0000
,
1003
0000
0010
0000
0100
0001
1000
0000
,
0001
0010
0001
0010
0100
2000
0000
0000
,
3001
0000
0100
0000
0010
1000
0100
0000
,
0010
0001
0010
0001
0100
0020
0000
0000
,
1030
0000
0010
0000
0100
0001
0010
0000
,
0100
1000
0100
1000
0020
0000
0130
0002
,
1000
0000
1003
0000
0001
1000
0100
0000
,
0010
0001
0010
0001
1000
0020
0000
0000
,
0130
0000
0010
0000
1000
0001
0100
0000
,
0010
1000
0010
1000
0001
0020
0000
0000
,
0130
0000
0010
0000
0001
0100
0010
0000
,
1000
0010
1000
0010
1000
0200
0000
0000
,
1300
0000
0010
0000
0100
0001
0010
0000
,
0001
0100
0001
0100
0020
0000
1030
0200
,
0010
0000
0310
0000
0100
0010
0001
0100
,
0010
0000
0000
0000
1000
0010
0100
0002
,
0000
0023
0230
2300
,
3002
0000
0003
0000
1000
0010
0100
0002
,
0000
0000
1003
0000
0001
1000
0000
1000
,
0100
0000
0000
0000
1000
0100
0010
0002
,
0000
0203
0320
2030
,
3002
0000
0003
1000
0100
0000
0010
0002
,
0000
0000
1003
0000
0001
1000
0000
0001
,
0100
0010
0100
0020
0000
1030
0000
0000
,
1010
0000
1000
0200
0000
0000
0300
0000
,
0100
0010
0100
0020
0000
0031
0000
0000
,
0011
0000
0001
0200
0000
0000
0300
0000
,
0001
0100
0001
0100
0010
1000
0001
0000
,
0100
0000
0100
0000
0001
0000
1000
0200
,
0000
0000
0310
0000
0100
0010
0100
0000
,
1000
0000
1001
0000
0001
1000
0001
0000
,
1000
0100
1000
0100
0010
0002
0000
0000
,
0103
0000
0010
0000
1000
0001
0010
0000
,
0001
0100
0001
0100
0010
2000
0000
0000
,
3001
0000
0010
0000
0100
1000
0010
0000
,
0100
0001
0100
0001
0010
0200
0000
0000
,
0310
0000
0001
0000
0100
0010
1000
0000
,
0100
1000
0100
1000
0020
0000
0130
0002
,
1000
0000
1003
0000
0001
1000
0100
0000
,
1000
0001
1000
0001
0100
0020
0000
0000
,
1030
0000
0010
0000
0100
0001
1000
0000
,
0100
0010
0100
0010
0001
2000
0000
0000
,
3010
0000
1000
0000
0100
0010
0001
0000
,
0100
0010
0100
0010
1000
0002
0000
0000
,
1003
0000
0010
0000
0100
0001
0010
0000
,
0001
1000
0001
1000
0020
0000
0130
0002
,
1000
0000
1003
0000
0001
0100
0010
1000
,
0001
0000
1000
0000
0000
1000
0100
0000
,
0010
0000
0001
0000
0000
0001
0100
0000
,
0010
1000
0010
1000
0001
0020
0000
0000
,
0031
0000
1000
0000
0000
1000
0010
0000
,
0200
0001
0000
0301
,
1000
0000
0000
0100
0000
0000
1000
0000
,
0001
0000
0001
0000
1000
0001
0000
0000
,
0100
0000
0000
0010
0000
0000
1000
0000
,
0001
0000
0000
0000
;

//---------------dance-single - ----------------
#NOTEDATA:;
#CHARTNAME:;
#STEPSTYPE:dance-single;
#DESCRIPTION:;
#CHARTSTYLE:;
#DIFFICULTY:Easy;
#METER:3;
#RADARVALUES:0.247807,0.258870,0.035401,0.097353,0.000000,196.000000,192.000000,4.000000,11.000000,0.000000,0.000000,0.000000,0.000000,0.000000,0.247807,0.258870,0.035401,0.097353,0.000000,196.000000,192.000000,4.000000,11.000000,0.000000,0.000000,0.000000,0.000000,0.000000;
#CREDIT:;
#NOTES:
0000
0000
0000
0000
,
0000
0000
0000
0000
,
0000
0000
0000
0000
,
0000
0000
0000
0000
,
0001
0010
0001
0000
,
1000
0010
1000
0000
,
0001
0100
0001
0000
,
1000
0100
0010
0001
,
1000
0000
2002
3003
,
1000
0010
0100
0000
,
0010
0100
0001
0010
,
0001
0100
0010
0000
,
1000
0010
0100
0001
,
1000
0100
0010
0000
,
0100
0010
0001
1000
,
0001
0100
0010
1000
,
0002
0000
1003
0000
,
0001
0010
0100
0000
,
0010
0100
1000
0010
,
1000
0100
0010
0000
,
0001
0010
0100
1000
,
0001
0100
0010
0000
,
0100
0010
1000
0001
,
1000
0100
0010
0001
,
2000
0000
3001
1000
,
0100
0000
1000
0100
,
0010
0000
0010
0100
,
1000
0000
0001
0100
,
0010
0000
0010
0000
,
0100
0000
0001
0010
,
0100
0000
0100
0010
,
0001
0000
1000
0010
,
0100
0000
0100
0000
,
0001
1000
0100
0000
,
2100
0000
3001
0000
,
1000
0001
0100
0000
,
0102
0000
1003
0000
,
1000
0100
0010
0001
,
1000
0001
0100
0010
,
2000
0000
3001
0000
,
1000
0001
1000
1000
,
0001
0100
0010
0000
,
0100
0001
0010
0001
,
1000
0010
0100
0000
,
0010
1000
0100
1000
,
0001
0010
0100
0000
,
0010
0100
1000
0010
,
0100
0001
1000
0100
,
0020
0000
0031
0000
,
1000
0100
0010
0000
,
0100
1000
0010
1000
,
0001
0010
0100
0000
,
0010
0001
0100
0001
,
1000
0010
0100
0000
,
0010
0100
0001
0010
,
0100
1000
0001
0100
,
0020
0000
1030
0001
,
0100
0000
0100
0010
,
1000
0000
0100
0010
,
0001
0100
0010
0000
,
1000
0010
0100
0000
,
2002
0000
3003
0000
,
1000
0000
0100
0000
,
0010
0100
1000
0000
,
0001
0000
0100
0000
,
0010
0000
0000
0000
;

//---------------dance-single - ----------------
#NOTEDATA:;
#CHARTNAME:;
#STEPSTYPE:dance-single;
#DESCRIPTION:;
#CHARTSTYLE:;
#DIFFICULTY:Beginner;
#METER:1;
#RADARVALUES:0.164362,0.172580,0.000000,0.008850,0.000000,130.000000,130.000000,0.000000,1.000000,0.000000,0.000000,0.000000,0.000000,0.000000,0.164362,0.172580,0.000000,0.008850,0.000000,130.000000,130.000000,0.000000,1.000000,0.000000,0.000000,0.000000,0.000000,0.000000;
#CREDIT:;
#NOTES:
// measure 0
0000
0000
0000
0000
,  // measure 1
0000
0000
0000
0000
,  // measure 2
0000
0000
0000
0000
,  // measure 3
0000
0000
0000
0000
,  // measure 4
0001
0000
0000
0000
,  // measure 5
1000
0000
0000
0000
,  // measure 6
0010
0000
0000
0000
,  // measure 7
0100
0000
0000
0000
,  // measure 8
0001
0000
0000
0000
,  // measure 9
1000
1000
1000
0000
,  // measure 10
0100
0000
0100
0000
,  // measure 11
0010
0010
0010
0000
,  // measure 12
0001
0000
0001
0000
,  // measure 13
0100
0100
0100
0000
,  // measure 14
0010
0000
0010
0000
,  // measure 15
1000
1000
1000
0000
,  // measure 16
0001
0000
1000
0000
,  // measure 17
0001
0001
0001
0000
,  // measure 18
0100
0000
0100
0000
,  // measure 19
0010
0010
0010
0000
,  // measure 20
1000
0000
1000
0000
,  // measure 21
0100
0100
0100
0000
,  // measure 22
0010
0000
0010
0000
,  // measure 23
0001
0001
0001
0000
,  // measure 24
1000
0000
0001
0000
,  // measure 25
1000
0000
0010
0000
,  // measure 26
0100
0000
0010
0010
,  // measure 27
0010
0000
0100
0000
,  // measure 28
0001
0000
0000
0000
,  // measure 29
0001
0000
0010
0000
,  // measure 30
0100
0000
0010
0010
,  // measure 31
0010
0000
0100
0000
,  // measure 32
1000
0000
0000
0000
,  // measure 33
0001
0000
0100
0000
,  // measure 34
0010
0010
0010
0000
,  // measure 35
1000
0000
0100
0000
,  // measure 36
0010
0010
0010
0000
,  // measure 37
0001
0000
1000
0000
,  // measure 38
0001
0000
0100
0100
,  // measure 39
0100
0000
0000
0000
,  // measure 40
0010
0000
1000
0000
,  // measure 41
0001
0001
0001
0000
,  // measure 42
0010
0000
0010
0000
,  // measure 43
0100
0100
0100
0000
,  // measure 44
1000
0000
1000
0000
,  // measure 45
0010
0010
0010
0000
,  // measure 46
0100
0000
0100
0000
,  // measure 47
0001
0001
0001
0000
,  // measure 48
1000
0000
0001
0000
,  // measure 49
1000
1000
1000
0000
,  // measure 50
0010
0000
0010
0000
,  // measure 51
0100
0100
0100
0000
,  // measure 52
0001
0000
0001
0000
,  // measure 53
0010
0010
0010
0000
,  // measure 54
0100
0000
0100
0000
,  // measure 55
1000
1000
1000
0000
,  // measure 56
0001
0000
1000
0000
,  // measure 57
0010
0000
0000
0000
,  // measure 58
1000
0000
0000
0000
,  // measure 59
0100
0100
0100
0000
,  // measure 60
0010
0000
0000
0000
,  // measure 61
0002
0000
0003
0000
,  // measure 62
1000
0000
0000
0000
,  // measure 63
0001
0000
0000
0000
,  // measure 64
0100
0000
0000
0000
,  // measure 65
0010
0000
0000
0000
;
