#VERSION:0.83;
#TITLE:Whoa I'm In Space Cuba;
#SUBTITLE:(Chip Mix);
#ARTIST:Jake Kaufman;
#TITLETRANSLIT:;
#SUBTITLETRANSLIT:;
#ARTISTTRANSLIT:;
#GENRE:;
#ORIGIN:;
#CREDIT:;
#BANNER:[ROUND C] - Whoa I'm In Space Cuba (Chip Mix).png;
#BACKGROUND:[ROUND C] - Whoa I'm In Space Cuba (Chip Mix)-bg.png;
#PREVIEWVID:;
#JACKET:;
#CDIMAGE:;
#DISCIMAGE:;
#LYRICSPATH:;
#CDTITLE:;
#MUSIC:[ROUND C] - Whoa I'm In Space Cuba (Chip Mix).ogg;
#OFFSET:-0.020000;
#SAMPLESTART:26.939991;
#SAMPLELENGTH:10.000000;
#SELECTABLE:YES;
#BPMS:0.000=125.000;
#STOPS:;
#DELAYS:;
#WARPS:;
#TIMESIGNATURES:0.000=4=4;
#TICKCOUNTS:0.000=4;
#COMBOS:0.000=1;
#SPEEDS:0.000=1.000=0.000=0;
#SCROLLS:0.000=1.000;
#FAKES:;
#LABELS:0.000=Song Start;
#BGCHANGES:;
#KEYSOUNDS:;
#ATTACKS:
;

//---------------dance-single - ----------------
#NOTEDATA:;
#CHARTNAME:;
#STEPSTYPE:dance-single;
#DESCRIPTION:;
#CHARTSTYLE:;
#DIFFICULTY:Beginner;
#METER:3;
#RADARVALUES:0.178490,0.231074,0.018931,0.085189,0.004733,132.000000,130.000000,2.000000,9.000000,0.000000,0.000000,0.000000,0.000000,0.000000,0.178490,0.231074,0.018931,0.085189,0.004733,132.000000,130.000000,2.000000,9.000000,0.000000,0.000000,0.000000,0.000000,0.000000;
#CREDIT:;
#DISPLAYBPM:125.000000;
#NOTES:
0000
0000
0000
0000
,
0000
0000
0000
0000
,
0000
0000
0000
0000
,
0000
0000
0000
0000
,
1000
0000
0000
0000
,
0001
0000
0000
0000
,
0100
0000
0001
0000
,
0000
0100
0000
0010
,
0000
1000
0000
0001
,
0000
0100
0000
0110
,
0010
0000
1000
0000
,
0010
0000
0100
0000
,
0001
0000
0000
0000
,
1000
0000
0000
0000
,
0100
0000
0010
0000
,
0001
0000
0100
0000
,
0010
0000
1000
0000
,
0010
0000
0100
0110
,
1000
0000
0100
0000
,
0010
0000
0001
0000
,
1000
0000
0100
0000
,
0010
0000
0100
0000
,
1000
2000
0000
0001
,
0000
0001
0000
0001
,
0000
3020
0000
0100
,
0000
0100
0000
0100
,
0000
2030
0000
0001
,
0000
0001
0000
0001
,
0000
3200
0000
0010
,
0000
0010
0000
0310
,
0001
0200
0000
0310
,
0100
0001
0000
0001
,
1000
0200
0000
0310
,
0100
1000
0000
1000
,
0010
2000
0000
3001
,
1000
0010
0000
0010
,
0100
0002
0000
1003
,
0001
0010
0000
0010
,
0100
1000
0100
1000
,
0100
1000
0000
1000
,
0001
0100
0001
0100
,
0001
0100
0000
0100
,
0010
1000
0010
1000
,
0010
1000
0000
1000
,
0001
0000
0000
0000
,
1000
0000
0000
0000
,
0010
0100
0001
1000
,
0010
0100
0001
0001
,
1000
0001
0100
0010
,
1000
0001
0100
0100
,
0001
0010
0100
1000
,
0001
0010
0100
0100
,
1000
0010
0100
0010
,
1000
0000
0000
0000
0001
0000
0000
0000
1000
0000
0000
0000
0001
0000
0000
2000
,
0000
3000
0000
0000
;

//---------------dance-single - ----------------
#NOTEDATA:;
#CHARTNAME:;
#STEPSTYPE:dance-single;
#DESCRIPTION:;
#CHARTSTYLE:;
#DIFFICULTY:Easy;
#METER:5;
#RADARVALUES:0.286666,0.359448,0.283962,0.094654,0.004733,212.000000,182.000000,30.000000,10.000000,0.000000,0.000000,0.000000,0.000000,0.000000,0.286666,0.359448,0.283962,0.094654,0.004733,212.000000,182.000000,30.000000,10.000000,0.000000,0.000000,0.000000,0.000000,0.000000;
#CREDIT:;
#DISPLAYBPM:0.000000;
#NOTES:
// measure 0
0000
0000
0000
0000
,  // measure 1
0000
0000
0000
0000
,  // measure 2
0000
0000
0000
0000
,  // measure 3
0000
0000
0000
0000
,  // measure 4
1000
0100
0010
0001
,  // measure 5
0100
0010
1000
0001
,  // measure 6
1000
0100
1000
0100
,  // measure 7
1000
0100
0010
0010
,  // measure 8
0001
0100
0010
0010
,  // measure 9
0100
0001
0010
0011
,  // measure 10
0001
0010
0001
0010
,  // measure 11
0001
0010
0100
0100
,  // measure 12
1000
0010
0100
0001
,  // measure 13
0010
0100
1000
0001
,  // measure 14
1000
0010
0001
0010
,  // measure 15
0100
0001
1000
1000
,  // measure 16
0001
0010
1000
0010
,  // measure 17
0100
1000
1000
1001
,  // measure 18
0001
0100
1000
0100
,  // measure 19
0010
1000
1000
0001
,  // measure 20
1000
0100
0001
0100
,  // measure 21
1000
0010
1000
1000
,  // measure 22
0001
0201
0000
1000
,  // measure 23
0000
0001
0000
1300
,  // measure 24
0100
0120
0000
1000
,  // measure 25
0000
0001
0000
1030
,  // measure 26
0010
0021
0000
1000
,  // measure 27
0000
0001
0000
1030
,  // measure 28
0010
0210
0000
1000
,  // measure 29
0000
0001
0000
1300
,  // measure 30
0001
0200
0000
1300
,  // measure 31
0100
0110
0001
0110
,  // measure 32
1000
0020
0000
0031
,  // measure 33
0010
0110
1000
0110
,  // measure 34
0001
0020
0000
1030
,  // measure 35
0010
0110
0001
0110
,  // measure 36
1000
0200
0000
0301
,  // measure 37
0100
0110
1000
0110
,  // measure 38
0010
1100
0010
0101
,  // measure 39
0010
1100
0010
1001
,  // measure 40
0100
0011
0100
1010
,  // measure 41
0100
0011
0100
1001
,  // measure 42
0001
1010
0010
1100
,  // measure 43
0010
0101
0100
0011
,  // measure 44
0001
0100
0010
1000
,  // measure 45
0100
0010
0001
1000
,  // measure 46
0001
0000
1001
0000
0001
1000
0001
0000
,  // measure 47
0000
0100
0000
0100
,  // measure 48
0010
0000
0110
0000
0100
0010
0100
0000
,  // measure 49
0000
0001
0000
0001
,  // measure 50
1000
0000
1100
0000
1000
0100
1000
0000
,  // measure 51
0000
0001
0000
0001
,  // measure 52
1000
0100
0001
0100
,  // measure 53
1000
0000
0000
0000
0010
0000
0000
0000
0010
0000
0000
0000
1000
0000
0000
2002
,  // measure 54
0000
3003
0000
0000
;

//---------------dance-single - ----------------
#NOTEDATA:;
#CHARTNAME:;
#STEPSTYPE:dance-single;
#DESCRIPTION:;
#CHARTSTYLE:;
#DIFFICULTY:Medium;
#METER:7;
#RADARVALUES:0.390786,0.436473,0.141981,0.047327,0.160912,289.000000,274.000000,15.000000,5.000000,0.000000,0.000000,0.000000,0.000000,0.000000,0.390786,0.436473,0.141981,0.047327,0.160912,289.000000,274.000000,15.000000,5.000000,0.000000,0.000000,0.000000,0.000000,0.000000;
#CREDIT:;
#NOTES:
0000
0000
0000
0000
,
0000
0000
0000
0000
,
0000
0000
0000
0000
,
0000
0000
0000
0000
,
1000
0100
0001
0010
,
1000
0010
0001
0100
,
1000
0000
0001
0100
0010
0000
0100
0000
,
0001
0000
1000
0100
0010
0000
0100
0000
,
1000
0010
0100
0010
1000
0000
0100
0000
,
0010
0100
1000
0001
1000
0000
1001
0000
,
0001
0000
1000
0010
0100
0000
0010
0000
,
1000
0000
0001
0010
0100
0000
0010
0000
,
0001
0100
1000
0010
,
0001
0010
1000
0100
,
0001
0010
0001
0100
0010
0000
0100
0000
,
0001
0010
0100
0010
0001
0000
0100
0000
,
0001
0100
0010
1000
0100
0000
1000
0000
,
0100
0010
0100
1000
0001
0000
1001
0000
,
1000
0100
1000
0010
0100
0000
0010
0000
,
1000
0100
0010
0100
1000
0000
0010
0000
,
1000
0010
0100
0010
0001
0010
0100
0010
,
1000
0000
0100
0000
0000
0010
0000
0000
0001
0000
0000
0000
1000
0000
0000
0100
,
0000
1200
0000
0001
,
0000
0010
0000
1300
,
0001
0201
0000
1000
,
0000
0000
0010
0000
0000
0000
0301
1000
,
0001
0021
0000
1000
,
0000
0100
0000
0031
,
1000
1020
0000
0001
,
0000
0000
0100
0000
0000
0000
1030
0001
,
1000
0000
0000
0001
0000
0001
0000
1000
0000
0001
0000
1000
0000
0001
0000
0010
,
0000
0100
0000
0100
0000
0000
0010
0000
0100
0000
0000
0000
0110
0000
0000
0000
,
0001
0000
0000
1000
0000
0001
0000
1000
0000
0000
0010
0000
0100
0000
0000
0010
,
0000
0100
0000
0010
0000
0100
0000
0010
0000
0000
0000
0000
0110
0000
0000
0000
,
1000
0000
0001
1000
0100
0000
0010
0100
,
1000
0001
0100
0100
0010
0000
0110
0000
,
0100
0000
0000
0001
0000
0001
0000
1000
0000
1000
0000
0100
0000
0100
0000
0010
,
0000
0100
1000
0001
0100
0100
0100
0010
,
1000
0000
0100
0000
0001
0000
0100
0000
1000
0000
0000
0000
1010
0000
0000
0010
,
0000
0001
0010
0100
0001
0000
0011
0000
,
0001
0000
0010
0000
1000
0000
0010
0000
0001
0000
0000
0000
0101
0000
0000
0100
,
0000
1000
0100
0010
1000
0000
1100
0000
,
1000
0100
0010
0001
0100
0010
0100
0001
,
0010
0100
1000
0010
0100
0010
1000
0001
,
1000
0100
0001
0010
,
1000
0010
0001
0100
,
1000
0010
0001
0010
1000
0100
0010
0100
,
1000
0001
0100
0010
0100
0000
0110
0000
,
0001
0010
1000
0010
0001
0100
0010
0100
,
0001
1000
0100
0010
0100
0000
0110
0000
,
1000
0000
0000
0001
0000
0000
0100
0000
0010
0000
0000
0100
0000
0000
0000
0001
,
0000
0000
1000
0000
0100
0000
0010
0000
0100
0000
0000
1000
0000
0000
0001
0000
,
1000
0010
0100
0010
0001
0010
0100
0010
,
1000
0000
0100
0000
0000
0010
0000
0000
0001
0000
0000
0000
1000
0000
0001
2000
,
0000
3000
0000
0000
;

//---------------dance-single - ----------------
#NOTEDATA:;
#CHARTNAME:;
#STEPSTYPE:dance-single;
#DESCRIPTION:;
#CHARTSTYLE:;
#DIFFICULTY:Hard;
#METER:10;
#RADARVALUES:0.682861,0.693222,0.416477,0.056792,1.017530,505.000000,461.000000,44.000000,6.000000,0.000000,0.000000,0.000000,0.000000,0.000000,0.682861,0.693222,0.416477,0.056792,1.017530,505.000000,461.000000,44.000000,6.000000,0.000000,0.000000,0.000000,0.000000,0.000000;
#CREDIT:;
#NOTES:
0000
0000
0000
0000
,
0000
0000
0000
0000
,
1000
0000
0001
1000
0000
0100
0000
0010
0000
0100
1000
0010
0000
0010
0100
0010
,
1000
0000
0100
0010
0000
0100
0000
1000
0000
0001
0100
0010
0000
0010
0100
0000
,
1010
1100
0101
0011
,
0101
1100
1010
0011
,
0001
0010
0000
0100
0010
0000
0001
0000
0100
0000
0010
1000
0000
0010
0000
0001
,
0000
0010
0100
0001
1000
0000
0100
0000
0010
0000
0100
1000
0000
1000
0001
1000
,
0010
0100
0000
0010
1000
0000
0001
0000
0010
0000
0000
0100
0000
0010
0000
0001
,
0000
0001
0100
0000
0010
0000
1000
0001
0000
0000
0000
0000
1001
0000
0000
0000
,
0001
0100
0000
0010
0100
0000
0001
0000
0010
0000
0100
1000
0000
0100
0000
0001
,
0000
0100
0010
0001
1000
0000
0010
0000
0100
0000
0010
1000
0000
0000
0001
0000
,
0011
0101
1100
1010
,
1100
0101
0011
1010
,
1000
0010
0100
0001
1000
0000
0010
0000
1000
0000
0001
0100
0000
0010
0000
0001
,
0000
0010
0100
0001
1000
0000
0100
0010
0001
0000
0010
0100
0000
0000
1000
0000
,
0001
0100
0000
0010
0100
0001
0010
0100
1000
0100
0010
0100
1000
0001
1000
0010
,
0000
0010
0100
0000
0010
0000
1000
0001
0000
0000
1000
0000
1001
0000
0000
0000
,
0001
0100
0010
1000
0001
0000
0100
0000
0001
0000
1000
0100
0000
0010
0000
1000
,
0000
0010
0100
1000
0001
0000
0100
0000
0010
0000
1000
0001
0000
0000
1000
0001
,
0100
0000
0000
0101
0000
0110
0000
1010
0000
1000
0100
0010
0001
1000
0100
0010
,
0100
0000
1100
0000
0000
0110
0000
0000
0011
0000
0000
0000
0001
1000
0010
0100
,
0000
0120
0000
0100
,
0000
0000
0000
0000
0000
0000
0000
0000
0000
0000
0000
0000
0130
0000
0000
0000
0000
0000
0010
0000
0100
0000
0010
0000
0100
0000
0000
0010
0000
0000
0000
0000
0000
0100
0000
0000
0000
0000
0000
0001
0000
0000
0000
0000
0000
1000
0000
0000
,
0001
2000
0000
3001
,
0000
0000
0000
0000
0000
0000
1000
0000
0001
0000
1000
0000
0001
0000
0000
0000
0000
0000
0100
0000
0000
0001
0000
0000
0000
0000
0000
0100
0000
0000
0010
0000
0000
1000
0000
0000
0000
0000
0000
0001
0000
0000
1000
0000
0000
0100
0000
0000
,
0010
0210
0000
0010
,
0000
0000
0000
0000
0000
0000
0010
0000
0000
0000
0000
0000
0000
0000
0000
0000
0000
0000
0310
0000
0000
0100
0010
0100
,
0010
0001
1000
0000
1002
0000
0000
0000
0000
0000
0000
0000
1003
0000
0000
0000
,
0000
0000
0000
0000
0000
0000
0001
0000
1000
0000
0001
0000
1000
0000
0000
0000
0000
0000
0001
0000
0000
1000
0000
0000
0010
0000
0000
0100
0000
0000
0000
0000
0000
0100
0000
0000
0000
0000
0000
0010
0000
0000
0000
0000
0000
0010
0000
0000
,
1000
0100
0000
0010
0000
0100
0000
1000
0000
0001
0000
0100
0000
0010
0000
0100
,
0000
0001
0000
0001
0000
0010
0100
0010
1000
0000
0010
0001
0000
0100
0010
1000
,
0001
0100
0000
0010
0000
0100
0000
0001
0000
1000
0100
0000
0010
0000
0100
1000
,
0000
0010
0000
0100
0000
0001
0100
0010
0000
0100
0001
1000
0100
0010
0000
0100
,
1000
0000
0000
0010
0000
0000
0000
0000
0000
0100
0000
0000
0001
0000
0000
0000
0000
0000
0100
0000
0000
0000
0000
0000
0010
0000
0100
0000
0010
0000
0100
0000
0010
0000
0100
0000
0010
0000
0000
1000
0000
0000
0100
0000
0000
0010
0000
0000
,
0000
0100
1000
0000
0010
0000
0001
0000
0010
0000
0100
0000
0001
0010
0000
0100
,
1000
0000
0100
0000
0010
0001
0000
0100
0000
0100
0000
0010
0000
0010
0000
0100
,
0000
0001
0010
0000
1000
0000
0010
0100
0010
0001
0010
0001
1000
0000
0001
1000
,
0001
0100
0000
0100
0010
0000
0001
0000
0010
0000
0100
0010
0000
1000
0000
0100
,
0000
0010
0100
1000
0001
0000
0100
0000
0010
0000
0100
0001
0000
0001
1000
0001
,
0010
0100
1000
0100
0010
0000
0100
0000
1000
0000
0010
0100
0000
0010
1000
0100
,
0000
0100
0010
0000
0001
0000
0100
0010
0000
0000
0000
0000
0110
0000
0000
0000
,
1000
0100
0000
0100
0010
0001
0100
0000
0010
0000
0100
0001
0000
0010
0100
1000
,
0000
0100
0010
0001
0100
0000
0010
0000
1000
0000
0001
0100
0000
0000
0001
0000
,
0101
0011
1010
1100
,
1010
0011
0101
1100
,
1000
0001
0010
0100
1000
0000
0010
1000
0001
0000
0100
0001
0000
0100
0001
1000
,
0000
0010
1000
0001
0100
0000
0001
0000
1000
0000
0100
0010
0000
0100
1000
0001
,
0100
0010
0000
0010
0000
0010
0100
0000
0001
0000
1000
0100
0000
1000
0100
0010
,
0000
0001
1000
0000
0010
0000
0100
0010
0000
0000
0100
0000
0110
0000
0000
0000
,
1000
0100
0000
0001
0000
0100
1000
0010
1000
0000
0001
0100
0000
0010
0100
0001
,
0000
0001
1000
0100
0010
0000
0100
0000
1000
0000
0001
1000
0000
0000
0001
1000
,
0010
0000
0000
1010
0000
0110
0000
0101
0000
0001
0010
0100
1000
0001
0010
0100
,
0010
0000
0011
0000
0000
0110
0000
0000
1100
0000
0000
0000
1001
0000
0200
0020
,
0000
0330
0000
0000
;
