#TITLE:Platinum;
#SUBTITLE:;
#ARTIST:jioyi;
#TITLETRANSLIT:;
#SUBTITLETRANSLIT:;
#ARTISTTRANSLIT:;
#GENRE:;
#CREDIT:usaminseijin;
#BANNER:[ROUND C] - Platinum.png;
#BACKGROUND:[ROUND C] - Platinum-bg.png;
#LYRICSPATH:;
#CDTITLE:cdtitle.png;
#MUSIC:[ROUND C] - Platinum.ogg;
#OFFSET:0.000000;
#SAMPLESTART:89.640770;
#SAMPLELENGTH:10.571865;
#SELECTABLE:YES;
#DISPLAYBPM:91.000000:182.000000;
#BPMS:0.000000=182.000000
,16.000000=364.000000
,19.500000=182.000000
,20.000000=364.000000
,23.500000=182.000000
,24.000000=364.000000
,27.500000=182.000000
,28.000000=364.000000
,31.500000=182.000000
,32.000000=364.000000
,51.000000=91.000000
,57.000000=182.000000
,59.000000=91.000000
,67.000000=182.000000
,71.000000=364.000000
,72.000000=182.000000
,75.000000=364.000000
,77.000000=182.000000
,84.000000=364.000000
,85.000000=182.000000
,87.000000=364.000000
,88.000000=182.000000
,89.000000=364.000000
,91.000000=182.000000
,92.000000=364.000000
,93.000000=182.000000
,95.000000=364.000000
,102.000000=182.000000
,132.500000=273.000000
,134.000000=182.000000
,165.000000=91.000000
,181.000000=364.000000
,185.000000=182.000000
,189.000000=364.000000
,193.000000=182.000000
,197.000000=364.000000
,201.000000=182.000000
,205.000000=91.000000
,207.000000=364.000000
,211.000000=182.000000
,239.000000=364.000000
,246.000000=182.000000
,270.000000=364.000000
,271.000000=182.000000
,271.500000=364.000000
,272.500000=182.000000
,273.000000=364.000000
,274.000000=182.000000
,274.500000=364.000000
,275.500000=182.000000
,302.000000=364.000000
,307.250000=182.000000
,307.500000=364.000000
,308.000000=182.000000
;
#STOPS:16.000000=0.124000,
16.750000=0.124000,
17.500000=0.124000,
18.250000=0.124000,
19.000000=0.082000,
20.000000=0.124000,
20.750000=0.124000,
21.500000=0.124000,
22.250000=0.124000,
23.000000=0.082000,
24.000000=0.124000,
24.750000=0.124000,
25.500000=0.124000,
26.250000=0.124000,
27.000000=0.082000,
28.000000=0.124000,
28.750000=0.124000,
29.500000=0.124000,
30.250000=0.124000,
31.000000=0.082000,
32.000000=0.124000,
32.750000=0.124000,
33.500000=0.082000,
34.000000=0.124000,
34.750000=0.124000,
35.500000=0.082000,
36.000000=0.124000,
36.750000=0.124000,
37.500000=0.082000,
38.000000=0.124000,
38.750000=0.124000,
39.500000=0.082000,
40.000000=0.041000,
40.250000=0.041000,
40.500000=0.041000,
40.750000=0.041000,
41.000000=0.041000,
41.250000=0.041000,
41.500000=0.041000,
41.750000=0.041000,
42.000000=0.041000,
42.250000=0.041000,
42.500000=0.041000,
42.750000=0.041000,
43.000000=0.041000,
43.250000=0.041000,
43.500000=0.041000,
43.750000=0.041000,
50.000000=0.164835,
57.000000=0.165000,
57.500000=0.082000,
57.750000=0.082000,
58.000000=0.165000,
58.500000=0.165000,
71.000000=0.082000,
71.500000=0.082000,
75.000000=0.082000,
75.500000=0.082000,
76.000000=0.082000,
76.500000=0.082000,
84.000000=0.082000,
84.500000=0.082000,
87.000000=0.082000,
87.500000=0.082000,
89.000000=0.082000,
89.500000=0.082000,
90.000000=0.082000,
90.500000=0.082000,
92.000000=0.082000,
92.500000=0.082000,
101.000000=0.165000,
130.000000=0.082000,
130.500000=0.082000,
131.000000=0.082000,
131.500000=0.082000,
132.500000=0.165000,
181.000000=0.082000,
181.500000=0.082000,
182.000000=0.165000,
183.000000=0.165000,
184.000000=0.082000,
184.500000=0.082000,
189.000000=0.082000,
189.500000=0.082000,
190.000000=0.165000,
191.000000=0.165000,
192.000000=0.082000,
192.500000=0.082000,
197.000000=0.082000,
197.500000=0.082000,
198.000000=0.165000,
199.000000=0.165000,
200.000000=0.082000,
200.500000=0.082000,
207.000000=0.082000,
207.500000=0.082000,
208.000000=0.082000,
208.500000=0.082000,
209.000000=0.082000,
209.500000=0.082000,
210.000000=0.082000,
210.500000=0.082000,
245.000000=0.165000,
270.000000=0.165000,
271.500000=0.165000,
273.000000=0.165000,
274.500000=0.165000,
302.000000=0.124000,
302.750000=0.124000,
303.500000=0.124000,
304.250000=0.124000,
305.000000=0.124000,
305.750000=0.124000,
306.500000=0.124000,
307.500000=0.082000
;
#BGCHANGES:;
#KEYSOUNDS:;
#ATTACKS:;

//---------------dance-single - ----------------
#NOTES:
     dance-single:
     :
     Challenge:
     10:
     0.903351,1.297770,1.555090,0.979449,0.670149,736.000000,555.000000,181.000000,114.000000,0.000000,4.000000,0.903351,1.297770,1.555090,0.979449,0.670149,736.000000,555.000000,181.000000,114.000000,0.000000,4.000000:
0000
0000
0000
0000
,
0000
0000
0000
0000
,
0000
0000
0000
0000
,
0000
0000
0000
0000
,
2200
3300
0000
0220
0330
0000
0202
0303
0000
0220
0330
0000
1100
0000
1000
0001
,
2200
3300
0000
2002
3003
0000
0202
0303
0000
2002
3003
0000
1010
0000
1000
0001
,
2200
3300
0000
2020
3030
0000
2002
3003
0000
2020
3030
0000
1100
0000
1000
0001
,
2200
3300
0000
0220
0330
0000
0202
0303
0000
0220
0330
0000
1010
0000
1000
0001
,
2200
3300
0000
2002
3003
0000
1010
0000
2200
3300
0000
0220
0330
0000
0101
0000
,
2200
3300
0000
2002
3003
0000
1010
0000
2200
3300
0000
0220
0330
0000
0011
0000
,
1000
0100
1000
0100
0010
0001
0010
0001
1000
0010
1000
0010
0100
0001
0100
0001
,
0220
0000
0000
0000
,
0000
0000
0000
0000
0000
0000
0000
0000
0000
0000
0330
0000
0000
0000
0000
0000
2002
0000
3003
0000
0000
0000
0000
0000
0100
0000
0000
0000
0000
0000
1000
0001
,
1000
0000
0000
0000
0100
0000
0001
0000
0100
0010
1000
0010
0100
0000
0000
0000
1001
0000
0000
0000
0110
0000
0000
0000
0100
0000
0000
0001
0000
0000
0100
0000
,
1000
0010
1000
0010
2002
3003
0110
0110
2002
3003
0220
0330
1001
0000
1000
0001
,
0100
0000
0001
0000
1000
0000
0010
0000
0100
0001
0010
0001
0100
0000
0001
0000
1000
0000
0001
0000
1000
0000
0010
0000
0110
0000
0000
0000
0110
0000
0000
0000
,
1001
0000
0000
0000
1001
0000
0000
0000
0110
0000
0000
0000
0110
0000
0000
0000
1000
0001
0100
0001
1000
0000
0000
0000
1000
0000
0000
0000
0010
0000
0000
0000
,
1000
0001
1000
0100
1000
0001
2001
0000
,
3010
0100
0001
0100
0010
0100
2010
0000
,
3002
0000
1003
0010
0100
0001
1000
0010
,
2100
0000
3001
0010
0102
0000
1003
0010
,
2001
0000
3100
0001
1000
0001
2100
0000
,
3010
0100
1020
0000
0230
0000
0301
1000
,
0102
0000
1003
0100
0010
0001
0210
0000
,
0000
0000
0000
0020
,
0330
0000
0000
0000
2002
3003
0000
0000
1100
0000
0001
0000
1000
0010
0000
0000
,
0101
0000
0010
0000
1000
0010
0000
0000
1001
0000
0000
0010
1000
0000
0001
0000
,
1000
0100
0000
0000
1001
0000
0010
0000
0101
0000
0010
0000
0100
0001
0000
0000
,
0100
0000
0010
0000
0100
1000
0000
0000
1001
0000
0000
0010
0100
0000
0001
0000
,
0100
0010
0000
0000
1001
0000
0010
0000
0101
0000
0010
0000
1000
0010
0000
0000
,
0100
0000
0010
0000
0100
0001
0000
0000
1010
0000
0000
0100
0010
0000
0100
0000
,
0001
1000
0000
0000
0110
0000
0001
0000
1100
0000
0010
0000
0100
0010
0000
0000
,
0110
0000
0001
0000
0100
0010
0000
0000
1100
0000
1001
0000
1010
0000
0110
0000
,
0011
0000
0101
0000
0000
0000
0000
0000
0001
0100
0000
0000
1010
0000
0100
0000
,
0001
0100
0000
0000
1001
0000
0000
0100
0001
0000
1000
0000
0001
0010
0000
0000
,
1001
0000
0100
0000
1010
0000
0100
0000
0010
1000
0000
0000
0010
0000
0100
0000
,
0010
0001
0000
0000
1001
0000
0000
0100
0010
0000
1000
0000
0010
0100
0000
0000
,
1001
0000
0100
0000
1010
0000
0100
0000
0001
0100
0000
0000
0010
0000
0100
0000
,
0010
1000
0000
0000
0101
0000
0000
0010
0100
0000
0010
0000
1000
0001
0000
0000
,
0110
0000
1000
0000
1000
0100
1000
0100
0010
0001
0010
0001
1000
0010
1000
0010
,
0100
0001
0100
0001
2100
0000
0000
0000
0001
0000
0100
0000
0000
0000
3010
0000
,
1001
0000
1001
0000
0100
0010
0100
0000
1001
0000
0010
0001
0000
0100
0000
0010
,
0000
0000
0100
0000
0001
0000
0100
0000
1001
0000
0000
0100
0000
0000
0001
0000
0000
1000
0000
0000
0010
0000
0000
0000
0110
0000
0000
0001
0000
0000
0100
0000
,
0000
0010
0000
0000
1000
0000
0000
0000
0110
0000
1000
0000
0010
0000
0000
0000
0001
0000
0000
0000
1000
0000
0001
0000
0000
0000
0010
0000
0000
0000
0001
0000
,
0000
1000
0010
1000
0101
0000
0010
0001
0000
1000
0001
0000
1000
0010
0000
1000
,
0010
0100
0010
0000
1000
0000
0001
0000
1100
0000
0000
0000
0110
0000
0000
0000
2002
0000
3003
0000
0000
0000
0000
0000
0202
0000
0303
0000
0000
0000
0000
0000
,
0110
0000
1001
0000
0000
0000
4000
0400
0040
0004
0000
0000
0000
0000
0000
0000
,
3000
0300
0030
0003
1100
0000
0110
0000
2002
3003
0000
0000
0220
0330
0000
0000
,
1010
0000
0101
0000
0000
0000
4000
0040
0400
0004
0000
0000
0000
0000
0000
0000
,
3000
0030
0300
0003
1010
0000
0110
0000
2002
3003
0000
0000
0220
0330
0000
0000
,
1100
0000
0011
0000
1000
0000
0001
0000
1001
0000
0100
0010
0100
0000
1001
0000
,
0100
0010
0100
0010
1000
0010
0100
0000
0001
0000
0100
0010
2002
0000
0000
0000
,
0000
0000
0000
0000
0000
0000
0000
0000
0000
0000
0000
0000
0000
0000
0000
0000
0000
0000
0000
0000
0000
0000
0000
0000
0000
0000
0000
0000
0000
0000
0000
0000
0000
0000
0000
0000
0000
0000
0000
0000
0000
0000
0000
0000
0000
0000
0000
0000
0000
0000
0000
0000
0000
0000
0000
0000
0000
0000
0000
0000
0000
0000
0000
0000
0000
0000
0000
0000
0000
0000
0000
0000
0000
0000
0000
0000
0000
0000
0000
0000
0000
0000
0000
0000
0000
0000
0000
0000
0000
0000
0000
0000
0000
0000
0000
0000
0000
0000
0000
0000
0000
0000
0000
0000
0000
0000
0000
0000
0000
0000
0000
0000
0000
0000
0000
0000
0000
0000
0000
0000
0000
3003
0000
0000
0000
0000
0000
0000
0000
0000
0000
0000
0000
0000
0000
0000
0000
0000
0000
0000
0000
0000
0000
0000
1000
0000
0000
0000
0000
0000
0000
0000
0000
0000
0000
0000
0000
0000
0000
0000
0000
0000
0000
0000
0000
0000
0000
0000
0010
0000
0000
0000
0000
0000
0000
0000
0000
0000
0000
0000
0000
0000
0000
0000
0000
0000
0000
0000
0000
0000
0000
0000
,
1001
1001
1001
0110
,
0110
0000
0000
0000
0110
0000
0000
0000
0110
0000
1000
0001
1010
0000
0000
0000
,
1010
1010
1010
0101
,
0101
0000
0000
0000
0101
0000
0000
0000
0101
0000
0100
0010
1000
0000
0010
0000
,
1000
0000
0010
0000
0100
0000
0010
0000
0100
0000
0010
0100
0001
0000
1000
0000
,
0001
0000
1000
0000
0010
0000
0100
0000
0010
0000
0100
0001
1000
0100
1000
0100
,
0010
0001
0010
0001
0100
0010
0100
0010
1000
0001
1000
0001
0220
0000
0000
0000
,
0000
0000
0000
0000
,
0000
0000
0330
0000
2002
3003
0000
0000
1000
0000
0010
0000
1001
0000
0000
0000
,
0101
0000
1000
0101
0000
0110
0000
1001
,
0000
0000
1000
0000
0010
0000
0001
0000
1010
0000
0000
0110
0000
0000
1001
0000
,
0000
1010
0000
0000
0101
0000
0000
0000
0110
0000
0000
1001
0000
0000
1010
0000
,
0000
0101
0000
0000
1001
0000
0000
0000
1000
0000
0010
0000
0110
0000
0000
0000
,
1001
0000
0100
1001
0000
1010
0000
0110
,
0000
0000
0100
0000
0001
0000
0100
0000
2002
3003
0000
0000
0100
0000
0220
0330
,
0000
0000
1000
0000
2020
3030
0000
0000
0100
0000
0202
0303
0000
0000
0010
0000
,
1000
0001
1000
0000
0010
0000
0100
0000
0001
0000
0100
0000
0110
0000
0000
0000
,
1001
0000
0100
1001
0000
0110
0000
1010
,
0000
0000
0100
0000
0001
0000
0100
0000
1100
0000
0000
0101
0000
0000
1001
0000
,
0000
0110
0000
0000
1001
0000
0000
0000
1010
0000
0000
0110
0000
0000
1001
0000
,
0000
1100
0000
0000
0011
0000
0000
0000
1000
0100
0010
0100
1000
0100
0010
0100
,
1000
0001
0010
0001
1000
0001
0010
0001
0100
0001
0010
0001
0100
0001
0010
0001
,
0100
0010
1000
0010
0100
0010
1000
0010
2200
3300
0000
0220
0330
0000
2002
3003
,
0000
0022
0033
0000
0220
0330
0000
2002
3003
0000
2200
3300
0000
0100
0001
0000
,
1000
0010
0100
0001
1001
1000
1001
0001
,
0110
0100
0110
0020
0000
0000
0000
0000
,
0000
0000
0030
0000
;

//---------------dance-single - ----------------
#NOTES:
     dance-single:
     :
     Hard:
     10:
     0.770794,1.161162,0.859166,0.438174,0.618599,628.000000,528.000000,100.000000,51.000000,0.000000,0.000000,0.770794,1.161162,0.859166,0.438174,0.618599,628.000000,528.000000,100.000000,51.000000,0.000000,0.000000:
0000
0000
0000
0000
,
0000
0000
0000
0000
,
0000
0000
0000
0000
,
0000
0000
0000
0000
,
1100
0000
0000
1001
0000
0000
1010
0000
0000
1001
0000
0000
0202
0303
0000
0000
,
0110
0000
0000
0101
0000
0000
0110
0000
0000
0101
0000
0000
0220
0330
0000
0000
,
0110
0000
0000
1010
0000
0000
0110
0000
0000
1010
0000
0000
0220
0330
0000
0000
,
1100
0000
0000
0011
0000
0000
1100
0000
0000
0011
0000
0000
2200
3300
0000
0000
,
0110
0000
0000
1001
0000
0000
0110
0000
1001
0000
0000
0110
0000
0000
0101
0000
,
1100
0000
0000
0011
0000
0000
1100
0000
0101
0000
0000
1010
0000
0000
0101
0000
,
1000
0010
1000
0010
1000
0010
1000
0010
0100
0001
0100
0001
0100
0001
0100
0001
,
0220
0000
0000
0000
,
0000
0000
0000
0000
0000
0000
0000
0000
0000
0000
0000
0000
0330
0000
0000
0000
2002
0000
3003
0000
0000
0000
0000
0000
0100
0000
0000
0000
0000
0000
1000
0001
,
1000
0000
0000
0000
0100
0000
0001
0000
0100
0010
0100
0010
0100
0000
0000
0000
1001
0000
0000
0000
0110
0000
0000
0000
0100
0000
0000
0001
0000
0000
0100
0000
,
1000
0010
1000
0010
1001
0000
0100
0010
1001
0000
0110
0000
1001
0000
1000
0001
,
0100
0000
0001
0000
1000
0000
0001
0000
0100
0010
0100
0010
0100
0000
0001
0000
1000
0000
0001
0000
1000
0000
0010
0000
0100
0000
0000
0000
0010
0000
0000
0000
,
1000
0000
0000
0000
0001
0000
0000
0000
0100
0000
0000
0000
0010
0000
0000
0000
1000
0001
1000
0001
1000
0000
0000
0000
1000
0000
0000
0000
0010
0000
0000
0000
,
1000
0001
1000
0100
1000
0001
2000
0000
,
3010
0100
0001
0100
0010
0100
0002
0000
,
2003
0000
3001
0010
0100
0001
1000
0010
,
2000
0000
3001
0010
0002
0000
1003
0010
,
2000
0000
3010
1000
0001
0100
0002
0000
,
0013
0100
2000
0000
3002
0000
1003
0010
,
2000
0000
3001
0100
0001
0010
0200
0000
,
0000
0000
0000
0020
,
0330
0000
0000
0000
2002
3003
0000
0000
1000
0000
0001
0000
1000
0010
0000
0000
,
0100
0000
0010
0000
1000
0010
0000
0000
1000
0000
0000
0010
1000
0000
0001
0000
,
1000
0100
0000
0000
1000
0000
0010
0000
0100
0000
0010
0000
0100
0001
0000
0000
,
0100
0000
0010
0000
0100
1000
0000
0000
1000
0000
0000
0010
0100
0000
0001
0000
,
0100
0010
0000
0000
1000
0000
0010
0000
0100
0000
0010
0000
1000
0010
0000
0000
,
0100
0000
0010
0000
0100
0001
0000
0000
0010
0000
0000
0100
0010
0000
0100
0000
,
0001
1000
0000
0000
0100
0000
0001
0000
1000
0000
0010
0000
0100
0010
0000
0000
,
0100
0000
0001
0000
0100
0010
0000
0000
1100
0000
1100
0000
1100
0000
0101
0000
,
0101
0000
1001
0000
0000
0000
0000
0000
0001
0100
0000
0000
0010
0000
0100
0000
,
0001
0100
0000
0000
0001
0000
0000
0100
0001
0000
1000
0000
0001
0010
0000
0000
,
0001
0000
0100
0000
0010
0000
0100
0000
0010
1000
0000
0000
0010
0000
0100
0000
,
0010
0001
0000
0000
0001
0000
0000
0100
0010
0000
1000
0000
0010
0100
0000
0000
,
0001
0000
0100
0000
0010
0000
0100
0000
0001
0100
0000
0000
0010
0000
0100
0000
,
0010
1000
0000
0000
0100
0000
0000
0010
0100
0000
0010
0000
1000
0001
0000
0000
,
0010
0000
1000
0000
1000
0100
1000
0100
1000
0100
1000
0100
0010
0001
0010
0001
,
0010
0001
0010
0001
2000
0000
0000
0000
0001
0000
0100
0000
0000
0000
3010
0000
,
1000
0000
0001
0000
0100
0010
0100
0000
0001
0000
0010
0001
0000
0100
0000
0010
,
0000
0000
0100
0000
0001
0000
0100
0000
0001
0000
0000
0100
0000
0000
0001
0000
0000
1000
0000
0000
0010
0000
0000
0000
0100
0000
0000
0001
0000
0000
0100
0000
,
0000
0010
0000
0000
1000
0000
0000
0000
0100
0000
1000
0000
0010
0000
0000
0000
1000
0000
0000
0000
0001
0000
1000
0000
0000
0000
0010
0000
0000
0000
1000
0000
,
0000
0001
0010
0001
0100
0000
0010
1000
0000
0001
1000
0000
0010
0100
0000
0001
,
0100
0010
0100
0000
0001
0000
1000
0000
0010
0000
0000
0000
0100
0000
0000
0000
2002
0000
3003
0000
0000
0000
0000
0000
0202
0000
0303
0000
0000
0000
0000
0000
,
1000
0000
0001
0000
0000
0000
4000
0004
0000
0000
0000
0000
0000
0000
0000
0000
,
0000
0000
3000
0003
1000
0000
0010
0000
2002
3003
0000
0000
0220
0330
0000
0000
,
1000
0000
0001
0000
0000
0000
0400
0040
0000
0000
0000
0000
0000
0000
0000
0000
,
0000
0000
0300
0030
1000
0000
0010
0000
2002
3003
0000
0000
0220
0330
0000
0000
,
1000
0000
0001
0000
4000
0004
0000
0000
0000
0000
0000
0000
0000
0000
0000
0000
,
0000
0000
3000
0003
1000
0010
0100
0000
0001
0000
0100
0010
2002
0000
0000
0000
,
0000
0000
0000
0000
0000
0000
0000
0000
0000
0000
0000
0000
0000
0000
0000
0000
0000
0000
0000
0000
0000
0000
0000
0000
0000
0000
0000
0000
0000
0000
0000
0000
0000
0000
0000
0000
0000
0000
0000
0000
0000
0000
0000
0000
0000
0000
0000
0000
0000
0000
0000
0000
0000
0000
0000
0000
0000
0000
0000
0000
0000
0000
0000
0000
0000
0000
0000
0000
0000
0000
0000
0000
0000
0000
0000
0000
0000
0000
0000
0000
0000
0000
0000
0000
0000
0000
0000
0000
0000
0000
0000
0000
0000
0000
0000
0000
0000
0000
0000
0000
0000
0000
0000
0000
0000
0000
0000
0000
0000
0000
0000
0000
0000
0000
0000
0000
0000
0000
0000
0000
0000
3003
0000
0000
0000
0000
0000
0000
0000
0000
0000
0000
0000
0000
0000
0000
0000
0000
0000
0000
0000
0000
0000
0000
1000
0000
0000
0000
0000
0000
0000
0000
0000
0000
0000
0000
0000
0000
0000
0000
0000
0000
0000
0000
0000
0000
0000
0000
0010
0000
0000
0000
0000
0000
0000
0000
0000
0000
0000
0000
0000
0000
0000
0000
0000
0000
0000
0000
0000
0000
0000
0000
,
1001
1001
1001
0110
,
0110
0110
0110
1010
,
1010
1010
1010
0101
,
0101
0000
0101
0000
0101
0000
1000
0010
,
1000
0010
0100
0010
0100
0010
1000
0001
,
1000
0000
0001
0000
0100
0000
0001
0000
0100
0000
0001
0000
1000
0100
1000
0100
,
1000
0100
1000
0100
0010
0001
0010
0001
0010
0001
0010
0001
0220
0000
0000
0000
,
0000
0000
0000
0000
,
0000
0000
0330
0000
2002
3003
0000
0000
1000
0000
0010
0000
1000
0000
0000
0000
,
0101
0000
1000
0001
0000
0110
0000
1001
,
0000
0000
1000
0000
0010
0000
1000
0000
0101
0000
0000
0010
0000
0000
1001
0000
,
0000
0010
0000
0000
0101
0000
0000
0000
0110
0000
0000
0001
0000
0000
1010
0000
,
0000
0100
0000
0000
1001
0000
0000
0000
1000
0000
0010
0000
0100
0000
0000
0000
,
1001
0000
0100
0001
0000
1010
0000
0110
,
0000
0000
0100
0000
0001
0000
0100
0000
2002
3003
0000
0000
0100
0000
0020
0030
,
0000
0000
1000
0000
0020
0030
0000
0000
0100
0000
0002
0003
0000
0000
0010
0000
,
1000
0001
1000
0000
0010
0000
0100
0000
0001
0000
0100
0000
0010
0000
0000
0000
,
1001
0000
0100
0001
0000
0110
0000
1010
,
0000
0000
0100
0000
0001
0000
0100
0000
1010
0000
0000
0100
0000
0000
1001
0000
,
0000
0010
0000
0000
1001
0000
0000
0000
1010
0000
0000
0100
0000
0000
1001
0000
,
0000
0100
0000
0000
0011
0000
0000
0000
1000
0100
1000
0100
1000
0100
1000
0100
,
0010
0001
0010
0001
0010
0001
0010
0001
1000
0001
1000
0001
1000
0001
1000
0001
,
0100
0010
0100
0010
0100
0010
0100
0010
1100
0000
0000
1001
0000
0000
1010
0000
,
0000
1001
0000
0000
0110
0000
0000
0101
0000
0000
1001
0000
0000
0100
0001
0000
,
1000
0010
0100
0001
1000
0010
1000
0010
,
0100
0001
0100
0002
0000
0000
0000
0000
,
0000
0000
0003
0000
;

//---------------dance-single - ----------------
#NOTES:
     dance-single:
     :
     Medium:
     8:
     0.546184,0.887948,0.154650,0.189016,0.317891,445.000000,427.000000,18.000000,22.000000,0.000000,0.000000,0.546184,0.887948,0.154650,0.189016,0.317891,445.000000,427.000000,18.000000,22.000000,0.000000,0.000000:
0000
0000
0000
0000
,
0000
0000
0000
0000
,
0000
0000
0000
0000
,
0000
0000
0000
0000
,
1000
0000
0000
0001
0000
0000
1000
0000
0000
0001
0000
0000
0110
0000
0000
0000
,
1000
0000
0000
0010
0000
0000
0100
0000
0000
0010
0000
0000
1001
0000
0000
0000
,
0100
0000
0000
0010
0000
0000
1000
0000
0000
0001
0000
0000
0110
0000
0000
0000
,
1000
0000
0000
0001
0000
0000
0100
0000
0000
0010
0000
0000
1001
0000
0000
0000
,
0100
0000
0000
1000
0000
0000
0010
0000
0001
0000
0000
0100
0000
0000
1000
0000
,
0010
0000
0000
0001
0000
0000
0100
0000
1000
0000
0000
0010
0000
0000
0001
0000
,
2000
0000
3002
0000
,
0023
0000
0000
0000
,
0000
0000
0000
0000
0000
0000
0030
0000
1001
0000
0000
0000
0100
0000
0000
1000
,
0001
0000
0000
0000
0100
0000
0001
0000
0220
0000
0000
0000
0330
0000
0000
0000
1001
0000
0000
0000
1000
0000
0000
0000
0010
0000
0000
1000
0000
0000
0001
0000
,
0100
0010
0100
0010
1000
0000
0100
0010
0001
0000
0100
0000
0010
0000
1000
0100
,
1000
0001
0010
0001
0220
0000
0330
0000
1000
0001
1000
0010
0100
0000
0010
0000
,
1000
0001
0100
0010
2002
3003
1000
0010
,
1000
0001
1000
0100
1000
0001
1000
0000
,
0010
0100
0001
0100
0010
0100
0001
0000
,
1000
0000
0001
0010
0100
0001
1000
0010
,
1000
0000
0001
0010
0001
0000
1000
0010
,
1000
0000
0010
1000
0001
0100
0001
0000
,
0010
0100
1000
0000
0001
0000
1000
0010
,
1000
0000
0001
0100
0001
0010
0200
0000
,
0000
0000
0000
0320
,
0030
0000
1001
0000
1000
0001
1000
0000
,
0010
0000
0100
0000
0010
0000
0000
0000
1000
0000
0000
0010
0000
0000
0100
0000
,
0000
0001
0000
0000
1000
0000
0010
0000
0100
0000
0010
0000
0100
0000
0000
0000
,
0001
0000
1000
0000
0001
0000
0000
0000
1000
0000
0000
0100
0000
0000
0010
0000
,
0000
0001
0000
0000
1000
0000
0001
0000
0100
0000
0001
0000
0010
0000
0000
0000
,
0100
0000
1000
0000
0010
0000
0000
0000
1000
0000
0000
0100
0000
0000
1000
0000
,
0000
0001
0000
0000
0010
0000
0001
0000
1000
0000
0010
0000
0100
0000
0000
0000
,
0001
0010
0100
0000
1000
0001
0100
0010
,
1000
0001
0000
0000
0001
0000
0100
0010
,
0100
0000
0000
0000
0001
0000
0000
0100
0000
0000
0010
0000
0000
1000
0000
0000
,
0001
0100
0010
0100
0010
0000
1000
0001
,
1000
0000
0000
0000
0001
0000
0000
0010
0000
0000
0100
0000
0000
1000
0000
0000
,
0001
1000
0010
1000
0100
0000
0010
0001
,
0100
0000
0000
0000
0001
0000
0000
0010
0000
0000
0001
0000
0000
1000
0000
0000
,
0100
1000
0001
0100
0010
0000
1000
0100
,
0010
0000
2000
0000
0000
0002
0000
3003
,
1000
0000
0001
0000
0100
0010
0100
0000
0001
0000
0010
0001
0000
0100
0000
0010
,
0000
0000
0100
0000
0001
0000
0100
0000
0001
0000
0000
0100
0000
0000
0001
0000
0000
1000
0000
0000
0010
0000
0000
0000
0100
0000
0000
0001
0000
0000
0100
0000
,
0000
0010
0000
0000
1000
0000
0000
0000
0100
0000
1000
0000
0010
0000
0000
0000
1000
0000
0000
0000
0001
0000
1000
0000
0000
0000
0010
0000
0000
0000
1000
0000
,
0000
0001
0010
0001
0100
0000
0010
1000
0000
0001
1000
0000
0010
0100
0000
0001
,
1000
0001
0100
0001
0010
0000
0100
0000
0010
0000
0000
0000
1000
0000
0000
0000
,
0001
1000
0000
2002
0000
0000
0000
0000
,
0000
3003
0100
0010
0100
0000
0001
0000
,
1000
0001
0000
0220
0000
0000
0000
0000
,
0000
0330
1000
0010
1000
0000
0001
0000
,
0100
0001
2002
0000
0000
0000
0000
0000
,
0000
0000
3003
0000
1000
0010
0100
0000
0001
0000
0100
0010
0200
0000
0000
0000
,
0000
0000
0000
0000
0000
0000
0301
1000
,
0001
1000
1001
0100
,
0010
0100
0110
1000
,
0010
1000
1010
0100
,
0001
0000
0100
0000
0101
0000
1000
0010
,
1000
0010
0100
0010
0100
0010
1000
0001
,
1000
0001
0100
0001
0100
0001
1000
0100
,
1000
0100
0010
0001
0010
0001
0200
0000
,
0000
0000
0000
0000
,
0000
0300
1001
0000
1000
0010
1000
0000
,
0001
0000
1000
0001
0000
0100
0000
0001
,
0000
0000
1000
0000
0010
0000
1000
0000
0001
0000
0000
0100
0000
0000
0010
0000
,
0000
0100
0000
0000
0001
0000
0000
0000
1000
0000
0000
0001
0000
0000
0100
0000
,
0000
0010
0000
0000
1000
0000
0000
0000
1000
0000
0010
0000
0100
0000
0000
0000
,
0001
0000
0100
0001
0000
1000
0000
0010
,
0000
0100
0001
0100
0010
0000
0100
0001
,
0000
1000
0010
0000
0100
0010
0000
1000
,
0100
0010
0001
0100
0010
0100
0001
0000
,
1000
0000
0010
0100
0000
0001
0000
0100
,
0000
0000
0001
0000
1000
0000
0010
0000
1000
0000
0000
0001
0000
0000
0100
0000
,
0000
0001
0000
0000
0100
0000
0000
0000
0001
0000
0000
0010
0000
0000
0100
0000
,
0000
1000
0000
0000
0001
0000
0000
0000
1000
0000
0010
0000
0100
0000
0000
0000
,
0001
0000
1000
0001
0000
0010
0000
0100
,
0000
0000
0010
0000
0001
0000
1000
0000
0001
0000
0000
1000
0000
0000
0010
0000
,
0000
0100
0000
0000
0001
0000
0000
1000
0000
0000
0010
0000
0000
0100
0000
0000
,
0010
0100
0001
1000
0010
0100
0010
0100
,
0001
1000
0001
2000
0000
0000
0000
0000
,
0000
0000
3000
0000
;

//---------------dance-single - ----------------
#NOTES:
     dance-single:
     :
     Easy:
     5:
     0.416082,0.479629,0.257750,0.154650,0.051550,339.000000,309.000000,30.000000,18.000000,0.000000,0.000000,0.416082,0.479629,0.257750,0.154650,0.051550,339.000000,309.000000,30.000000,18.000000,0.000000,0.000000:
0000
0000
0000
0000
,
0000
0000
0000
0000
,
0000
0000
0000
0000
,
0000
0000
0000
0000
,
1000
0000
0000
0001
0000
0000
1000
0000
0000
0001
0000
0000
1000
0000
0000
0000
,
0010
0000
0000
0100
0000
0000
0010
0000
0000
0100
0000
0000
0010
0000
0000
0000
,
1000
0000
0000
0010
0000
0000
1000
0000
0000
0010
0000
0000
1000
0000
0000
0000
,
0001
0000
0000
0100
0000
0000
0001
0000
0000
0100
0000
0000
0001
0000
0000
0000
,
2000
0000
0000
3000
0002
0000
0000
0003
,
0200
0000
0000
0300
0020
0000
0000
0030
,
2000
0000
0000
0000
,
3002
0000
0000
0000
,
0000
0000
1003
1000
,
1001
0000
0100
0010
0110
0000
0001
0000
,
1001
0000
0200
0000
0320
0000
1030
0001
,
1000
0000
0010
0100
0010
0000
1001
0000
,
0100
0010
0200
0301
,
1001
1000
1001
0010
,
0110
0100
0110
1000
,
1010
0010
0110
0100
,
0101
0001
1001
1000
,
1010
0100
0101
0010
,
0011
0100
1100
1000
,
1001
0010
0110
2000
,
0000
0000
0000
0000
,
0000
0000
3001
0000
1000
0100
1000
0000
,
0001
0010
0001
0000
1000
0000
0010
0000
,
0100
0000
0001
0000
1000
0010
1000
0000
,
0001
0100
0001
0000
1000
0000
0001
0000
,
0100
0000
0010
0000
1000
0001
1000
0000
,
0010
0100
0010
0000
1000
0000
0001
0000
,
0100
0000
0010
0000
0100
0010
0100
0000
,
0001
1000
0001
0000
2002
0000
0000
0000
,
0000
3003
0000
0000
0001
0000
1000
0100
,
1000
0001
0100
0010
,
1000
0000
0001
0100
0001
0000
1000
0010
,
1000
0001
1000
0010
,
0100
0000
0001
1000
0001
0000
0100
0010
,
0100
0001
1000
0010
,
0100
0000
0010
0100
0010
0000
1000
0001
,
1000
0000
2000
0000
0000
3002
0000
0000
,
0000
0000
1003
0010
1000
0000
1001
0000
,
0100
0000
0010
0100
0010
0000
1001
0000
,
0100
0000
0001
1000
0001
0000
1100
0000
,
0010
0000
0100
0010
0100
0000
1010
0000
,
0001
1000
1000
0001
,
0001
1000
0010
0001
,
0100
0100
0100
0010
,
0010
0001
0100
1000
,
0010
1000
1000
0001
,
0001
1000
0100
0001
,
0010
0000
1000
0001
0100
0010
2002
0000
,
0000
0000
0000
0000
0000
3003
1000
0000
,
1000
0001
0001
0100
,
0100
0010
0010
1000
,
1000
0010
0010
0100
,
0100
0001
0001
1000
,
0100
0001
0100
1000
,
0010
0001
0010
1000
,
0100
0001
0010
2000
,
0000
0000
0000
0000
,
0000
3001
1000
0001
,
1000
0100
1000
0000
0010
0000
0100
0000
,
0001
0010
0001
0000
1000
0000
0010
0000
,
0100
0001
0100
0000
0001
0000
1000
0000
,
0010
1000
0010
0000
1000
0000
0010
0000
,
1000
0100
0001
0000
0010
0000
0100
0000
,
1000
0010
0001
0000
1001
0000
0000
0110
,
0000
0000
1001
0000
0000
0110
0000
0000
,
1001
0110
1000
0001
,
1000
0000
0001
0010
0001
0000
0100
0000
,
0010
0000
1000
0100
1000
0000
0001
0000
,
0100
0000
0010
1000
0010
0000
1000
0000
,
0001
0000
0100
0001
0100
0000
0001
0000
,
0100
0000
0001
0010
1000
0000
0100
0000
,
0010
0000
0000
0000
0001
0000
0100
0000
1000
0000
0000
0001
0000
0000
1000
0000
,
0000
0001
0000
0000
1000
0000
0000
0001
0000
0000
1000
0000
0000
0001
0000
0000
,
1000
0100
0010
0100
,
0010
0000
0100
0002
0000
0000
0000
0000
,
0000
0000
0000
0003
;

//---------------dance-single - ----------------
#NOTES:
     dance-single:
     :
     Beginner:
     3:
     0.273706,0.308333,0.025775,0.154650,0.000000,223.000000,220.000000,3.000000,18.000000,0.000000,0.000000,0.273706,0.308333,0.025775,0.154650,0.000000,223.000000,220.000000,3.000000,18.000000,0.000000,0.000000:
// measure 0
0000
0000
0000
0000
,  // measure 1
0000
0000
0000
0000
,  // measure 2
0000
0000
0000
0000
,  // measure 3
0000
0000
0000
0000
,  // measure 4
2000
0000
0000
3000
,  // measure 5
0020
0000
0000
0030
,  // measure 6
0200
0000
0000
0300
,  // measure 7
0002
0000
0000
0003
,  // measure 8
2000
0000
0000
3000
0002
0000
0000
0003
,  // measure 9
0200
0000
0000
0300
0020
0000
0000
0030
,  // measure 10
2000
0000
0000
0000
,  // measure 11
3001
0000
0000
0000
,  // measure 12
0000
0000
1000
1000
,  // measure 13
1000
0100
0100
0001
,  // measure 14
0001
0100
0010
1000
,  // measure 15
1000
0010
0010
0001
,  // measure 16
0001
0100
0100
0001
,  // measure 17
0001
0001
0000
0010
,  // measure 18
0010
0010
0000
1000
,  // measure 19
1000
1000
0000
0100
,  // measure 20
0100
0100
0000
1000
,  // measure 21
1000
0100
0000
0010
,  // measure 22
0010
0100
0000
1000
,  // measure 23
1000
0001
0000
1000
,  // measure 24
0000
0000
0000
0000
,  // measure 25
0000
0001
1000
1000
,  // measure 26
0001
0000
0010
0010
,  // measure 27
0100
0000
1000
1000
,  // measure 28
0001
0000
0100
0100
,  // measure 29
0010
0000
1000
1000
,  // measure 30
0010
0000
1000
1000
,  // measure 31
0001
0000
0100
0100
,  // measure 32
0001
0000
2002
0000
,  // measure 33
0000
3003
0000
0000
0001
0000
1000
0000
,  // measure 34
0000
0100
0100
0010
,  // measure 35
0000
0001
0001
1000
,  // measure 36
0000
0010
0010
0100
,  // measure 37
0000
0001
0001
0100
,  // measure 38
0000
0001
0001
1000
,  // measure 39
0000
0010
0010
1000
,  // measure 40
0000
2000
0000
0000
,  // measure 41
3000
1000
1000
0001
,  // measure 42
0001
0010
0010
0100
,  // measure 43
0100
0001
0001
1000
,  // measure 44
1000
0010
0010
0100
,  // measure 45
0100
1000
1000
0001
,  // measure 46
0001
2000
0000
0000
,  // measure 47
3000
0100
0100
0010
,  // measure 48
0010
0002
0000
0000
,  // measure 49
0003
1000
1000
0001
,  // measure 50
0001
2000
0000
0000
,  // measure 51
3000
1000
1000
0002
,  // measure 52
0000
0000
0003
1000
,  // measure 53
1000
0001
0001
0100
,  // measure 54
0100
0010
0010
1000
,  // measure 55
1000
0010
0010
0100
,  // measure 56
0100
0001
0001
1000
,  // measure 57
1000
0001
0001
0100
,  // measure 58
0100
0010
0010
1000
,  // measure 59
0001
0100
0010
2000
,  // measure 60
0000
0000
0000
0000
,  // measure 61
0000
3001
1000
0001
,  // measure 62
1000
0001
0100
0010
,  // measure 63
0100
0010
1000
0010
,  // measure 64
1000
0010
0100
0001
,  // measure 65
0100
0001
1000
0100
,  // measure 66
1000
0100
0010
0001
,  // measure 67
0010
0000
0001
0000
1000
0000
0000
0001
,  // measure 68
0000
0000
1000
0000
0000
0001
0000
0000
,  // measure 69
0100
0010
0001
1000
,  // measure 70
0001
1000
0010
0100
,  // measure 71
0010
0100
0001
0100
,  // measure 72
0001
0100
0010
1000
,  // measure 73
0010
1000
0001
0010
,  // measure 74
0001
0010
0100
1000
,  // measure 75
0100
0000
1000
0000
0001
0000
0000
1000
,  // measure 76
0000
0000
0001
0000
0000
1000
0000
0000
,  // measure 77
0001
0100
0110
0000
,  // measure 78
0110
0000
0002
0000
,  // measure 79
0000
0000
0000
0003
;
