#TITLE:MOONLIGHT SHADOW;
#SUBTITLE:(2007 Cosmic Gate Remix);
#ARTIST:MISSING HEART;
#TITLETRANSLIT:;
#SUBTITLETRANSLIT:;
#ARTISTTRANSLIT:;
#GENRE:Trance;
#CREDIT:;
#BANNER:[ROUND C] - MOONLIGHT SHADOW (2007 Cosmic Gate Remix).png;
#BACKGROUND:[ROUND C] - MOONLIGHT SHADOW (2007 Cosmic Gate Remix)-bg.png;
#LYRICSPATH:;
#CDTITLE:cdtitle.png;
#MUSIC:[ROUND C] - MOONLIGHT SHADOW (2007 Cosmic Gate Remix).ogg;
#OFFSET:-0.010000;
#SAMPLESTART:74.046463;
#SAMPLELENGTH:13.236816;
#SELECTABLE:YES;
#BPMS:0.000000=72.525002
,20.000000=145.050003
;
#STOPS:51.500000=1.655000,
148.000000=2.896000
;
#BGCHANGES:;
#KEYSOUNDS:;
#ATTACKS:;

//---------------dance-single - ----------------
#NOTES:
     dance-single:
     :
     Hard:
     8:
     0.469757,0.537361,0.015548,0.816244,0.132154,423.000000,421.000000,2.000000,105.000000,0.000000,0.000000,0.469757,0.537361,0.015548,0.816244,0.132154,423.000000,421.000000,2.000000,105.000000,0.000000,0.000000:
0000
0000
0000
0000
,
0000
0000
0000
0000
,
0000
0000
0000
0000
0000
0000
0000
0000
0000
0000
0000
0000
0000
0000
0000
1000
,
0001
0000
0001
0000
0010
0001
0100
0000
0020
0000
0000
2030
0000
3000
0000
0000
,
1000
0100
0010
0002
0000
0003
1000
0010
0200
0000
0301
0000
0010
0100
0000
0000
,
1000
0000
0010
1000
0100
0010
0001
0000
,
0010
0001
0100
0010
2000
0000
3001
0000
,
0020
0000
0031
0100
0020
0000
1030
0100
,
0010
0001
0000
2000
0000
3001
0100
0010
,
1000
0000
0010
0100
0001
1000
0100
0010
,
0001
0100
0010
1000
0002
0000
0013
0001
,
0100
0010
1000
0000
0001
0100
1000
0000
,
0200
0000
0301
0000
1000
0100
1000
0010
,
1002
0000
0000
0000
0023
0032
0203
0320
,
2030
0000
3000
2000
0000
0000
0000
0000
,
3200
0000
0320
0032
0000
0000
2003
3020
,
0032
0023
2030
3200
0320
0230
2300
3002
,
0203
0000
0000
0000
0302
0203
0320
2030
,
3200
0000
0300
0200
0000
0000
0000
0000
,
0320
0000
0032
0203
0000
0000
0302
0023
,
2030
3020
0032
0203
0320
2030
3200
2300
,
3020
0000
2030
0000
3200
0000
0302
0203
,
2300
0000
3020
0230
0000
0000
0000
0000
,
0302
0000
0000
2003
3200
0000
0000
2300
,
3002
0000
0203
0320
0000
0000
2030
3002
,
0023
0000
0032
0000
0203
0000
2300
3200
,
0302
2003
3200
0302
0000
0000
0203
0320
,
0032
0000
0203
0000
0320
2030
3002
0023
,
0000
0000
0000
0000
0000
0000
0130
0010
,
0001
1000
0000
0001
0000
0000
1000
0000
0001
0000
0000
0000
1000
0000
0001
0000
,
0100
0010
0000
0100
0000
0000
0010
0000
0100
0000
0000
0000
0010
0000
1000
0000
,
0001
0010
0000
0001
0000
0000
0010
0000
0001
0000
0000
0000
0010
0000
0001
0000
,
1000
0100
0000
1000
0000
0000
0100
0000
1000
0000
0000
0000
0100
0000
1000
0000
,
0001
0000
0001
0100
0000
0100
0010
0000
1000
0010
0100
0010
,
1000
0000
1000
0100
0000
0100
0010
0000
0001
0010
0100
0010
,
0001
0000
1000
0010
0000
0100
0001
0000
1000
0100
0010
0001
,
1000
0000
0001
0100
0010
1000
0001
0000
1000
0100
0000
0000
,
1001
0000
1000
0001
1000
0001
1000
0010
,
0001
0010
1000
0100
1000
0100
0010
0100
,
0010
0100
1000
0010
0100
0001
0010
0001
,
1000
0010
0001
0010
0001
0010
1000
0100
,
0010
0001
1000
0010
1000
0010
1000
0100
,
0001
0100
0010
0001
0010
0001
0100
0001
,
0100
0001
0010
0100
0010
0001
0100
0010
,
1000
0001
0100
1000
0100
1000
0100
0001
,
1000
0100
1000
0010
0001
0010
1000
0100
,
0001
0100
1000
0010
0100
0001
1000
0001
,
1000
0001
0010
0001
0010
0100
1000
0001
,
0100
0010
1000
0001
0010
0001
1000
0001
,
0100
0010
1000
0100
0001
0100
1000
0010
,
0001
0010
1000
0100
0010
0001
0100
1000
,
0100
0001
1000
0100
0010
0100
0001
0100
,
0010
0001
0100
0001
0100
0001
1000
0010
,
0100
0001
1000
0000
1000
0000
0100
0010
,
0001
0100
0020
0000
0130
0002
0000
1003
,
0001
0000
1000
0100
0010
0001
0000
0010
,
0001
0100
2000
0000
3100
0000
0001
0010
,
0100
0010
0001
0000
0100
0001
1000
0100
,
0010
0001
2000
0000
3010
0200
0000
0310
,
1000
0000
0001
0010
0100
1000
0000
0100
,
1000
0010
0002
0000
0013
0000
1000
0100
,
0010
0001
0020
0000
2030
0000
3010
0001
,
0100
0010
1000
0100
0010
0002
0000
0000
,
0003
0000
2000
0000
0000
3010
0200
0000
,
0301
1000
0100
0010
0000
0002
0000
0003
,
0100
0001
0020
0000
2030
0000
3020
0000
,
0031
0200
0000
0300
0020
0000
2030
0000
,
3001
0100
0010
0100
0002
0000
1003
0100
,
0020
0002
0000
0000
,
0000
0033
0000
0000
0000
0000
0000
0000
;

//---------------dance-single - ----------------
#NOTES:
     dance-single:
     :
     Medium:
     5:
     0.323166,0.376833,0.015548,0.528615,0.007774,291.000000,289.000000,2.000000,68.000000,0.000000,0.000000,0.323166,0.376833,0.015548,0.528615,0.007774,291.000000,289.000000,2.000000,68.000000,0.000000,0.000000:
0000
0000
0000
0000
,
0000
0000
0000
0000
,
0000
0000
0000
0000
,
1000
0000
1000
0000
0010
0000
0100
0000
0002
0000
0000
2000
0000
0000
3003
0000
,
0002
0000
0000
0023
0000
0000
0130
0000
1000
0000
1000
0000
0001
0000
0000
0000
,
1000
0010
1000
0100
,
0010
0000
0001
2000
0000
0000
3001
0000
,
0200
0000
0000
0310
2000
0000
3001
0000
,
1000
0100
0000
0020
0000
0000
0031
0000
,
1000
0010
1000
0100
,
0010
0000
0001
2000
0000
0000
3001
0000
,
0010
0001
0010
0000
0100
1000
0100
0000
,
0020
0001
0130
1000
,
1002
0000
0023
0032
,
0203
0000
0000
0020
0000
0000
0330
0000
,
0020
0000
0000
2030
0000
0000
3200
0000
,
0302
0203
2300
3020
,
2030
0000
3020
2030
,
3200
0000
0000
0020
0000
0000
0330
0000
,
0020
0000
0000
0032
0000
0000
0203
0000
,
2300
3200
0302
0023
,
0032
0000
0203
0000
0320
0000
1030
0001
,
2000
0000
3100
0020
0000
0000
0000
0000
,
0032
0000
0000
1003
0020
0000
0000
1030
,
0002
0000
1003
0200
0000
0000
1300
0001
,
2000
3020
0230
0302
,
0023
0000
0130
2000
0000
0000
3001
1000
,
0002
0000
0203
0000
0320
0000
1030
0200
,
0000
0000
0000
0310
,
0001
0000
0001
0000
0001
0000
1000
0001
,
1000
0000
1000
0000
1000
0000
0010
0100
,
0001
0000
0001
0000
0001
0000
0010
0100
,
1000
0000
1000
0000
1000
0000
0010
0100
,
0001
0100
0010
1000
,
0001
0010
0100
1000
,
0010
0010
0100
0100
,
0010
1000
0100
0010
,
1001
0000
1000
0000
1000
0000
1000
0010
,
0100
0001
1000
0000
1000
0000
0001
0000
,
0001
0010
0001
0100
,
0010
1000
0001
0000
0001
0000
0001
0010
,
0100
1000
0001
0000
0001
0000
0001
0010
,
0100
1000
0001
0000
0001
0000
1000
0000
,
1000
0010
1000
0100
,
0010
0001
1000
0000
1000
0000
1000
0010
,
0100
0001
1000
0000
0100
0000
0010
0000
,
0100
1000
0001
0000
0100
0001
1000
0000
,
1000
0000
0010
0000
0010
1000
0100
0000
,
0010
0000
0001
0000
0010
0001
0100
0000
,
0010
1000
0001
0000
0100
0000
0010
0000
,
0100
0001
1000
0001
1000
0100
0010
0000
,
0100
0010
0001
0000
0100
0000
0010
1000
,
0100
0000
0010
0000
0010
0000
0001
0010
,
0100
1000
0001
0000
1000
0000
0010
0000
,
0100
0000
0002
0000
0000
2003
0000
0000
,
3100
0000
0010
0000
0100
2000
0000
0000
,
3001
0100
0002
0000
0103
0000
0010
1000
,
0000
1000
0001
0000
0010
0000
0001
0000
,
0100
0000
0020
0000
0000
2030
0000
0000
,
3010
0000
1000
0000
0100
0020
0000
0000
,
0031
1000
0002
0000
0103
0000
0010
1000
,
0000
0001
0010
0000
0001
0000
0100
0000
,
0010
0000
1000
0000
0001
0020
0000
0000
,
0030
0000
0002
0000
0000
0103
0020
0000
,
1030
0000
0001
0010
0000
0002
0000
0003
,
0100
0010
1000
0100
,
0010
0002
0000
0000
1003
0000
0010
0000
,
1000
0000
0100
0010
0100
0000
1000
0001
,
2000
0020
0000
0000
,
0000
3030
0000
0000
;

//---------------dance-single - ----------------
#NOTES:
     dance-single:
     :
     Easy:
     3:
     0.213223,0.242250,0.007774,0.202118,0.000000,192.000000,191.000000,1.000000,26.000000,0.000000,0.000000,0.213223,0.242250,0.007774,0.202118,0.000000,192.000000,191.000000,1.000000,26.000000,0.000000,0.000000:
0000
0000
0000
0000
,
0000
0000
0000
0000
,
0000
0000
0000
0000
,
1000
0000
0010
0000
0200
0000
0000
0300
,
0001
0010
0100
1000
,
0001
0000
0010
0000
,
0001
0100
0020
0030
,
1000
0000
0001
0000
,
1000
0100
0010
0001
,
1000
0000
0010
0000
,
0100
0010
2000
3000
,
0001
0010
0100
1000
,
0002
0000
1003
0000
,
1002
0000
0013
0001
,
0200
0000
0000
0300
0010
0000
0000
0000
,
0020
0000
0000
0030
0100
0000
0001
0000
,
1000
0001
1000
0001
,
2000
0000
3010
1000
,
0200
0000
0000
0300
0010
0000
0000
0000
,
0020
0000
0000
0030
0100
0000
1000
0000
,
0001
1000
0001
1000
,
0020
0000
2030
0000
,
3010
1000
0200
0000
,
0320
0000
0032
0000
,
1003
1000
0002
0000
,
0023
0000
0032
0000
,
0013
0001
0200
0000
,
0310
1000
0001
0010
,
0200
0000
0000
0300
,
1000
0000
1000
0000
,
0001
0000
0001
0000
,
0100
0000
0100
0000
,
0010
0000
0010
0000
,
1000
1000
0001
0001
,
1000
1000
0001
0001
,
0010
0000
0100
0000
,
1000
0001
0100
0010
,
1000
0001
0000
0010
,
0001
0100
0000
0100
,
0000
0001
0100
0010
,
1000
0001
0000
0010
,
0100
1000
0000
0010
,
1000
0100
0000
0100
,
0000
1000
0100
0010
,
0001
1000
0000
0010
,
0100
0001
0010
0001
,
1000
0010
1000
0001
,
0000
1000
0100
0010
,
0100
1000
0001
0100
,
0000
0010
1000
0010
,
0100
0001
1000
0100
,
0000
0010
0100
0010
,
0001
0100
0000
0010
,
0100
0001
0000
1000
,
0100
0020
0000
0130
,
0000
0010
0000
0001
,
0000
1000
0010
0100
,
0001
1000
0000
0001
,
0100
0020
0000
1030
,
0000
0001
0000
0010
,
0000
0001
0010
0100
,
1000
0001
0000
0100
,
0000
0010
0100
0002
,
0003
0010
0000
0100
,
0000
0010
0001
1000
,
0010
0100
0000
0001
,
0010
0002
0000
1003
,
0000
0010
0100
0001
,
2000
0200
0000
0000
,
0000
3300
0000
0000
;

//---------------dance-single - ----------------
#NOTES:
     dance-single:
     :
     Beginner:
     1:
     0.092174,0.161500,0.015548,0.007774,0.000000,83.000000,81.000000,2.000000,1.000000,0.000000,0.000000,0.092174,0.161500,0.015548,0.007774,0.000000,83.000000,81.000000,2.000000,1.000000,0.000000,0.000000:
// measure 0
0000
0000
0000
0000
,  // measure 1
0000
0000
0000
0000
,  // measure 2
0000
0000
0000
0000
,  // measure 3
1000
0000
0100
0000
,  // measure 4
0010
0000
0001
0000
,  // measure 5
1000
0000
0000
0000
,  // measure 6
0010
0000
0000
0000
,  // measure 7
0100
0000
0000
0000
,  // measure 8
0001
0000
0000
0000
,  // measure 9
1000
0000
0000
0000
,  // measure 10
0100
0000
0000
0000
,  // measure 11
0010
0000
0000
0000
,  // measure 12
0001
0000
0000
0000
,  // measure 13
1001
0000
0000
0000
,  // measure 14
1000
0000
0000
0000
,  // measure 15
0001
0000
0000
0000
,  // measure 16
0001
0000
0000
0000
,  // measure 17
0010
0000
0000
0000
,  // measure 18
0010
0000
0000
0000
,  // measure 19
0100
0000
0000
0000
,  // measure 20
0100
0000
0000
0000
,  // measure 21
1000
0000
0000
0000
,  // measure 22
0010
0000
0000
0000
,  // measure 23
1000
0000
0000
0000
,  // measure 24
0100
0000
0000
0000
,  // measure 25
0010
0000
0000
0000
,  // measure 26
0001
0000
0000
0000
,  // measure 27
0100
0000
0000
0000
,  // measure 28
0001
0000
0000
0000
,  // measure 29
1000
0000
0000
0000
,  // measure 30
0001
0000
0000
0000
,  // measure 31
1000
0000
0000
0000
,  // measure 32
0001
0000
0000
0000
,  // measure 33
1000
0000
0001
0000
,  // measure 34
1000
0000
0001
0000
,  // measure 35
0010
0000
0010
0000
,  // measure 36
0100
0000
0100
0000
,  // measure 37
1001
1000
0000
0010
,  // measure 38
0000
1000
0000
0000
,  // measure 39
0000
0001
0000
0010
,  // measure 40
0000
0001
0000
0000
,  // measure 41
0000
1000
0000
0100
,  // measure 42
0000
1000
0000
0000
,  // measure 43
0000
0001
0000
0100
,  // measure 44
0000
0001
0000
0000
,  // measure 45
0000
1000
0000
0010
,  // measure 46
0000
0100
0000
0000
,  // measure 47
0000
0010
0000
0100
,  // measure 48
0000
0001
0000
0000
,  // measure 49
0000
0001
0000
0010
,  // measure 50
0000
0100
0000
0000
,  // measure 51
0000
0010
0000
0100
,  // measure 52
0000
1000
0000
0000
,  // measure 53
0000
0001
0000
0000
,  // measure 54
0000
1000
0000
0000
,  // measure 55
0000
0010
0000
0000
,  // measure 56
0000
0100
0000
0000
,  // measure 57
0000
0001
0000
0000
,  // measure 58
0000
1000
0000
0000
,  // measure 59
0000
0100
0000
0000
,  // measure 60
0000
0010
0000
0000
,  // measure 61
0000
0001
0000
0000
,  // measure 62
0000
0100
0000
0000
,  // measure 63
0000
0010
0000
0000
,  // measure 64
0000
1000
0000
0000
,  // measure 65
0000
0001
0000
0000
,  // measure 66
0000
0010
0000
0000
,  // measure 67
0000
0100
0000
0000
,  // measure 68
0000
2000
0000
0000
,  // measure 69
0000
3000
0000
0000
;
