#VERSION:0.82;
#TITLE:Last Jihard;
#SUBTITLE:;
#ARTIST:Jerico's Law;
#TITLETRANSLIT:;
#SUBTITLETRANSLIT:;
#ARTISTTRANSLIT:;
#GENRE:;
#ORIGIN:;
#CREDIT:;
#BANNER:banner.png;
#BACKGROUND:bg.png;
#PREVIEWVID:;
#JACKET:;
#CDIMAGE:;
#DISCIMAGE:;
#LYRICSPATH:;
#CDTITLE:;
#MUSIC:[ROUND C] - Last Jihard.ogg;
#OFFSET:0.021000;
#SAMPLESTART:26.171564;
#SAMPLELENGTH:11.639185;
#SELECTABLE:YES;
#DISPLAYBPM:82.000000:330.000000;
#BPMS:0.000=164.960,
32.000=82.480,
47.500=9.703,
48.000=329.920,
113.000=164.960,
145.000=329.920,
273.000=164.960,
305.000=329.920,
433.000=82.480;
#STOPS:433.000=2.182;
#DELAYS:;
#WARPS:;
#TIMESIGNATURES:0.000=4=4;
#TICKCOUNTS:0.000=4;
#COMBOS:0.000=1;
#SPEEDS:0.000=1.000=0.000=0;
#SCROLLS:0.000=1.000;
#FAKES:;
#LABELS:0.000=Song Start;
#BGCHANGES:;
#KEYSOUNDS:;
#ATTACKS:
;

//---------------dance-single - ----------------
#NOTEDATA:;
#CHARTNAME:;
#STEPSTYPE:dance-single;
#DESCRIPTION:;
#CHARTSTYLE:;
#DIFFICULTY:Beginner;
#METER:1;
#RADARVALUES:0.133569,0.143555,0.008821,0.000000,0.000000,105.000000,1.000000,0.000000,0.000000,0.000000,0.000000,0.000000,0.000000,0.133569,0.143555,0.008821,0.000000,0.000000,105.000000,1.000000,0.000000,0.000000,0.000000,0.000000,0.000000,0.000000;
#CREDIT:;
#NOTES:
0000
0000
0000
0000
,
0000
0000
0000
0000
,
0000
0000
0000
0000
,
0000
0000
0000
0000
,
1000
0000
0000
0000
,
0010
0000
0000
0000
,
0100
0000
0000
0000
,
0000
0000
0000
0000
,
0001
0000
0000
0000
,
1000
0000
0000
0000
,
0100
0000
0000
0000
,
0010
0000
0000
0000
,
0000
0001
0000
0000
,
0000
0010
0000
0000
,
0000
0100
0000
0000
,
0000
1000
0000
0000
,
0000
0001
0000
0000
,
0000
0100
0000
0000
,
0000
0010
0000
0000
,
0000
1000
0000
0000
,
0000
0100
0000
0000
,
0000
0100
0000
0000
,
0000
0010
0000
0000
,
0000
0010
0000
0000
,
0000
0001
0000
0000
,
0000
1000
0000
0000
,
0000
0010
0000
0000
,
0000
0100
0000
0000
,
0000
0001
0000
0000
,
0000
1000
0000
0000
,
0000
0001
0000
0000
,
0000
1000
0000
0000
,
0000
0010
0000
0000
,
0000
0100
0000
0000
,
0000
0010
0000
0000
,
0000
0100
0000
0000
,
0000
0001
0000
0000
,
0000
0010
0000
0000
,
0000
0100
0000
0000
,
0000
1000
0000
0000
,
0000
0001
0000
0000
,
0000
0010
0000
0000
,
0000
0100
0000
0000
,
0000
1000
0000
0000
,
0000
1000
0000
0000
,
0000
0010
0000
0000
,
0000
0100
0000
0000
,
0000
0001
0000
0000
,
0000
1000
0000
0000
,
0000
0010
0000
0000
,
0000
0100
0000
0000
,
0000
0001
0000
0000
,
0000
1000
0000
0000
,
0000
1000
0000
0000
,
0000
1000
0000
0000
,
0000
0001
0000
0001
,
0000
0001
0000
0000
,
0000
0001
0000
0000
,
0000
0001
0000
0000
,
0000
0100
0000
0100
,
0000
0100
0000
0000
,
0000
0100
0000
0000
,
0000
0100
0000
0000
,
0000
0010
0000
0010
,
0000
0010
0000
0000
,
0000
0010
0000
0000
,
0000
0010
0000
0000
,
0000
1000
0000
0000
,
0000
0001
0000
0000
,
0000
0000
0000
0000
,
0000
0000
0000
0000
,
0000
0000
0000
0000
,
0000
0001
0000
0000
,
0000
1000
0000
0000
,
0000
0100
0000
0000
,
0000
0010
0000
0000
,
0000
0001
0000
0000
,
0000
0001
0000
0000
,
0000
1000
0000
0000
,
0000
1000
0000
0000
,
0000
0010
0000
0000
,
0000
0010
0000
0000
,
0000
0100
0000
0000
,
0000
0100
0000
0000
,
0000
0001
0000
0000
,
0000
0010
0000
0000
,
0000
0100
0000
0000
,
0000
1000
0000
0000
,
0000
0001
0000
0000
,
0000
0010
0000
0000
,
0000
0100
0000
0000
,
0000
1000
0000
0000
,
0000
0001
0000
0000
,
0000
0001
0000
0000
,
0000
1000
0000
0000
,
0000
1000
0000
0000
,
0000
0001
0000
0000
,
0000
0001
0000
0000
,
0000
1000
0000
0000
,
0000
1000
0000
0000
,
0000
0001
0000
0000
,
0000
0100
0000
0000
,
0000
0010
0000
0000
,
0000
1000
0000
0000
,
0000
0001
0000
0000
,
0000
0100
0000
0000
,
0000
0010
0000
0000
,
0000
1000
0000
0000
,
0000
0001
0110
0000
;

//---------------dance-single - ----------------
#NOTEDATA:;
#CHARTNAME:;
#STEPSTYPE:dance-single;
#DESCRIPTION:;
#CHARTSTYLE:;
#DIFFICULTY:Easy;
#METER:4;
#RADARVALUES:0.272178,0.334962,0.097027,0.017641,0.000000,203.000000,11.000000,2.000000,0.000000,0.000000,0.000000,0.000000,0.000000,0.272178,0.334962,0.097027,0.017641,0.000000,203.000000,11.000000,2.000000,0.000000,0.000000,0.000000,0.000000,0.000000;
#CREDIT:;
#NOTES:
// measure 0
0000
0000
0000
0000
,  // measure 1
0000
0000
0000
0000
,  // measure 2
0000
0000
0000
0000
,  // measure 3
0000
0000
0000
0000
,  // measure 4
1000
0000
0000
0000
,  // measure 5
0001
0000
0000
0000
,  // measure 6
0220
0000
0000
0000
,  // measure 7
0000
0000
0000
0330
,  // measure 8
0010
0000
1000
0000
,  // measure 9
0010
0000
1000
0000
,  // measure 10
0001
0000
0010
0000
,  // measure 11
0001
0000
0010
0100
,  // measure 12
0000
1000
0000
0001
,  // measure 13
0000
0100
0000
0010
,  // measure 14
0000
1000
0000
0100
,  // measure 15
0000
0010
0000
0010
,  // measure 16
0000
0001
0000
1000
,  // measure 17
0000
0010
0000
0100
,  // measure 18
0000
0001
0000
1000
,  // measure 19
0000
0100
0000
0100
,  // measure 20
0000
0010
0000
0001
,  // measure 21
0000
1000
0000
0010
,  // measure 22
0000
0100
0000
0001
,  // measure 23
0000
1000
0000
1000
,  // measure 24
0000
0001
0000
0001
,  // measure 25
0000
0010
0000
0010
,  // measure 26
0000
0100
0000
1000
,  // measure 27
0000
0001
0000
1000
,  // measure 28
0000
0010
0100
0000
,  // measure 29
0100
0001
1000
0000
,  // measure 30
1000
0100
0010
0000
,  // measure 31
0010
0001
1000
0010
,  // measure 32
0100
0001
1000
0000
,  // measure 33
1000
0100
0010
0000
,  // measure 34
0010
0001
0100
0000
,  // measure 35
0100
0010
1000
0100
,  // measure 36
0010
0001
0000
1000
,  // measure 37
0000
0010
0000
0100
,  // measure 38
0000
0001
0000
1100
,  // measure 39
0000
0000
1000
0001
,  // measure 40
0000
0001
0000
1000
,  // measure 41
0000
0100
0000
0010
,  // measure 42
0000
0001
0000
1010
,  // measure 43
0000
0000
0001
1000
,  // measure 44
0000
0001
0000
0100
,  // measure 45
0000
0010
0000
0100
,  // measure 46
0000
0001
0000
0011
,  // measure 47
0000
0000
1000
0010
,  // measure 48
0000
0100
0000
0001
,  // measure 49
0000
1000
0000
0100
,  // measure 50
0000
0010
0000
1001
,  // measure 51
0000
0000
1000
0001
,  // measure 52
0000
0100
0000
0000
,  // measure 53
0100
0000
0000
0010
,  // measure 54
0000
0000
1000
0000
,  // measure 55
0000
0001
0000
0010
,  // measure 56
0000
0100
0000
0000
,  // measure 57
1000
0000
0000
0010
,  // measure 58
0000
0000
0100
0000
,  // measure 59
0000
0001
0000
1000
,  // measure 60
0000
0100
0000
0000
,  // measure 61
0010
0000
0000
0001
,  // measure 62
0000
0000
1000
0000
,  // measure 63
0000
0010
0000
0010
,  // measure 64
0000
0100
0000
0000
,  // measure 65
0001
0000
0000
1000
,  // measure 66
0000
0000
0100
0000
,  // measure 67
0000
0010
0000
0010
,  // measure 68
0000
0001
0000
0000
,  // measure 69
0000
1000
0000
0000
,  // measure 70
0000
0010
0000
0000
,  // measure 71
0000
0100
0000
0000
,  // measure 72
0000
0001
0000
0000
,  // measure 73
1000
0100
0000
0000
,  // measure 74
0010
0001
0000
0000
,  // measure 75
0100
0010
0000
0000
,  // measure 76
0000
1000
0000
0001
,  // measure 77
0000
1000
0000
0001
,  // measure 78
0000
0100
0000
0010
,  // measure 79
0000
0100
0000
0010
,  // measure 80
0000
1000
0000
0100
,  // measure 81
0000
1000
0000
0100
,  // measure 82
0000
0010
0000
0001
,  // measure 83
0000
0010
0000
0001
,  // measure 84
0000
1000
0000
1000
,  // measure 85
0000
0001
0000
0001
,  // measure 86
0000
0100
0000
0100
,  // measure 87
0000
0010
0000
0010
,  // measure 88
0000
1000
0000
0100
,  // measure 89
0000
0010
0000
0001
,  // measure 90
0000
1000
0000
0010
,  // measure 91
0000
0100
0000
0001
,  // measure 92
0000
1000
0000
1000
,  // measure 93
0000
1000
0000
0101
,  // measure 94
0000
1000
0000
0100
,  // measure 95
0000
0010
0000
0011
,  // measure 96
0000
0001
0000
0001
,  // measure 97
0000
0001
0000
1100
,  // measure 98
0000
0001
0000
0100
,  // measure 99
0000
0010
0000
1100
,  // measure 100
0000
0001
0000
1000
,  // measure 101
0000
0001
0000
0100
,  // measure 102
0000
0010
0000
1000
,  // measure 103
0000
0100
0000
0110
,  // measure 104
0000
0001
0000
0010
,  // measure 105
0000
0100
0000
1000
,  // measure 106
0000
0001
0000
0010
,  // measure 107
0000
0100
0000
1001
,  // measure 108
0000
1000
0010
0000
;

//---------------dance-single - ----------------
#NOTEDATA:;
#CHARTNAME:;
#STEPSTYPE:dance-single;
#DESCRIPTION:;
#CHARTSTYLE:;
#DIFFICULTY:Medium;
#METER:7;
#RADARVALUES:0.590980,0.622073,0.176412,0.167591,0.092616,430.000000,20.000000,19.000000,0.000000,0.000000,0.000000,0.000000,0.000000,0.590980,0.622073,0.176412,0.167591,0.092616,430.000000,20.000000,19.000000,0.000000,0.000000,0.000000,0.000000,0.000000;
#CREDIT:;
#NOTES:
// measure 0
0000
0000
0000
0000
,  // measure 1
0000
0000
0000
0000
,  // measure 2
0000
0000
0000
0000
,  // measure 3
0000
0000
0000
0000
,  // measure 4
1000
0000
0000
0010
0000
0000
0100
0000
,  // measure 5
0001
0001
1000
1000
,  // measure 6
0220
0000
0000
0000
,  // measure 7
0000
0000
0000
0330
,  // measure 8
1000
0000
0000
0000
0000
0001
0000
0000
0001
0000
0000
0200
0000
0000
0300
0000
,  // measure 9
0010
0000
0000
0000
0000
1000
0000
0000
1000
0000
0000
0200
0000
0000
0300
0000
,  // measure 10
0011
0000
0000
0000
0000
1000
0000
0000
0001
0000
0000
0200
0000
0000
0300
0000
,  // measure 11
0010
0000
0000
0000
0000
1000
0000
0000
0001
0000
0000
0010
0000
0000
0000
0000
,  // measure 12
0000
0001
1000
0001
,  // measure 13
0100
0010
0100
0001
,  // measure 14
0010
0100
1000
0010
,  // measure 15
0100
0001
0000
1001
,  // measure 16
0000
1000
0100
1000
,  // measure 17
0001
0100
0001
1000
,  // measure 18
0100
0010
0100
1000
,  // measure 19
0010
0100
0000
0101
,  // measure 20
0000
0001
0100
0001
,  // measure 21
1000
0100
1000
0010
,  // measure 22
0100
0010
1000
0100
,  // measure 23
0010
0001
0000
1100
,  // measure 24
0000
0001
0100
0001
,  // measure 25
0100
0010
0100
0001
,  // measure 26
0010
0100
1000
0010
,  // measure 27
0100
0010
0000
1001
,  // measure 28
0000
2000
0100
0001
,  // measure 29
0100
3020
0001
0000
,  // measure 30
0001
2030
0100
0010
,  // measure 31
0001
3200
0001
0000
,  // measure 32
1000
1300
0010
0100
,  // measure 33
0001
0010
0110
0000
,  // measure 34
1001
0001
0010
0100
,  // measure 35
1000
0010
0110
0000
,  // measure 36
1001
0001
0100
0001
,  // measure 37
1000
0100
0010
0001
,  // measure 38
0100
1000
0100
0001
,  // measure 39
0010
0100
1000
0001
,  // measure 40
0000
1000
0010
0100
,  // measure 41
0001
0010
1000
0010
,  // measure 42
0001
0100
0010
1000
,  // measure 43
0100
0010
0001
1000
,  // measure 44
0000
0001
0100
0010
,  // measure 45
0100
0001
0010
1000
,  // measure 46
0010
0001
0100
0010
,  // measure 47
1000
0100
0010
0001
,  // measure 48
0000
1000
0010
1000
,  // measure 49
0010
0100
0001
0100
,  // measure 50
0001
0010
1000
0010
,  // measure 51
0001
0100
0010
1000
,  // measure 52
0100
0000
0010
0000
0000
0000
0001
0010
,  // measure 53
0001
0000
0000
0000
1000
0010
1000
0000
,  // measure 54
0000
0000
0001
0100
0001
0000
0000
0000
,  // measure 55
1000
0100
1000
0000
0000
0000
0011
0000
,  // measure 56
0000
0000
1010
0000
0000
0000
0001
0100
,  // measure 57
0001
0000
0000
0000
1000
0100
1000
0000
,  // measure 58
0000
0000
0001
0010
0001
0000
0000
0000
,  // measure 59
1000
0010
1000
0000
0000
0000
0101
0000
,  // measure 60
0000
0000
1100
0000
0000
0000
0001
0010
,  // measure 61
0100
0000
0000
0000
0010
0100
1000
0000
,  // measure 62
0000
0000
0010
0100
0001
0000
0000
0000
,  // measure 63
1000
0010
1000
0000
0000
0000
0101
0000
,  // measure 64
0000
0000
0011
0000
0000
0000
1000
0010
,  // measure 65
1000
0000
0000
0000
0001
0100
0010
0000
,  // measure 66
0000
0000
1000
0100
0010
0000
0000
0000
,  // measure 67
0001
0010
0001
0000
0000
0000
1010
0000
,  // measure 68
0000
0000
0000
0000
0002
0000
0100
0000
0000
0100
0000
0000
0100
0000
0000
0100
,  // measure 69
0000
0000
0023
0000
0000
0000
0100
0000
0000
0100
0000
0000
0100
0000
0000
0100
,  // measure 70
0000
0000
0032
0000
0000
0000
1000
0000
0000
1000
0000
0000
0010
0000
0000
1000
,  // measure 71
0000
0000
0203
0000
0000
0000
0010
0000
0000
0001
0000
0000
0010
0000
0000
0000
,  // measure 72
0001
0000
0300
0000
1000
0000
0100
0000
0010
0000
0001
0000
1000
0000
0000
0001
,  // measure 73
0000
0000
1000
0000
0010
0000
0100
0000
0000
0001
0000
0000
0100
0000
0000
0010
,  // measure 74
0000
0000
1000
0000
0001
0000
0010
0000
0000
0100
0000
0000
1000
0000
0000
0010
,  // measure 75
0000
0000
0100
0000
0001
0000
0010
0000
0000
0010
0000
0000
0010
0000
0000
0000
,  // measure 76
1100
0000
0001
0000
0100
0001
0100
0000
,  // measure 77
0010
1000
0010
0000
0100
0001
0100
0000
,  // measure 78
0010
0000
1000
0000
0100
1000
0100
0000
,  // measure 79
0010
0001
0010
0000
0100
1000
0100
0000
,  // measure 80
0010
0000
0001
0000
0100
0001
0100
0000
,  // measure 81
0010
0100
0010
0000
0100
0001
0100
0000
,  // measure 82
0001
0000
0010
0000
0100
1000
0100
0000
,  // measure 83
0010
0100
0010
0000
0100
1000
0100
0000
,  // measure 84
1000
0000
0010
0000
0100
0001
0010
0000
,  // measure 85
0100
0000
1000
0000
0010
0100
0001
0000
,  // measure 86
1000
0000
0001
0000
0010
0100
1000
0000
,  // measure 87
0001
0000
0100
0000
0010
1000
0010
0000
,  // measure 88
0010
0000
0100
0000
0001
0010
0100
0000
,  // measure 89
1000
0000
0010
0000
0100
0001
0100
0000
,  // measure 90
0010
0000
1000
0000
0100
0010
0001
0000
,  // measure 91
0100
0000
0010
1000
0010
1000
0010
0000
,  // measure 92
0100
0002
0010
0010
,  // measure 93
0103
0000
0010
0000
1000
0000
0001
1000
,  // measure 94
0001
2000
0100
0100
,  // measure 95
3010
0000
0100
0000
0001
0000
1000
0100
,  // measure 96
1000
0002
0010
0010
,  // measure 97
0103
0000
0010
0000
1000
0000
0100
0010
,  // measure 98
0001
2000
0010
0010
,  // measure 99
3001
0000
0100
0000
0010
0000
1000
0100
,  // measure 100
0010
0001
0010
0100
,  // measure 101
1000
0010
0100
0000
0001
0000
0010
0100
,  // measure 102
0010
0100
0010
0000
0100
0000
1000
0000
,  // measure 103
0010
0000
0100
0000
0001
0000
0010
0100
,  // measure 104
0010
0100
1000
0000
0010
0000
0100
0000
,  // measure 105
0001
1000
0100
0000
0010
0000
0001
0000
,  // measure 106
0010
0100
1000
0010
1100
0000
0010
0000
,  // measure 107
0100
1001
0000
0020
,  // measure 108
0030
2000
3100
0000
;

//---------------dance-single - ----------------
#NOTEDATA:;
#CHARTNAME:;
#STEPSTYPE:dance-single;
#DESCRIPTION:;
#CHARTSTYLE:;
#DIFFICULTY:Hard;
#METER:10;
#RADARVALUES:0.805195,1.000000,0.361645,0.185233,0.145540,577.000000,41.000000,21.000000,0.000000,0.000000,0.000000,0.000000,0.000000,0.805195,1.000000,0.361645,0.185233,0.145540,577.000000,41.000000,21.000000,0.000000,0.000000,0.000000,0.000000,0.000000;
#CREDIT:;
#NOTES:
// measure 0
0000
0000
0000
0000
,  // measure 1
0000
0000
0000
0000
,  // measure 2
0000
0000
0000
0000
,  // measure 3
0000
0000
0000
0000
,  // measure 4
1010
0000
0000
0011
0000
0000
1000
0000
,  // measure 5
0101
1010
0011
1100
,  // measure 6
2002
0000
0000
3000
,  // measure 7
0200
0000
0000
0003
,  // measure 8
0310
0000
1000
0000
0000
0001
0000
0000
0010
0000
0000
0200
0000
0000
1300
0000
,  // measure 9
0002
0000
1003
0000
0000
0001
0000
0000
0100
0000
0000
0020
0000
0000
1030
0000
,  // measure 10
0011
0000
0200
0000
0000
1000
0000
0000
0001
0000
0000
2300
0000
0000
3010
0000
,  // measure 11
1000
0000
1000
0000
0000
0110
0000
0000
0101
0000
0000
1001
0000
0000
0000
0000
,  // measure 12
0000
1000
0100
0010
,  // measure 13
0001
0100
0001
0000
0100
0000
0010
0000
,  // measure 14
1000
0010
1000
0010
1000
0000
0001
0010
,  // measure 15
0100
1000
0001
0000
0010
0000
1100
0000
,  // measure 16
1000
0001
1000
0110
,  // measure 17
0010
1000
0010
0000
0100
0000
0001
0000
,  // measure 18
1000
0001
1000
0001
1000
0000
0100
0010
,  // measure 19
0001
1000
0010
0000
0100
0000
0101
0000
,  // measure 20
0001
1000
0100
1100
,  // measure 21
0010
0001
1000
0000
0001
0000
0110
0000
,  // measure 22
0010
1000
0100
0010
0001
0000
1000
0010
,  // measure 23
0100
0001
1000
0000
0100
0000
0011
0000
,  // measure 24
0001
1000
0010
0110
,  // measure 25
0100
0001
1000
0000
0100
0000
0110
0000
,  // measure 26
0010
0001
1000
0010
0100
0000
0010
1000
,  // measure 27
0100
0010
0001
0000
1000
0000
1001
0000
,  // measure 28
0100
0000
1000
0002
0000
0010
0000
0100
,  // measure 29
0000
1000
2003
0000
0100
0000
0010
0000
,  // measure 30
3001
0000
1000
0010
0100
0001
0010
0100
,  // measure 31
1000
0010
0200
0000
0001
0000
1000
0000
,  // measure 32
0301
0000
0010
0100
1000
0000
0010
0100
,  // measure 33
0001
1000
0110
0001
,  // measure 34
0110
0000
1000
0100
1000
0001
0100
0010
,  // measure 35
1000
0100
0010
0000
1100
0000
0001
0000
,  // measure 36
0101
0000
1000
0000
0001
0100
0001
0000
,  // measure 37
0001
0010
0001
0000
0001
0100
0001
0000
,  // measure 38
0001
1000
0001
0000
1000
0000
0100
0000
,  // measure 39
0010
0001
1000
0010
,  // measure 40
0100
0000
0001
0000
0010
0001
0010
0000
,  // measure 41
0010
0100
0010
0000
0010
0001
0010
0000
,  // measure 42
0010
0100
0010
0000
0001
0000
0100
0000
,  // measure 43
0010
1000
0100
0010
,  // measure 44
0001
0000
1000
0000
0010
0100
0010
0000
,  // measure 45
0010
1000
0010
0000
0010
0100
0010
0000
,  // measure 46
0010
1000
0010
0000
1000
0000
0100
0000
,  // measure 47
0010
0001
1000
0010
,  // measure 48
0100
0000
0001
0000
1000
0100
1000
0000
,  // measure 49
1000
0001
1000
0000
1000
0100
1000
0000
,  // measure 50
1000
0001
1000
0000
0001
0000
0100
0000
,  // measure 51
0010
0100
0001
0010
,  // measure 52
0100
0000
0110
0000
0010
0001
0010
0000
,  // measure 53
0100
0000
1000
0010
1000
0000
0100
0000
,  // measure 54
0010
0001
0100
0000
0010
0000
0010
0100
,  // measure 55
0001
0000
1000
0000
1000
0010
0100
0000
,  // measure 56
0010
0000
1000
0000
0001
0010
0100
0000
,  // measure 57
1000
0000
0010
0100
0001
0000
1000
0000
,  // measure 58
0100
0010
0001
0000
1000
0000
0010
0100
,  // measure 59
0001
0000
1000
0000
0010
0100
0001
0000
,  // measure 60
1000
0000
0100
0000
0001
0100
1000
0000
,  // measure 61
0010
0000
0100
0001
0010
0000
0100
0000
,  // measure 62
1000
0010
0100
0000
0001
0000
0010
0100
,  // measure 63
0010
0000
0001
0000
0100
0010
0100
0000
,  // measure 64
0010
0000
1000
0000
1000
0100
0010
0000
,  // measure 65
0001
0000
0001
0100
0010
0000
0010
0000
,  // measure 66
1000
0100
0010
0000
0000
0000
2001
0000
,  // measure 67
0000
0000
0000
3001
,  // measure 68
0000
0000
0000
0000
0002
0000
0100
0000
0000
1000
0000
0000
0010
0000
0000
0100
,  // measure 69
0000
0000
0023
0000
0230
0000
1000
0000
0000
0001
0000
0000
0010
0000
0000
1000
,  // measure 70
0000
0000
2300
0000
3020
0000
0001
0000
0000
0100
0000
0000
1000
0000
0000
0001
,  // measure 71
0030
0000
0200
0000
0302
0000
0010
0000
0000
0010
0000
0000
1003
0000
0000
0000
,  // measure 72
1000
0010
0100
0001
1000
0000
0001
0000
0100
0010
0000
1000
0100
0000
0100
0010
,  // measure 73
0000
0010
0001
0000
1000
0000
0010
0000
0100
0001
0000
0100
0010
0000
0100
0001
,  // measure 74
0000
0010
0100
0000
1000
0000
0001
0000
0100
0010
0000
0100
0001
0000
0010
0100
,  // measure 75
0000
1000
0010
0000
0100
0000
0001
0000
0000
0010
0000
0000
0100
0000
0000
1000
,  // measure 76
0001
0100
0010
1000
0001
0000
0000
0000
0010
0000
0100
0000
1000
0000
0000
0000
,  // measure 77
0100
1000
0010
0000
1000
0010
0100
0000
,  // measure 78
0010
0100
0001
0000
0100
0001
1000
0000
,  // measure 79
0100
1000
0001
0000
0100
0001
1000
0000
,  // measure 80
0100
0000
1000
0000
0010
0100
0001
0000
,  // measure 81
0100
0010
0100
0000
0001
0100
0010
0000
,  // measure 82
0010
1000
0100
0000
0010
0001
0010
0000
,  // measure 83
0010
0100
1000
0000
0100
1000
0010
0100
,  // measure 84
0001
1000
0100
0000
0010
0001
1000
0000
,  // measure 85
0001
1000
0010
0000
0100
0001
0010
0000
,  // measure 86
0001
0100
0010
0000
1000
0100
0010
0000
,  // measure 87
0100
1000
0010
0000
0100
0001
0010
0000
,  // measure 88
0100
1000
0010
0000
0100
0001
0100
0000
,  // measure 89
0010
0100
0001
0000
0010
0100
0010
0000
,  // measure 90
0100
1000
0010
0000
0100
0001
0100
0000
,  // measure 91
0010
1000
0100
0010
0001
0100
0010
0100
,  // measure 92
0001
0010
0100
1000
0001
0000
0101
0000
,  // measure 93
0001
0100
0010
1000
0100
0000
1100
0000
,  // measure 94
0100
0010
0001
0100
0010
0000
0110
0000
,  // measure 95
0010
1000
0100
0010
0001
0000
1001
0000
,  // measure 96
0110
0001
0100
0110
,  // measure 97
0010
1000
0100
0010
0001
0000
1001
0000
,  // measure 98
1000
0100
0010
0001
0100
0000
0110
0000
,  // measure 99
0010
1000
0100
1000
0010
0000
0100
0001
,  // measure 100
0100
0010
1000
0001
1000
0000
0011
0000
,  // measure 101
0001
0010
0100
1000
0010
0000
1010
0000
,  // measure 102
1000
0100
0010
0001
0100
0000
0101
0000
,  // measure 103
0001
1000
0100
1000
0010
0000
0110
0000
,  // measure 104
0010
0000
1000
0100
1000
0000
0011
0000
,  // measure 105
0001
0100
0010
0100
0001
0000
0011
0000
,  // measure 106
0010
0100
1000
0010
0100
0000
0101
0000
,  // measure 107
0001
0010
0100
1000
0010
0100
0001
0010
,  // measure 108
0100
0000
0000
0000
0000
0000
2000
0000
0000
0000
0000
0000
0002
3003
0000
0000
0000
0000
0000
0000
0000
0000
0000
0000
0100
0000
0000
0000
0000
0000
0000
0000
0000
0000
0000
0000
0000
0000
0000
0000
0000
0000
0000
0000
0000
0000
0000
0000
;

//---------------dance-single - ----------------
#NOTEDATA:;
#CHARTNAME:;
#STEPSTYPE:dance-single;
#DESCRIPTION:;
#CHARTSTYLE:;
#DIFFICULTY:Challenge;
#METER:11;
#RADARVALUES:0.907261,1.000000,0.361645,0.220515,0.194053,654.000000,41.000000,25.000000,433.000000,0.000000,0.000000,0.000000,0.000000,0.907261,1.000000,0.361645,0.220515,0.194053,654.000000,41.000000,25.000000,433.000000,0.000000,0.000000,0.000000,0.000000;
#CREDIT:;
#NOTES:
// measure 0
0000
0000
0000
0000
,  // measure 1
0000
0000
0000
0000
,  // measure 2
0000
0000
0000
0000
,  // measure 3
0000
0000
0000
0000
,  // measure 4
1000
0100
1000
0001
0100
0010
1000
0100
,  // measure 5
0011
0101
1010
0011
,  // measure 6
2MM2
0000
0000
3000
,  // measure 7
M2M0
0000
0000
0003
,  // measure 8
M32M
0000
1030
0000
00M0
0001
0000
0000
100M
0000
0000
0021
M00M
0000
0130
0000
,  // measure 9
1000
0000
1000
0000
0M00
0001
0000
0000
001M
0000
0000
0210
00M0
0000
1300
0000
,  // measure 10
02M1
0000
03M1
0000
0000
1010
0M0M
0000
MM11
0000
0000
0220
M00M
0330
1001
0000
,  // measure 11
21MM
0000
3MM1
0000
0000
0110
0MM0
0000
0101
0000
0M0M
1001
0000
0000
MMMM
0000
,  // measure 12
MMMM
MMMM
1MMM
0100
1000
0000
0001
0000
,  // measure 13
M100
0010
0100
0000
0001
0000
0110
0000
,  // measure 14
1000
0010
010M
0010
1000
0000
0001
0000
,  // measure 15
1000
0100
0010
0000
00M1
0100
0101
0000
,  // measure 16
0010
0000
1000
0000
0100
0010
M001
0000
,  // measure 17
1000
0010
0100
0000
0010
0000
10M1
0000
,  // measure 18
1000
0100
0010
0100
1000
0000
M001
0000
,  // measure 19
0100
0010
0100
0000
0010
1000
101M
0000
,  // measure 20
1000
0000
0100
0000
0M10
0001
1000
0000
,  // measure 21
0010
0100
0010
0000
100M
0000
0110
0000
,  // measure 22
0001
0010
0100
1000
001M
0000
0100
0000
,  // measure 23
0001
0100
M001
0000
1000
0100
1100
0000
,  // measure 24
00M1
0000
1000
0000
0010
0100
0001
0000
,  // measure 25
10M0
0100
0010
0000
0100
0000
1M01
0000
,  // measure 26
0001
0010
0100
0010
0001
0000
10M0
0000
,  // measure 27
1000
0010
0100
0000
M001
0100
0110
0000
,  // measure 28
0010
1000
001M
0100
M0M1
0010
01M0
2000
,  // measure 29
0M10
0000
0000
0000
310M
0000
0010
0000
M0M1
0000
1000
0000
0M10
0000
1000
0100
,  // measure 30
M01M
0000
0010
0000
02M0
0000
0001
0000
031M
0100
0000
0100
10M0
0000
0010
0000
,  // measure 31
M000
0000
2000
0000
0M10
0000
3010
0000
01MM
0000
0001
0000
M010
0000
0100
1000
,  // measure 32
0MM1
0000
1000
0000
010M
0010
0100
0000
M01M
0000
0001
0000
01M0
0000
0010
0000
,  // measure 33
1MM0
0000
0000
0000
M001
0000
0010
0000
01MM
0000
1000
0000
0M10
0000
0100
0001
,  // measure 34
M1M0
0000
0100
0000
M020
0000
0001
0000
1M3M
0010
0000
0010
M100
0000
0010
0000
,  // measure 35
0MM0
1000
010M
0010
MM01
0001
01M0
0001
,  // measure 36
1MM0
0001
100M
0000
MM1M
0100
0001
0000
,  // measure 37
MM1M
0100
1000
0000
MM1M
0100
0001
0000
,  // measure 38
MM1M
0100
1000
0000
1MMM
0010
0100
0000
,  // measure 39
M1MM
0001
0010
0000
MM1M
0100
2000
0000
,  // measure 40
3M1M
0000
0100
0000
MMM1
0010
0100
0000
,  // measure 41
1MMM
0010
0100
0000
MMM1
0010
0100
0000
,  // measure 42
1MMM
0010
0100
0000
M1MM
0001
0010
0000
,  // measure 43
MM1M
0100
1000
0000
1MMM
0100
0020
0000
,  // measure 44
0031
0000
10MM
0000
MM1M
0100
0001
0000
,  // measure 45
M1MM
0010
0100
0000
M1MM
0001
0100
0000
,  // measure 46
MM1M
1000
0100
0000
M1MM
0010
0001
0000
,  // measure 47
MMM1
0010
0100
0000
1MMM
0010
0200
0000
,  // measure 48
0301
0000
1M0M
0000
M1MM
0010
0001
0000
,  // measure 49
MM1M
0100
1000
0000
M1MM
0010
0001
0000
,  // measure 50
M1MM
0010
0100
0000
MMM1
0100
0010
0000
,  // measure 51
1MMM
0010
0100
0000
MMM1
0100
0010
1000
,  // measure 52
0100
0010
0001
0010
0M01
0010
M001
00M0
,  // measure 53
1000
0010
100M
0010
1M0M
0000
0001
0100
,  // measure 54
M001
0100
M001
0M00
10M0
0100
1000
0100
,  // measure 55
M01M
0M00
0001
0000
M010
0100
10M0
0M00
,  // measure 56
001M
0100
M001
0100
00M1
0100
M010
0M00
,  // measure 57
1000
0100
100M
0100
001M
0M00
M001
0100
,  // measure 58
0001
0100
M010
0M00
100M
0100
1000
0010
,  // measure 59
1M0M
0000
M001
0000
0100
0010
1M0M
00M0
,  // measure 60
0100
0010
M001
0010
0001
0100
M0M1
0000
,  // measure 61
1M00
0010
1M00
0001
10M0
000M
0010
0001
,  // measure 62
0010
0100
M0M1
0M00
1000
0100
M010
0001
,  // measure 63
1MM0
0000
001M
0000
M100
0001
0M10
000M
,  // measure 64
01M0
1000
001M
0100
0001
0100
M01M
0M00
,  // measure 65
0010
1000
010M
0010
M001
00M0
1M00
0010
,  // measure 66
0100
0001
1MM0
000M
1000
0100
001M
0100
,  // measure 67
10M0
MM2M
MM0M
M13M
,  // measure 68
MMMM
0000
0000
0000
1002
0000
0010
0000
M000
0010
0M00
0000
10M0
0000
00M0
0100
,  // measure 69
M000
0000
0M10
0000
20M3
0000
010M
0000
0M00
0010
000M
0000
00M1
0000
0M00
0010
,  // measure 70
000M
0000
31M0
0000
002M
0000
0M01
0000
M000
0100
000M
0000
1M00
0000
M000
0100
,  // measure 71
000M
0000
M031
0000
2M00
0000
01M0
0000
000M
0010
0M00
0000
30M1
0000
M100
0001
,  // measure 72
0010
0100
1000
0010
0100
0001
0100
0001
0100
0010
1M0M
0000
1000
0000
M100
0010
,  // measure 73
0M00
0001
10M0
0000
0M01
0000
10M0
0000
001M
0100
M000
0001
01M0
0000
M010
0100
,  // measure 74
00M0
0001
0100
0000
0M10
0000
10M0
0000
010M
0010
M000
0001
01M0
0000
M010
0100
,  // measure 75
00M0
0001
0M10
0000
010M
0000
10M0
0000
M010
0100
00M0
0001
1M00
0000
010M
0010
,  // measure 76
M001
0010
010M
1000
0001
0000
0000
0000
1000
0000
0100
0000
0010
0000
MM0M
0000
,  // measure 77
0010
0001
1000
0MMM
1000
0001
0100
M0MM
,  // measure 78
0100
0010
0100
M00M
0010
1000
0100
M0MM
,  // measure 79
0100
0010
0001
MMM0
0001
0010
0100
M0MM
,  // measure 80
0100
1000
0010
M00M
0100
0001
0100
M0MM
,  // measure 81
0010
0100
0001
MM00
0010
0100
1000
0MMM
,  // measure 82
1000
0001
0100
M0MM
0100
0010
0100
M0MM
,  // measure 83
0100
0001
0010
MM0M
0010
0100
1000
0100
,  // measure 84
0010
0001
0100
0010
0100
0000
0001
0100
,  // measure 85
000M
1M00
0100
M000
0M01
0100
000M
1M00
,  // measure 86
0100
M000
0M01
0010
010M
00M0
1000
0100
,  // measure 87
M000
0M01
0100
000M
1M00
0100
M000
0M01
,  // measure 88
0100
000M
1M00
0010
M1M0
0000
0001
0100
,  // measure 89
000M
1M00
0100
M000
0M01
0100
000M
1M00
,  // measure 90
0100
M000
0M01
0010
0100
0000
M01M
0100
,  // measure 91
1000
0010
0100
0001
0010
0100
M0M1
0100
,  // measure 92
0010
0001
0100
0010
1000
0000
1MM1
0000
,  // measure 93
0001
0100
0010
1000
0100
0000
11MM
0000
,  // measure 94
0100
0010
0001
0100
0010
0000
M11M
0000
,  // measure 95
0010
1000
0100
0010
0001
0000
M1M1
0000
,  // measure 96
1010
0000
0001
0010
0100
0000
11M0
0000
,  // measure 97
0001
0010
0100
1000
0010
0000
M11M
0000
,  // measure 98
0010
1000
0100
0010
0001
0000
M1M1
0000
,  // measure 99
0001
0100
0010
1000
0100
0000
1MMM
0100
,  // measure 100
0010
0001
1000
0010
0100
0000
M1M1
0000
,  // measure 101
0001
0100
0010
0100
0001
0000
MM11
0000
,  // measure 102
0010
1000
0010
0001
0010
0000
M11M
0000
,  // measure 103
0100
1000
0100
0010
0100
0000
11MM
0000
,  // measure 104
0101
0000
1000
0001
0100
0000
M1M1
0000
,  // measure 105
0001
0100
0010
0100
0001
0000
MM11
0000
,  // measure 106
0010
0100
1000
0010
0100
0000
M1M1
0000
,  // measure 107
0001
0100
0010
1000
0100
0001
0100
1000
,  // measure 108
0010
0000
0000
0000
0000
0000
0200
0000
0000
0000
0000
0000
M0M2
0303
0000
0000
0000
0000
0000
0000
0000
0000
0000
0000
2000
0000
0000
0000
0000
0000
0000
0000
0000
0000
0000
0000
300M
0000
0000
0000
0000
0000
0000
0000
0000
0000
0000
0000
;
