#TITLE:ひとりぼっち;
#SUBTITLE:;
#ARTIST:ピンクカプセル;
#TITLETRANSLIT:Hitoribocchi;
#SUBTITLETRANSLIT:;
#ARTISTTRANSLIT:Pink Capsule;
#CREDIT:;
#BANNER:Hitoribocchi.png;
#BACKGROUND:Hitoribocchi-bg.png;
#LYRICSPATH:;
#CDTITLE:;
#MUSIC:[ROUND C] - Hitoribocchi.mp3;
#OFFSET:-1.565;
#SAMPLESTART:57.929;
#SAMPLELENGTH:12.000;
#SELECTABLE:YES;
#BPMS:0.000=212.022;
#STOPS:;
#BGCHANGES:;

//---------------dance-single - ChiselEssiestudy ZSS----------------
#NOTES:
     dance-single:
     ChiselEssiestudy ZSS:
     Beginner:
     2:
     0.193,0.250,0.127,0.000,0.000: // measure 1
0000
0000
0000
0000
,  // measure 2
0000
0000
0000
0000
,  // measure 3
0000
0000
0000
0000
,  // measure 4
0000
0000
0000
0000
,  // measure 5
1000
0000
0000
0000
,  // measure 6
0001
0000
0000
0000
,  // measure 7
0100
0000
0000
0000
,  // measure 8
0001
0000
0000
0000
,  // measure 9
0010
0000
0010
0000
,  // measure 10
1001
0000
0000
0000
,  // measure 11
0000
0000
0100
0000
,  // measure 12
1001
0000
0000
0000
,  // measure 13
1000
0000
0000
0000
,  // measure 14
1000
0000
0000
0000
,  // measure 15
0010
0000
0010
0000
,  // measure 16
0100
0000
0000
0000
,  // measure 17
0001
0000
0000
0000
,  // measure 18
0001
0000
0000
0000
,  // measure 19
1000
0000
0000
0000
,  // measure 20
1001
0000
1001
0000
,  // measure 21
0100
0000
0000
0000
,  // measure 22
0010
0000
0000
0000
,  // measure 23
1000
0000
1000
0000
,  // measure 24
0001
0000
0000
0000
,  // measure 25
0010
0000
0000
0000
,  // measure 26
0001
0000
0000
0000
,  // measure 27
0100
0000
0010
0000
,  // measure 28
0100
0000
0110
0000
,  // measure 29
1000
0000
0000
0000
,  // measure 30
1000
0000
0000
0000
,  // measure 31
0001
0000
0000
0000
,  // measure 32
0010
0000
0100
0000
,  // measure 33
0010
0000
0000
0000
,  // measure 34
0100
0000
0000
0000
,  // measure 35
1000
0000
0000
0000
,  // measure 36
0001
0000
1000
0000
,  // measure 37
0010
0000
0000
0000
,  // measure 38
0100
0000
0010
0000
,  // measure 39
0100
0000
0001
0000
,  // measure 40
1000
0000
1001
0000
,  // measure 41
0010
0000
0100
0000
,  // measure 42
0010
0000
0010
0000
,  // measure 43
0100
0000
1000
0000
,  // measure 44
0010
0000
1001
0000
,  // measure 45
0100
0000
0000
0000
,  // measure 46
1000
0000
1001
0000
,  // measure 47
0100
0000
0010
0000
,  // measure 48
0100
0000
0010
0000
,  // measure 49
1000
0000
0000
0000
,  // measure 50
1000
0000
0001
0000
,  // measure 51
1000
0000
0100
0000
,  // measure 52
1000
1000
0001
0000
,  // measure 53
1000
0000
0000
0000
,  // measure 54
0000
0000
0001
0000
,  // measure 55
1000
0000
0000
0000
,  // measure 56
0100
0000
0100
0000
,  // measure 57
0010
0000
0000
0000
,  // measure 58
0100
0000
0000
0000
,  // measure 59
0010
0000
0000
0000
,  // measure 60
1000
0000
1001
0000
,  // measure 61
0100
0000
0100
0000
,  // measure 62
0010
0000
0000
0000
,  // measure 63
0100
0000
0100
0000
,  // measure 64
0001
0000
0000
0000
,  // measure 65
1000
0000
1000
0000
,  // measure 66
0001
0000
0000
0000
,  // measure 67
0010
0000
0010
0000
,  // measure 68
0110
0000
0000
0000
,  // measure 69
1000
0000
0000
0000
,  // measure 70
0001
0000
0000
0000
,  // measure 71
1000
0000
0100
0000
,  // measure 72
1000
0000
0000
0000
,  // measure 73
0001
0000
0000
0000
,  // measure 74
0100
0000
0000
0000
,  // measure 75
0001
0000
0000
0000
,  // measure 76
0010
0000
0010
0000
,  // measure 77
0100
0000
0010
0000
,  // measure 78
0100
0000
0001
0000
,  // measure 79
1000
0000
0010
0000
,  // measure 80
0100
0000
1001
0000
,  // measure 81
0001
0000
0100
0000
,  // measure 82
0010
0000
0100
0000
,  // measure 83
0001
0000
1000
0000
,  // measure 84
0100
0000
0110
0000
,  // measure 85
1000
0000
0001
0000
,  // measure 86
1000
0000
0010
0000
,  // measure 87
1000
0000
0100
0000
,  // measure 88
0010
0000
1001
0000
,  // measure 89
0001
0000
0100
0000
,  // measure 90
0001
0000
0010
0000
,  // measure 91
0001
0000
0100
0000
,  // measure 92
0010
0000
0100
0000
,  // measure 93
1001
0000
0000
0000
;

//---------------dance-single - ChiselEssiestudy ZSS----------------
#NOTES:
     dance-single:
     ChiselEssiestudy ZSS:
     Hard:
     8:
     0.622,0.874,0.389,0.416,0.000: // measure 1
0000
0000
0000
0000
,  // measure 2
0000
0000
0000
0000
,  // measure 3
0000
0000
0000
0000
,  // measure 4
0000
0000
0000
0000
,  // measure 5
1000
0000
0100
1000
0100
0000
0010
0001
,  // measure 6
0000
0100
0010
0100
0000
0001
0010
0000
,  // measure 7
0100
0000
1000
0010
0100
0000
0001
0100
,  // measure 8
0000
0001
0010
0100
1000
0000
0110
0000
,  // measure 9
0002
0003
0020
0030
0002
0003
0020
0030
0001
0000
0100
0000
0000
0000
0010
0000
,  // measure 10
0000
0100
0000
0010
0000
0100
0001
0000
,  // measure 11
2000
3000
0200
0300
2000
3000
0200
0300
1000
0000
0100
0000
0000
0000
0010
0000
,  // measure 12
0000
0100
0000
1000
0000
0001
1000
0000
,  // measure 13
0001
0010
0001
0100
,  // measure 14
0010
0100
0001
1000
,  // measure 15
0100
1000
0010
1000
,  // measure 16
0001
0010
0001
0100
,  // measure 17
0010
1000
0001
1000
,  // measure 18
0100
0010
0100
1000
,  // measure 19
0001
0000
0100
0000
0010
0000
0000
1001
,  // measure 20
0000
0101
0000
1010
0000
1000
0001
0000
,  // measure 21
0100
0000
0000
0000
0110
0000
0001
0010
,  // measure 22
0001
1000
0000
0000
0001
0000
1000
0000
,  // measure 23
0100
0000
1000
0000
0100
0000
0010
0001
,  // measure 24
0000
0110
0000
0000
1010
0000
0110
0000
,  // measure 25
0001
0000
0100
0000
0001
0000
1000
0100
,  // measure 26
0000
1000
0000
0000
0010
0000
1000
0000
,  // measure 27
0010
0100
0010
1000
0200
0300
0000
1001
,  // measure 28
0000
1010
0000
0100
0001
0010
0100
0000
,  // measure 29
0010
0000
0100
0000
1000
0000
0100
0010
,  // measure 30
0000
0100
0000
0000
1000
0000
0002
0000
,  // measure 31
0003
0100
0001
0010
,  // measure 32
0100
0000
2000
3000
0000
0020
0030
0000
,  // measure 33
1000
0000
0010
0000
1000
0000
0100
0010
,  // measure 34
0000
0001
0000
0000
0100
0000
0001
0000
,  // measure 35
1000
0100
0010
0100
,  // measure 36
2002
3003
0000
0220
0330
0000
0202
0303
,  // measure 37
0010
0100
0010
1000
,  // measure 38
0100
0000
0010
0001
0000
0000
0110
0000
,  // measure 39
1000
0100
0010
0001
,  // measure 40
1000
0100
1000
0010
0000
0000
0110
0000
,  // measure 41
1000
0100
1000
0010
,  // measure 42
0100
0000
0001
0010
0000
0000
1001
0000
,  // measure 43
0100
0000
0001
0000
0010
0000
0001
0100
,  // measure 44
0010
0000
0000
2002
0000
0000
3003
0000
,  // measure 45
0010
0001
0100
0010
,  // measure 46
0100
0000
0001
1000
0000
0000
0110
0000
,  // measure 47
1000
0001
0100
0010
,  // measure 48
1000
0010
0200
0301
0000
0000
0000
0000
,  // measure 49
0010
0100
0010
0001
,  // measure 50
1000
0000
0010
0100
0000
0000
0010
0000
,  // measure 51
1000
0000
0100
0000
1000
0100
0010
0100
,  // measure 52
1000
0100
0010
0001
,  // measure 53
0010
0000
0100
0010
0100
0000
1000
0001
,  // measure 54
0000
0010
0100
0010
0000
0001
1000
0000
,  // measure 55
0001
0000
1000
0010
1000
0000
0001
0010
,  // measure 56
0000
0001
0010
0001
0000
0100
0010
0000
,  // measure 57
1000
0000
0100
1000
0100
0000
0010
0001
,  // measure 58
0000
0010
0001
0100
0000
0001
0100
0000
,  // measure 59
0001
0000
1000
0001
1000
0000
0010
0100
,  // measure 60
0001
0100
0010
0100
0001
1000
0010
0000
,  // measure 61
0101
0000
0110
0000
2020
3030
0000
2002
,  // measure 62
3003
0001
0100
0001
0100
0001
0100
0000
,  // measure 63
0110
0000
1010
0000
2002
3003
0000
0220
,  // measure 64
0330
0000
1000
0000
0010
0000
1000
0000
0010
0000
1000
0000
0010
0000
2000
3000
,  // measure 65
0001
0000
0101
0000
0220
0330
0000
2200
,  // measure 66
3300
0100
1000
0100
1000
0100
1000
0000
,  // measure 67
0011
0000
0110
0000
1000
0010
0000
0202
,  // measure 68
0000
0000
0303
0100
,  // measure 69
0001
0000
0100
0000
0001
0000
0010
0001
,  // measure 70
0000
0010
0000
0000
0001
0000
0100
0000
,  // measure 71
0010
0000
1000
0000
0010
0000
0100
0010
,  // measure 72
0000
0100
0000
0000
0001
0000
0100
0000
,  // measure 73
0010
0000
0100
0000
0001
0000
0100
0010
,  // measure 74
0000
1000
0000
0000
0010
0000
1000
0000
,  // measure 75
0100
0010
0001
1000
,  // measure 76
0202
0303
0000
2002
3003
0000
0220
0330
,  // measure 77
0001
0100
0001
0010
,  // measure 78
0100
0000
0010
0001
0000
0000
0011
0000
,  // measure 79
0100
0010
0100
0001
,  // measure 80
0010
0100
0020
0031
0000
0000
1001
0000
,  // measure 81
0100
0001
0100
0010
,  // measure 82
1000
0000
0010
0100
0000
0000
0110
0000
,  // measure 83
1000
0000
0100
0000
1000
0100
0010
0001
,  // measure 84
2000
0000
3000
0110
0000
0000
1001
0000
,  // measure 85
0001
0100
0001
1000
,  // measure 86
0010
0000
1000
0100
0000
0000
1100
0000
,  // measure 87
0010
0000
0001
0000
0010
0100
0010
0001
,  // measure 88
1000
0010
0200
0310
0000
0000
1001
0000
,  // measure 89
1000
0100
1000
0010
,  // measure 90
0100
0000
0001
0100
0000
0000
0110
0000
,  // measure 91
1000
0000
0100
0000
1000
0010
0100
0001
,  // measure 92
0010
0001
0100
0010
,  // measure 93
2000
3000
0000
0000
0000
0000
0000
0000
0000
0000
0000
0000
0000
0000
0000
0000
0000
0000
0000
0000
0000
0000
0000
0000
0000
0000
0000
0000
0000
0000
0000
0000
0000
0000
0000
0000
0000
0000
0000
0000
0000
0000
0000
0000
0000
0000
0000
0000
0000
0000
0000
0000
0000
0000
0000
0000
0000
0000
0000
0000
0000
0000
0000
0000
;

//---------------dance-single - ChiselEssiestudy ZSS----------------
#NOTES:
     dance-single:
     ChiselEssiestudy ZSS:
     Medium:
     7:
     0.546,0.708,0.190,0.643,0.000: // measure 1
0000
0000
0000
0000
,  // measure 2
0000
0000
0000
0000
,  // measure 3
0000
0000
0000
0000
,  // measure 4
0000
0000
0000
0000
,  // measure 5
1000
0000
0100
0000
2000
3000
0000
0200
,  // measure 6
0000
0000
0000
0310
0000
0100
0010
0000
,  // measure 7
1000
0000
0001
0000
2000
3000
0000
0002
,  // measure 8
0000
1003
0001
0000
1000
0000
0100
0000
,  // measure 9
2000
3000
0200
0300
2000
3000
0000
0001
,  // measure 10
0000
0100
0000
0001
0000
0010
0000
0000
,  // measure 11
0002
0003
0200
0300
0002
0003
0000
0010
,  // measure 12
0000
0100
0000
0010
0000
0002
0003
0000
,  // measure 13
0100
0000
0010
0000
0100
0000
0001
0010
,  // measure 14
0000
0001
0000
0100
0000
0000
0010
0000
,  // measure 15
1000
0000
0100
0000
0010
0000
0000
0100
,  // measure 16
0000
1000
0000
0001
0000
0000
1000
0000
,  // measure 17
0100
0000
1000
0000
0100
0000
0000
0010
,  // measure 18
0000
0001
0000
0100
0000
0000
0010
0000
,  // measure 19
1000
0001
1000
0001
1000
0000
0000
0100
,  // measure 20
0000
0010
0000
0100
0000
0010
0001
0000
,  // measure 21
1000
0000
0001
0000
0100
0000
0001
0010
,  // measure 22
0000
0100
0000
0010
0000
0000
0001
0000
,  // measure 23
1000
0100
1000
0000
0010
0000
0100
0001
,  // measure 24
0000
0010
0000
0100
0000
0000
0010
0000
,  // measure 25
0001
0000
1000
0000
0100
0000
0000
0001
,  // measure 26
0000
0010
0000
0100
0000
0000
0001
0000
,  // measure 27
1000
0010
1000
0010
1000
0000
0000
0001
,  // measure 28
0000
1000
0000
0000
0001
0000
0110
0000
,  // measure 29
2000
0100
0010
0100
,  // measure 30
0001
0010
0100
3010
,  // measure 31
0200
0010
1000
0010
,  // measure 32
0001
0000
0020
0030
0000
2000
3300
0000
,  // measure 33
0020
0100
0001
0100
,  // measure 34
1000
0100
0001
0130
,  // measure 35
0002
1000
0010
0100
,  // measure 36
0020
0000
0030
0200
0000
0303
1001
0000
,  // measure 37
0001
0100
0001
0010
,  // measure 38
0100
0000
0000
2002
3003
0000
0001
0000
,  // measure 39
1000
0100
1000
0010
,  // measure 40
0100
0000
0001
0020
0000
0030
1001
0000
,  // measure 41
1000
0100
1000
0010
,  // measure 42
0100
0000
0000
0202
0303
0000
0100
0000
,  // measure 43
0001
0000
0010
0000
0001
0100
0001
0010
,  // measure 44
0100
0000
0000
2002
0000
0000
3003
0000
,  // measure 45
0100
0001
0100
0010
,  // measure 46
1000
0000
0000
0220
0330
0000
1000
0000
,  // measure 47
0001
0100
0001
0010
,  // measure 48
0001
0000
0100
0020
0000
0030
0101
0000
,  // measure 49
0001
0010
0001
1000
,  // measure 50
0010
0000
0000
0220
0330
0000
1000
0000
,  // measure 51
0100
0000
0010
0000
0100
0010
0100
0010
,  // measure 52
0001
0100
0001
0010
,  // measure 53
0100
0000
0001
0000
0200
0300
0000
0002
,  // measure 54
0000
0000
0000
1003
0000
0000
0100
0000
,  // measure 55
1000
0000
0010
0000
2000
3000
0000
0020
,  // measure 56
0000
0000
0000
0130
0000
0000
0001
0000
,  // measure 57
0100
0000
0010
0000
0200
0300
0000
0020
,  // measure 58
0000
0000
0000
0130
0000
0000
0001
0000
,  // measure 59
0100
0000
0001
0000
0200
0300
0000
0002
,  // measure 60
0000
0000
0000
1003
0000
0000
0100
0000
,  // measure 61
0010
0000
0100
0000
0020
0030
0000
0202
,  // measure 62
0300
0003
0020
0030
0200
0300
0002
0003
,  // measure 63
2000
3000
0020
0030
0200
0300
0000
2020
,  // measure 64
0030
3000
0020
0030
0200
0300
0002
0003
,  // measure 65
0010
0000
0100
0000
0010
0000
0000
2002
,  // measure 66
3000
0003
2000
3000
0002
0003
0200
0300
,  // measure 67
0010
0000
1000
0000
0100
0010
0000
0200
,  // measure 68
0000
0000
0000
0310
,  // measure 69
1000
0000
0001
0000
0100
0000
0000
0001
,  // measure 70
0000
0001
0100
0010
,  // measure 71
0100
0000
0001
0000
0010
0000
0000
0010
,  // measure 72
0000
0000
0100
0000
0010
0001
0100
0000
,  // measure 73
0010
0000
0100
0000
0001
0000
0000
0100
,  // measure 74
0000
0100
0010
0100
,  // measure 75
0001
0010
0001
1000
,  // measure 76
0010
0000
0000
0110
0000
0000
1001
0000
,  // measure 77
0100
0001
1000
0010
,  // measure 78
0100
0000
0000
2002
3003
0000
0010
0000
,  // measure 79
0100
0001
0100
0010
,  // measure 80
1000
0000
0100
2000
0000
3000
0110
0000
,  // measure 81
0100
0001
0010
0100
,  // measure 82
0010
0000
0000
2200
3300
0000
0010
0000
,  // measure 83
0001
0000
0100
0000
0010
1000
0100
0010
,  // measure 84
0001
0000
0000
2020
0000
3030
1001
0000
,  // measure 85
0010
0100
0010
0001
,  // measure 86
0100
0000
0000
2002
3003
0000
0100
0000
,  // measure 87
0001
0100
0010
1000
,  // measure 88
0100
0000
0010
0200
0300
0000
0010
0000
,  // measure 89
0001
0100
0001
1000
,  // measure 90
0010
0000
0000
2200
3300
0000
0010
0000
,  // measure 91
0100
0000
0010
0000
0001
1000
0001
0100
,  // measure 92
0001
0010
0100
0010
,  // measure 93
0100
0000
0000
0000
;

//---------------dance-single - ChiselEssiestudy ZSS----------------
#NOTES:
     dance-single:
     ChiselEssiestudy ZSS:
     Easy:
     4:
     0.397,0.459,0.118,0.380,0.000: // measure 1
0000
0000
0000
0000
,  // measure 2
0000
0000
0000
0000
,  // measure 3
0000
0000
0000
0000
,  // measure 4
0000
0000
0000
0000
,  // measure 5
1000
0000
0100
0000
,  // measure 6
1000
0000
0010
0000
,  // measure 7
0100
0000
0001
0000
,  // measure 8
0010
0000
1001
0000
,  // measure 9
0001
0000
0100
0000
,  // measure 10
0001
0010
0001
0000
,  // measure 11
0100
0000
0010
0000
,  // measure 12
0100
0001
1000
0000
,  // measure 13
0010
0100
0010
0100
,  // measure 14
0001
0010
0001
0000
,  // measure 15
0100
0010
0100
0001
,  // measure 16
1000
0100
1000
0000
,  // measure 17
0001
1000
0010
0100
,  // measure 18
0010
1000
0100
0000
,  // measure 19
0010
0001
0100
0000
,  // measure 20
1001
0010
0010
0000
,  // measure 21
0110
0000
0100
0010
,  // measure 22
0100
0001
0010
0000
,  // measure 23
0001
0001
1000
0001
,  // measure 24
0100
0010
0200
0300
,  // measure 25
0001
0010
0001
1000
,  // measure 26
0100
1000
0001
0100
,  // measure 27
1000
0000
0001
0000
1000
0000
0000
0001
,  // measure 28
0000
1000
0000
0000
0001
0000
0000
0000
,  // measure 29
0200
0300
0010
0100
,  // measure 30
0001
0010
0001
0100
,  // measure 31
0020
0030
1000
0100
,  // measure 32
1000
0000
0000
0100
0000
0000
1000
0000
,  // measure 33
0200
0300
0010
0100
,  // measure 34
0010
0001
0010
0100
,  // measure 35
2000
3000
0020
0030
,  // measure 36
0100
0000
0000
0010
0000
0000
0100
0000
,  // measure 37
0001
1000
0001
0000
,  // measure 38
0010
0000
0000
0200
0000
0000
0300
0000
,  // measure 39
0010
0100
0010
0000
,  // measure 40
1000
0000
0000
2002
0000
0000
3003
0000
,  // measure 41
0010
0100
0010
0000
,  // measure 42
0001
0000
0000
2000
0000
0000
3000
0000
,  // measure 43
0001
1000
0100
1000
,  // measure 44
0010
0000
0000
0220
0000
0000
0330
0000
,  // measure 45
0100
0010
0100
0000
,  // measure 46
0001
0000
0000
0020
0000
0000
0030
0000
,  // measure 47
0100
1000
0100
0000
,  // measure 48
0010
0000
0000
0200
0000
0000
0300
0000
,  // measure 49
0010
0001
0010
0000
,  // measure 50
0100
0000
0000
0020
0000
0000
0030
0000
,  // measure 51
0001
0100
0001
0010
,  // measure 52
0100
1000
0100
0010
,  // measure 53
0001
0000
0100
0000
,  // measure 54
0001
0000
0010
0000
,  // measure 55
0100
0000
1000
0000
,  // measure 56
0010
0000
1000
0000
,  // measure 57
0100
0000
0010
0000
,  // measure 58
0100
0000
1000
0000
,  // measure 59
0001
0000
0100
0000
,  // measure 60
0010
0000
0100
0000
,  // measure 61
1000
0001
1000
0000
,  // measure 62
0220
0330
0100
0010
,  // measure 63
0100
0001
0100
0000
,  // measure 64
2002
3003
0100
0010
,  // measure 65
1000
0001
1000
0000
,  // measure 66
2002
3003
0100
0001
,  // measure 67
0010
0100
0010
0220
,  // measure 68
0000
0000
0330
0001
,  // measure 69
2000
3000
0100
0010
,  // measure 70
0100
1000
0200
0300
,  // measure 71
2000
3000
0001
0100
,  // measure 72
0010
0000
0000
0100
0000
0000
0010
0000
,  // measure 73
0200
0300
0010
1000
,  // measure 74
0001
0010
0002
0003
,  // measure 75
0200
0300
0020
0030
,  // measure 76
1000
0000
0000
0100
0000
0000
1000
0000
,  // measure 77
0001
0100
0001
0000
,  // measure 78
0010
0000
0000
0220
0000
0000
0330
0000
,  // measure 79
1000
0100
1000
0000
,  // measure 80
0010
0000
0000
2002
0000
0000
3003
0000
,  // measure 81
0001
0010
0001
0000
,  // measure 82
0100
0000
0000
0020
0000
0000
0030
0000
,  // measure 83
0100
0000
0001
0000
1000
0001
1000
0001
,  // measure 84
1000
0000
0000
0002
0000
0000
0003
0000
,  // measure 85
1000
0100
1000
0000
,  // measure 86
0010
0000
0000
2002
0000
0000
3003
0000
,  // measure 87
0100
0001
0100
0000
,  // measure 88
0001
0000
0000
2000
0000
0000
3000
0000
,  // measure 89
0100
0010
0100
0000
,  // measure 90
1000
0000
0000
2002
0000
0000
3003
0000
,  // measure 91
1000
0000
0001
0000
1000
0001
1000
0001
,  // measure 92
1000
0100
1000
0010
,  // measure 93
0200
0300
0000
0000
;
