#TITLE:너 아님 안돼;
#SUBTITLE:;
#ARTIST:2NE1;
#TITLETRANSLIT:GOTTA BE YOU;
#SUBTITLETRANSLIT:;
#ARTISTTRANSLIT:;
#GENRE:;
#CREDIT:;
#BANNER:[ROUND C] - GOTTA BE YOU-bn.png;
#BACKGROUND:[ROUND C] - GOTTA BE YOU-bg.png;
#LYRICSPATH:;
#CDTITLE:;
#MUSIC:[ROUND C] - GOTTA BE YOU.ogg;
#OFFSET:-0.167000;
#SAMPLESTART:66.628998;
#SAMPLELENGTH:15.000000;
#SELECTABLE:YES;
#BPMS:0.000000=130.000000
;
#STOPS:
;
#BGCHANGES:;
#KEYSOUNDS:;
#ATTACKS:;

//---------------dance-single - ----------------
#NOTES:
     dance-single:
     :
     Hard:
     7:
     0.377664,0.559584,0.133234,0.301530,0.196345,377.000000,358.000000,19.000000,43.000000,0.000000,0.000000,0.377664,0.559584,0.133234,0.301530,0.196345,377.000000,358.000000,19.000000,43.000000,0.000000,0.000000:
// measure 0
0000
0000
0000
0000
,  // measure 1
0000
0000
0000
0000
,  // measure 2
0000
0000
0000
0000
,  // measure 3
0000
0000
0000
0000
,  // measure 4
0002
0000
0003
0000
,  // measure 5
0200
0000
0300
0000
,  // measure 6
0020
0000
0030
0000
,  // measure 7
2000
0000
0000
3000
,  // measure 8
0001
0010
0001
1000
0001
0001
0100
0100
,  // measure 9
0010
1000
0010
1000
0200
0000
0300
0000
,  // measure 10
1000
0100
1000
0010
0100
0100
0001
0001
,  // measure 11
1000
0100
1000
0100
0020
0000
0030
0000
,  // measure 12
0001
0000
0000
0100
0000
0000
0001
0000
1000
0000
0000
0000
1001
0000
0000
0000
,  // measure 13
0010
0000
0000
1000
0000
0000
0100
0000
0010
0000
0000
0000
0110
0000
0000
0000
,  // measure 14
0010
0001
0010
0000
0010
0100
1000
0001
,  // measure 15
1000
0010
0100
0001
2000
0000
3000
0000
,  // measure 16
0001
0010
0100
0000
0110
0000
1001
0000
,  // measure 17
1000
0010
0100
0000
0101
0000
1001
0000
,  // measure 18
1000
0100
0010
0000
0010
0100
1000
0010
,  // measure 19
0100
0100
0001
0001
2000
0000
3000
0000
,  // measure 20
0001
0010
0100
0100
0010
0000
0011
0000
,  // measure 21
0001
0100
0000
0000
0001
0010
0000
0000
0100
0000
0000
0000
1100
0000
0000
0000
,  // measure 22
1000
0000
0000
0000
0010
0100
0000
0000
0020
0000
0030
0000
2000
0000
3000
0000
,  // measure 23
0001
0000
0000
0000
0100
0010
0000
0000
0200
0000
0300
0000
0002
0000
0003
0000
,  // measure 24
1000
0000
1000
0100
0000
0100
0010
0000
0010
0001
0000
0001
,  // measure 25
0100
0000
0100
0010
0000
0010
1000
0000
0000
1001
0000
0000
,  // measure 26
0001
0000
0001
0010
0000
0010
0001
0000
0001
1000
0000
1000
,  // measure 27
0010
0000
0010
0100
0000
0100
0010
0000
0000
1010
0000
0000
,  // measure 28
1000
0000
1000
0100
0010
0100
0010
0000
0000
0002
0000
0000
,  // measure 29
1003
0010
1000
0010
0100
0010
0200
0000
0000
0310
0000
0010
,  // measure 30
1000
0100
0010
0001
,  // measure 31
1000
0010
0100
0001
,  // measure 32
1000
0000
1000
0100
0000
0100
0010
0000
0010
0100
0000
0100
,  // measure 33
1000
0010
1000
0010
0100
0010
0100
0001
0100
0001
1000
0002
,  // measure 34
2000
0000
0000
0000
,  // measure 35
3003
0000
0011
1100
,  // measure 36
1010
0000
0000
1000
0001
0000
0010
0000
1000
0000
0010
0000
0001
0000
0000
0000
,  // measure 37
0101
0000
0000
0100
0001
0000
0010
0000
1000
0000
0010
0000
0001
0000
0000
0000
,  // measure 38
0100
0010
0001
0010
1000
0010
0100
0001
,  // measure 39
1000
0001
1001
0110
,  // measure 40
1001
0000
0001
0100
0001
0010
0100
2000
,  // measure 41
0000
3020
0000
0230
0000
0302
0000
0000
,  // measure 42
1003
0100
0010
0100
1000
0010
0100
0001
,  // measure 43
0010
0000
0010
0000
0100
0000
0100
0000
1000
0001
1000
0000
0010
0000
0100
0000
,  // measure 44
0110
0000
0000
0100
0000
0000
0100
0000
0000
0000
0001
0000
1000
0000
0020
0000
,  // measure 45
0000
0100
0000
1000
0000
0130
0001
0010
,  // measure 46
0001
0000
0000
0001
0000
0000
0001
0000
0000
0000
1000
0000
0010
0000
0200
0000
,  // measure 47
0000
0010
0000
0001
0000
0310
1000
0100
,  // measure 48
0010
0000
0000
0010
0000
0000
0010
0000
0000
0000
0100
0000
1000
0000
0002
0000
,  // measure 49
0000
0010
0000
1000
0000
0013
0100
1000
,  // measure 50
0001
0000
0000
0100
0000
0000
1000
0000
0100
0000
0000
0001
0000
0000
0010
0000
,  // measure 51
0200
0000
0000
0000
0000
0000
1000
0000
0000
0000
1000
0000
0000
1000
0000
0000
,  // measure 52
0300
0000
0010
0001
0010
0000
0001
0100
,  // measure 53
0001
0100
0010
1000
,  // measure 54
0200
0000
0000
0000
0000
0000
0000
0000
1300
0000
0000
0010
0000
0000
0100
0000
,  // measure 55
0001
0000
0000
1000
0000
0000
0100
0000
0010
0000
0000
0001
0000
0000
0100
0000
,  // measure 56
0020
0000
1030
0100
2000
0000
3010
0100
,  // measure 57
0002
0000
1003
0100
0020
0000
0031
1000
,  // measure 58
0100
0001
0100
1000
0010
0100
0001
1000
,  // measure 59
0200
0000
0000
0300
,  // measure 60
0020
0000
0000
0030
,  // measure 61
0002
0000
0000
0003
,  // measure 62
2000
0000
0000
3000
,  // measure 63
0020
0030
0200
0300
,  // measure 64
0002
0000
0000
0003
,  // measure 65
2000
0000
0000
3000
,  // measure 66
0200
0000
0000
0000
,  // measure 67
0300
0000
0000
0000
,  // measure 68
0011
0000
0000
0010
0000
0000
0010
0000
0000
0000
0100
0000
1000
0000
0020
0000
,  // measure 69
0000
0001
0000
1000
0000
0031
0010
0100
,  // measure 70
0001
0000
0000
0001
0000
0000
0001
0000
0000
0000
1000
0000
0001
0000
0200
0000
,  // measure 71
0000
1000
0000
0001
0000
1300
0100
0001
,  // measure 72
0100
0000
0000
0100
0000
0000
0100
0000
0000
0000
0001
0000
1000
0000
0002
0000
,  // measure 73
0000
0010
0000
0100
0000
0013
1000
0010
,  // measure 74
0001
0000
0000
0100
0000
0000
0001
0000
1000
0000
0000
0100
0000
0000
0010
0000
,  // measure 75
0002
0000
0000
0000
0000
0000
1000
0000
0000
0000
1000
0000
0000
2000
0000
0000
,  // measure 76
3003
0000
0000
0000
;

//---------------dance-single - ----------------
#NOTES:
     dance-single:
     :
     Medium:
     6:
     0.324571,0.478065,0.084148,0.294518,0.066617,324.000000,312.000000,12.000000,42.000000,0.000000,0.000000,0.324571,0.478065,0.084148,0.294518,0.066617,324.000000,312.000000,12.000000,42.000000,0.000000,0.000000:
0000
0000
0000
0000
,
0000
0000
0000
0000
,
0000
0000
0000
0000
,
0000
0000
0000
0000
,
2000
0000
3000
0000
,
0200
0000
0300
0000
,
0020
0000
0030
0000
,
0002
0000
0000
0003
,
1000
0000
0010
0000
0100
0001
0100
0001
,
1000
0000
0100
0010
0002
0000
0003
0000
,
0001
0000
0100
0000
0010
1000
0010
1000
,
0001
0000
0010
0100
2000
0000
3000
0000
,
0010
0000
0100
0001
1000
0000
1000
0000
,
0100
0000
0010
0001
1000
0000
1000
0000
,
0001
0100
0001
0000
1000
0010
1000
0010
,
0200
0000
0001
0300
,
0001
1000
0100
0000
1000
0000
1001
0000
,
1000
0001
0100
0000
0001
0000
1001
0000
,
1000
0100
1000
0000
0001
0010
1000
0010
,
0001
0001
1000
1000
0020
0000
0030
0000
,
1000
0010
0100
0001
1000
0000
0100
0000
,
1100
0000
1010
0000
0020
0030
0200
0300
,
0001
0000
0001
0010
0200
0300
2000
3000
,
0001
0000
0001
0100
0020
0030
2000
3000
,
0001
0010
0100
1000
,
0100
0000
0100
0010
0000
0010
0001
0000
0001
1000
0000
0000
,
0010
0100
0001
1000
,
0001
0000
0001
0010
0000
0010
0100
0000
0100
1000
0000
0000
,
0001
0000
0001
1000
0000
1000
0010
0000
0000
0110
0000
0000
,
1000
0000
1000
0100
0000
0100
0010
0000
0000
0110
0000
0000
,
1000
0010
0100
0001
,
1000
0100
0010
0001
,
1000
0000
1000
0010
0000
0010
0100
0000
0100
0001
0000
0001
,
1000
0000
1000
0100
0000
0100
0010
0000
0010
0001
1000
0002
,
2000
0000
0000
0000
,
3003
0000
1001
0110
,
1002
0000
1003
0100
1000
0010
0100
0000
,
0002
0000
1003
0010
1000
0100
0010
0000
,
0001
0001
0100
0000
1000
0000
0010
0000
,
0001
0000
0110
1001
,
0210
0000
0310
1000
0010
0000
0100
0002
,
0003
2000
3000
0200
0300
0020
0030
0000
,
0001
0010
0001
0000
1000
0100
1000
0000
,
0001
0001
0100
0100
0001
0001
2000
0000
,
3001
0000
0010
0000
0100
0000
1000
0001
,
1000
0000
0010
0000
0100
0000
0010
1000
,
0001
0000
0010
0000
0100
0000
1000
0001
,
1000
0000
0010
0000
1000
0100
0010
0001
,
1000
0000
0010
0000
0100
0000
0001
1000
,
0001
0000
0010
0000
0100
0000
1000
0100
,
1000
0000
0010
0100
0001
0000
1000
0100
,
0020
0000
0000
0000
,
0030
0000
0001
0100
0001
0000
1000
0010
,
2000
3000
0001
0010
,
0200
0300
1000
0010
,
0001
0100
1000
0010
,
0200
0000
0301
1000
0002
0000
0013
0100
,
2000
0000
3010
0100
0002
0000
1003
0100
,
0001
0100
1000
0100
0010
0001
1000
0001
,
0200
0000
0000
0300
,
0020
0000
0000
0030
,
2000
0000
0000
3000
,
0002
0000
0000
0003
,
2000
3000
0200
0300
,
0020
0000
0000
0030
,
0002
0000
0000
0003
,
0200
0000
0000
0000
,
0020
0000
0330
0000
,
1000
0000
0100
0000
0010
0000
0001
1000
,
0001
0000
0100
0000
0010
0100
0001
1000
,
0001
0000
0010
0000
0100
0000
1000
0001
,
1000
0000
0010
0000
0100
0001
0100
0010
,
1000
0000
0001
0000
0010
0000
0100
1000
,
0100
0000
1000
0000
0010
0100
0001
1000
,
0001
0000
0010
0100
1000
0000
0010
0100
,
0002
0000
0000
0003
;

//---------------dance-single - ----------------
#NOTES:
     dance-single:
     :
     Easy:
     3:
     0.153269,0.239033,0.063111,0.126222,0.000000,153.000000,144.000000,9.000000,18.000000,0.000000,0.000000,0.153269,0.239033,0.063111,0.126222,0.000000,153.000000,144.000000,9.000000,18.000000,0.000000,0.000000:
0000
0000
0000
0000
,
0000
0000
0000
0000
,
0000
0000
0000
0000
,
0000
0000
0000
0000
,
0001
0000
0000
0000
,
0001
0000
0000
0000
,
1000
0000
0000
0000
,
1000
0000
0000
0000
,
0010
0000
0010
0000
,
0100
0100
0100
0000
,
0001
0000
0001
0000
,
1000
1000
1000
0000
,
0001
0000
0010
0000
,
0001
0000
0010
0000
,
0100
0000
1000
0000
,
0100
0100
0100
0000
,
1000
0000
1010
0000
,
0010
0000
1010
0000
,
1000
0000
0001
0000
,
0100
0100
0100
0000
,
0010
0000
1001
0000
,
0100
0000
1001
0000
,
0001
0001
1000
0001
,
1000
1000
0001
1000
,
0010
0000
0010
0000
,
0100
0000
0100
0000
,
0001
0000
0001
0000
,
1000
0000
1000
0000
,
0100
0100
0100
0000
,
0010
0010
0010
0000
,
0001
0000
0100
0000
,
1000
0000
0010
0000
,
0001
0000
0100
0000
,
0010
0000
1000
0000
,
0100
0100
0100
0100
,
0000
0000
1001
0000
,
1000
1000
1000
0000
,
0001
0001
0001
0000
,
0100
0000
0010
0000
,
0110
0000
1001
0000
,
0001
0000
0001
0000
,
0010
0010
0010
0000
,
0001
0000
0100
0000
,
0010
0000
1000
0000
,
0100
0100
0000
0020
,
0000
0030
0000
0100
,
0100
0100
0000
0020
,
0000
0030
0000
0001
,
0001
0001
0000
2000
,
0000
3000
0000
0001
,
1000
0000
1000
0000
,
2002
0000
0000
3003
,
0001
0000
0001
0000
,
0100
0000
0100
0000
,
0010
0000
0010
0000
,
1000
0000
1000
0000
,
0001
0000
0010
0000
,
0100
0000
1000
0000
,
0010
0010
0010
0010
,
0200
0000
0000
0300
,
0002
0000
0000
0003
,
0020
0000
0000
0030
,
2000
0000
0000
3000
,
0200
0000
0000
0300
,
0002
0000
0000
0003
,
0020
0000
0000
0030
,
0200
0000
0000
0000
,
0300
0000
0000
0000
,
1000
1000
0000
0002
,
0000
0003
0000
1000
,
1000
1000
0000
0002
,
0000
0003
0000
0100
,
0100
0100
0000
0020
,
0000
0030
0000
0100
,
0010
0000
0010
0000
,
2002
0000
0000
3003
;
