#TITLE:Destroyer;
#SUBTITLE:;
#ARTIST:Tlahuizcalpantecuhtli;
#TITLETRANSLIT:;
#SUBTITLETRANSLIT:;
#ARTISTTRANSLIT:;
#GENRE:;
#CREDIT:;
#BANNER:[ROUND C] - Destroyer.png;
#BACKGROUND:[ROUND C] - Destroyer-bg.png;
#LYRICSPATH:;
#CDTITLE:;
#MUSIC:[ROUND C] - Destroyer.ogg;
#OFFSET:-1.170000;
#SAMPLESTART:63.680000;
#SAMPLELENGTH:9.600000;
#LASTBEATHINT:406.833344;
#SELECTABLE:YES;
#BPMS:0.000000=100.000000
,8.000000=200.000000
,72.000000=100.000000
,88.000000=200.000000
,116.000000=100.000000
,116.500000=150.000000
,117.250000=200.000000
,118.250000=375.000000
,120.000000=400.000000
,376.000000=200.000000
;
#STOPS:
;
#BGCHANGES:;
#KEYSOUNDS:;
#ATTACKS:;

//---------------dance-single - ----------------
#NOTES:
     dance-single:
     :
     Beginner:
     4:
     0.207493,0.395769,0.077984,0.126724,0.000000,149.000000,141.000000,8.000000,13.000000,0.000000,0.000000,0.207493,0.395769,0.077984,0.126724,0.000000,149.000000,141.000000,8.000000,13.000000,0.000000,0.000000:
// measure 0
0000
0000
0000
0000
,  // measure 1
0000
0000
0000
0000
,  // measure 2
1000
0000
1000
0000
,  // measure 3
1000
0000
1000
0000
,  // measure 4
0001
0000
0001
0000
,  // measure 5
0001
0000
0001
0000
,  // measure 6
0100
0000
0100
0000
,  // measure 7
0100
0000
0100
0000
,  // measure 8
0010
0000
0010
0000
,  // measure 9
0020
0000
0030
0000
,  // measure 10
1000
0000
2000
0000
,  // measure 11
3000
0000
0100
0000
,  // measure 12
0001
0000
0002
0000
,  // measure 13
0003
0000
0100
0000
,  // measure 14
1000
0000
2000
0000
,  // measure 15
3000
0000
0010
0000
,  // measure 16
0001
0000
0002
0000
,  // measure 17
0003
0000
0010
0000
,  // measure 18
0200
0300
0020
0030
,  // measure 19
2000
3000
0020
0030
,  // measure 20
0200
0300
0002
0003
,  // measure 21
2000
3000
0002
0003
,  // measure 22
0010
0000
0010
0000
,  // measure 23
0010
0000
0010
0000
,  // measure 24
0100
0000
0100
0000
,  // measure 25
0100
0000
0100
0000
,  // measure 26
1000
1000
1000
1000
,  // measure 27
1000
1000
1000
0000
,  // measure 28
0001
0001
0001
0001
,  // measure 29
0001
0000
0000
0000
,  // measure 30
0100
0000
0000
0000
,  // measure 31
1000
0000
0000
0000
,  // measure 32
0010
0000
0000
0000
,  // measure 33
1000
0000
0000
0000
,  // measure 34
0100
0000
0000
0000
,  // measure 35
0010
0000
0000
0000
,  // measure 36
0001
0000
0000
0000
,  // measure 37
0100
0000
0000
0000
,  // measure 38
0001
0000
0000
0000
,  // measure 39
0010
0000
0000
0000
,  // measure 40
0100
0000
0000
0000
,  // measure 41
0010
0000
0000
0000
,  // measure 42
0001
0000
0000
0000
,  // measure 43
1000
0000
0000
0000
,  // measure 44
0010
0000
0000
0000
,  // measure 45
0100
0000
0000
0000
,  // measure 46
1001
0000
0000
0000
,  // measure 47
1000
0000
0000
0000
,  // measure 48
0100
0000
0000
0000
,  // measure 49
0010
0000
0000
0000
,  // measure 50
0001
0000
0000
0000
,  // measure 51
0010
0000
0000
0000
,  // measure 52
0100
0000
0000
0000
,  // measure 53
1000
0000
0000
0000
,  // measure 54
0110
0000
0000
0000
,  // measure 55
0010
0000
0000
0000
,  // measure 56
1000
0000
0000
0000
,  // measure 57
0001
0000
0000
0000
,  // measure 58
0100
0000
0000
0000
,  // measure 59
0001
0000
0000
0000
,  // measure 60
1000
0000
0000
0000
,  // measure 61
0010
0000
0000
0000
,  // measure 62
0100
0000
0000
0000
,  // measure 63
0001
0000
0000
0000
,  // measure 64
0100
0000
0000
0000
,  // measure 65
1000
0000
0000
0000
,  // measure 66
0100
0000
0000
0000
,  // measure 67
0010
0000
0000
0000
,  // measure 68
1001
0000
0000
0000
,  // measure 69
0110
0000
0000
0000
,  // measure 70
1000
0000
0000
0000
,  // measure 71
0010
0000
0000
0000
,  // measure 72
0001
0000
0000
0000
,  // measure 73
0010
0000
0000
0000
,  // measure 74
0100
0000
0000
0000
,  // measure 75
0010
0000
0000
0000
,  // measure 76
1001
0000
0000
0000
,  // measure 77
0110
0000
0000
0000
,  // measure 78
1000
0000
0000
0000
,  // measure 79
0001
0000
0001
0000
,  // measure 80
0001
0000
0000
0000
,  // measure 81
0100
0000
0100
0000
,  // measure 82
0100
0000
0000
0000
,  // measure 83
0010
0000
0010
0000
,  // measure 84
0010
0000
0000
0000
,  // measure 85
1000
0000
0000
0000
,  // measure 86
0110
0000
0000
0000
,  // measure 87
0001
0000
0010
0000
,  // measure 88
0001
0000
0000
0000
,  // measure 89
1000
0000
0100
0000
,  // measure 90
1000
0000
0000
0000
,  // measure 91
0001
0000
1000
0000
,  // measure 92
0001
0000
0000
0000
,  // measure 93
1001
0000
0000
0000
,  // measure 94
1000
0000
0100
0000
,  // measure 95
0010
0000
0001
0000
,  // measure 96
0001
0000
0010
0000
,  // measure 97
0100
0000
1000
0000
,  // measure 98
1000
0000
0010
0000
,  // measure 99
0100
0000
0001
0000
,  // measure 100
0001
0000
0100
0000
,  // measure 101
0010
0000
1000
0000
;

//---------------dance-single - ----------------
#NOTES:
     dance-single:
     :
     Easy:
     6:
     0.430305,0.743895,0.243700,0.272944,0.000000,309.000000,284.000000,25.000000,28.000000,0.000000,0.000000,0.430305,0.743895,0.243700,0.272944,0.000000,309.000000,284.000000,25.000000,28.000000,0.000000,0.000000:
0000
0000
0000
0000
,
0000
0000
0000
0000
,
1000
0100
1000
0010
,
0100
0001
0100
0010
,
1000
0010
0100
0001
,
0010
0001
1001
0110
,
1000
0010
0100
0001
,
1000
0100
0010
0001
,
0010
0100
1000
0001
,
0100
0010
0110
1001
,
1000
0100
2000
0000
,
3010
0010
0100
0100
,
0001
0010
0002
0000
,
0103
0100
0010
1000
,
0100
1000
0020
0000
,
1030
0001
0200
0000
,
0301
0010
0100
1000
,
0010
0100
0001
1000
,
0100
0100
0010
0010
,
0001
0001
1000
1000
,
0100
1000
0000
1000
0100
0010
0000
0010
,
0001
0100
0000
0100
0010
0000
0000
0020
,
0130
0100
0100
0100
,
0100
0100
0100
1001
,
0010
0010
0010
0010
,
0010
0010
0010
1001
,
0110
1000
1000
1000
,
0010
0100
0010
0000
0100
0001
1000
0000
,
0100
0010
0100
0010
0100
0000
0110
0000
,
2002
0000
0000
3000
,
0103
0000
0010
0000
,
1000
0000
0100
0000
,
0010
0000
0100
0000
,
1000
0000
0010
0000
,
0100
0000
0001
0000
,
0010
0000
0100
0000
,
0010
0000
0001
0000
,
0100
0000
0010
0000
,
1000
0000
1000
0000
,
0001
0000
0001
0000
,
0010
0000
0001
0000
,
1000
0000
0100
0000
,
0010
0000
0010
0000
,
0100
0000
0100
0000
,
2002
0000
0000
0000
,
3003
0000
0110
0000
,
2000
0000
3100
0000
,
0002
0000
0103
0000
,
2000
0000
3100
0000
,
0002
0000
0103
0000
,
0020
0000
0031
0000
,
0200
0000
0301
0000
,
0020
0000
0031
0000
,
0200
0000
0320
0000
,
2030
0000
3010
0000
,
0002
0000
0013
0000
,
2000
0000
3010
0000
,
0002
0000
0013
0000
,
2000
0000
3200
0000
,
0320
0000
0032
0000
,
1003
0000
0001
0000
,
0110
0000
1001
0000
,
1000
0000
0100
1000
,
0100
0000
0010
0000
,
0001
0000
0100
0001
,
0100
0000
0010
0000
,
1000
0000
0010
0100
,
0001
0000
0100
0000
,
0001
0000
0010
0100
,
1000
0000
0100
0000
,
1000
0000
0010
0100
,
0010
0000
1000
0000
,
0001
0000
0100
0010
,
0100
0000
0001
0000
,
1000
0000
0100
0000
,
0010
0000
0001
0000
,
1000
0001
1000
0001
,
1000
0000
0110
0000
,
0001
0000
0010
0100
,
1000
0000
1001
0000
,
1000
0000
0010
0100
,
0001
0000
1001
0000
,
0010
0000
0001
0100
,
0010
0000
0110
0000
,
0100
0000
0010
1000
,
0100
0000
0110
0000
,
0010
0000
0001
1000
,
0100
0000
1000
0000
,
0010
0000
1000
0001
,
0100
0000
0010
0000
,
1000
0000
0010
0000
,
0100
0000
0001
0000
,
0011
0000
0101
0000
,
1010
0000
1100
0000
,
0110
0001
0100
0010
,
1000
0010
0100
0010
,
1000
0100
0010
0100
,
0001
0100
0010
0100
,
1000
0010
0100
0001
,
0001
0010
0100
1000
,
0001
1000
0001
1000
0010
0000
0110
0000
,
2002
0000
3003
0100
;

//---------------dance-single - ----------------
#NOTES:
     dance-single:
     :
     Medium:
     9:
     0.593236,1.239825,0.214456,0.068236,0.053614,426.000000,404.000000,22.000000,7.000000,0.000000,0.000000,0.593236,1.239825,0.214456,0.068236,0.053614,426.000000,404.000000,22.000000,7.000000,0.000000,0.000000:
0000
0000
0000
0000
,
0000
0000
0000
0000
,
1000
0100
0010
0000
1000
0010
0100
0000
,
0001
0100
0010
0000
0001
0010
0100
0000
,
1000
0001
0010
0000
0001
0010
0100
0000
,
0001
1000
0010
0000
1000
0010
0100
0000
,
1000
0010
0100
0001
,
0100
0010
1000
0001
,
0010
0001
1000
0100
1000
0001
0010
0001
,
0200
0000
0000
0000
0000
0300
1001
0000
,
1000
0000
0100
0000
0010
0100
0010
0000
,
0001
0000
0010
0100
1000
0001
0010
0000
,
0001
0000
0100
0000
0010
1000
0010
0000
,
1000
0000
0100
0010
0001
1000
0100
0010
,
0001
0000
1000
0000
0010
0100
0001
0000
,
1000
0000
0100
0000
0010
0100
1000
0000
,
0001
0100
0001
0000
1000
0010
1000
0000
,
0100
0010
0100
1000
0001
0100
0010
0000
,
0100
0001
1000
0010
0100
0001
1000
0010
,
0100
0001
1000
0010
0100
0010
1000
0001
,
1000
0100
1000
0010
0000
0100
0010
0100
0001
0100
0001
0010
0000
0100
0010
0100
,
1000
0100
0010
0000
0001
0100
0010
0000
1000
0000
0000
0001
0000
0000
0010
0000
,
2100
0100
0100
0100
,
0100
0100
0100
3002
,
1000
0010
0010
0010
,
0010
0010
0010
2003
,
3001
0101
1000
1100
,
0001
0011
1000
1010
,
1000
0010
0001
0010
1000
0100
0001
0100
,
2000
0000
0000
0000
,
3001
0100
0001
0100
,
0001
0100
0010
0000
,
1000
0100
1000
0100
,
1000
0100
0010
0000
,
0001
0010
1000
0010
,
0001
0010
0100
0000
,
1000
0010
0001
0010
,
1000
0010
0100
0000
,
0001
0100
0010
1000
,
0001
1000
0100
0000
,
1000
0100
0010
0001
,
1000
0001
0100
0000
,
0001
0010
0100
1000
,
0010
0100
0001
0100
,
0010
1000
0001
0010
,
0100
1000
0001
0000
,
1000
0100
1000
0100
,
0010
0001
0010
0000
,
0001
0100
0001
0100
,
0010
1000
0010
0000
,
1000
0010
0100
0010
,
1000
0010
0100
0000
,
0001
0010
0100
0010
,
0001
0010
0100
0000
,
1000
0100
1000
0100
,
0001
0100
0001
0100
,
1000
0010
1000
0010
,
0001
0010
0001
0010
,
1000
0100
0010
0001
,
0010
0100
1000
0001
,
0200
0000
0000
0000
,
0300
0000
1001
0000
,
1000
0000
0100
1000
,
0010
0000
0110
0000
,
0001
0000
0100
0001
,
0010
0000
0110
0000
,
0001
0000
1000
0100
,
0010
0000
0011
0000
,
1000
0000
0001
0100
,
0010
0000
1010
0000
,
1000
0000
0010
0100
,
0001
0000
1100
0000
,
0001
0000
0010
0100
,
1000
0000
0101
0000
,
0001
0100
0010
0000
,
1000
0100
0010
0000
,
0001
0000
1000
0000
,
0010
0100
0010
0100
,
0001
0000
1000
0100
,
0001
0100
1000
0010
,
1000
0000
0001
0100
,
1000
0100
0001
0010
,
0001
0000
1000
0100
,
0010
1000
0010
0100
,
1000
0000
0001
0100
,
0010
0001
0010
0100
,
0001
0000
0101
0000
,
1010
0000
1100
0000
,
0011
0000
1001
0000
,
0110
0000
1001
0000
,
1000
0100
0010
0100
,
1000
0001
0010
0100
,
0010
0001
1000
0001
,
1000
0001
0010
0000
,
1001
0100
1000
0010
,
0100
0000
0010
0000
1000
0000
0010
0100
,
0001
0100
0001
0010
,
0100
0000
0010
0000
0001
0000
1000
0100
,
0010
0001
1000
0100
,
1000
0100
1000
0100
0010
0001
0010
0001
,
0100
0001
0100
0001
1000
0010
1000
0010
,
0200
0000
0000
0000
0000
0300
1001
0000
;

//---------------dance-single - ----------------
#NOTES:
     dance-single:
     :
     Hard:
     11:
     0.828581,1.640591,0.350929,0.136472,0.214456,595.000000,559.000000,36.000000,14.000000,0.000000,0.000000,0.828581,1.640591,0.350929,0.136472,0.214456,595.000000,559.000000,36.000000,14.000000,0.000000,0.000000:
0000
0000
0000
0000
,
0000
0000
0000
0000
,
1000
0100
0010
0100
1000
0010
0100
0010
,
1000
0001
0010
0100
0010
0001
1000
0000
,
0001
0100
0010
0100
0001
0010
0100
0010
,
0001
1000
0010
0100
0010
1000
0001
0010
,
0100
1000
0001
1000
0010
0100
0001
0010
,
0001
1000
0010
1000
0100
0010
0001
0000
,
0001
0010
0100
1000
0010
0100
0001
1000
,
0100
0010
0100
0010
0001
0000
1000
0000
0010
0100
0010
0100
0001
0000
0000
0000
,
2000
3200
0302
0203
,
1300
0000
0010
0000
0100
0000
0010
0000
0001
0000
0010
0000
0100
0000
0010
1000
,
0002
0203
2300
3200
,
0301
0000
0010
0000
0100
0000
1000
0000
0010
0000
0100
0000
0001
0000
1000
0100
,
0010
0001
0100
0001
0010
0001
0100
0000
,
0010
1000
0100
1000
0010
1000
0100
0000
,
1000
0010
0100
0001
0010
0100
1000
0010
,
0100
0001
0100
0001
1000
0001
1000
0001
1000
0010
1000
0010
0200
0000
0000
0000
,
0301
0010
1000
0010
0001
0100
1000
0100
,
0001
0010
0100
1000
1000
0100
0010
0001
,
0100
0000
0001
0000
0100
0000
0010
0100
0010
0000
1000
0000
0100
0000
0000
0000
0100
0000
1000
0000
0100
0000
0010
0100
0010
0000
0001
0000
0100
0000
0001
0000
,
0010
0000
0100
0000
1000
0000
0010
0000
0100
0000
0001
0000
1000
0000
0100
0000
0010
0000
0000
0001
0000
0000
1000
0000
0000
0100
0000
0000
0110
0000
0000
0000
,
0101
1100
0101
1100
,
0101
0000
1100
0000
0101
0000
0010
0010
,
0011
1010
0011
1010
,
0011
0000
1010
0000
0011
0000
0100
0100
,
1100
1010
1100
1010
,
0101
0011
0101
0011
,
0001
0010
0001
0010
0100
1000
0100
1000
0010
0100
0001
1000
0010
0100
0001
1000
,
0020
0000
0000
0000
,
1030
0100
1000
0100
1000
0000
0001
0000
,
0100
0010
1000
0000
,
0001
0100
0001
0100
0001
0000
1000
0000
,
0010
0100
0010
1000
,
0100
0010
0100
0010
0100
0000
1000
0000
,
0001
0010
0100
0000
,
0010
0001
0010
0001
0010
0000
0100
0000
,
1000
0010
0200
0000
,
0301
0100
0001
0000
0010
0000
0100
0000
,
1000
0100
1000
0000
0010
0000
0100
0000
,
0001
0010
0001
0000
0100
0000
0010
0000
,
1000
0010
1000
0000
0100
0000
0010
0000
,
0001
0000
0100
0000
0010
0000
1000
0001
,
1000
0001
1000
0000
0010
0000
0100
0000
,
0001
1000
0001
0000
0010
0000
0100
0000
,
1000
0001
1000
0001
0100
0000
0000
0000
,
0101
0001
0100
0000
,
1010
1000
0010
0000
,
1100
1000
0100
0000
,
0011
0001
0010
0000
,
1001
1000
0001
0000
,
0110
0010
0100
0000
,
0110
0010
1000
0001
,
0100
0001
1001
0000
,
1100
0010
0001
0000
,
0101
0010
1000
0000
,
1010
0100
0001
0000
,
0011
0100
1000
0000
,
1000
0010
1000
0000
0001
0100
0001
0000
,
0010
0001
0010
0000
0100
1000
0100
0000
,
0220
0000
0000
0330
,
1000
0001
1000
0001
0100
0010
0100
0010
,
1000
0000
0000
0000
0001
0100
0001
0100
,
0010
0000
0000
0010
0000
0000
1000
0000
,
0001
0000
0000
0000
1000
0100
1000
0100
,
0010
0000
0000
0000
0001
0010
0100
1000
,
0100
0000
0000
0000
0010
0001
0010
0001
,
1000
0000
0000
1000
0000
0000
0100
0000
,
1000
0000
0000
0000
0010
1000
0010
1000
,
0001
0010
0100
0010
,
0001
0000
0000
0000
0100
0001
0100
0001
,
1000
0000
0000
0100
0000
0000
1000
0000
,
0010
0000
0000
0000
1000
0001
1000
0001
,
0010
0000
0000
0100
0000
0000
0010
0000
,
0001
0000
0000
0000
1000
0010
1000
0010
,
0100
0000
0000
0001
0000
0000
1000
0000
,
0010
0000
0000
0100
0000
0000
0001
0010
,
0001
1000
0001
1000
0010
0000
0100
0000
,
0001
0000
0000
0000
0100
0010
0100
0010
,
1000
0000
0000
1000
0000
0000
0010
0000
,
1000
0000
0000
0000
0100
0010
0100
0010
,
0001
0000
1000
0000
0001
0010
0001
0010
,
0100
0000
0000
0000
1000
0010
1000
0010
,
0100
0000
0000
0100
0000
0000
0010
0000
,
1000
0000
0000
0000
0001
0010
0001
0010
,
0100
0000
0000
0100
0000
0000
0010
0000
,
0001
0000
1000
0000
0100
1000
0100
0000
,
1000
0000
0001
0000
0100
0001
0100
0000
,
0001
0000
0010
0000
0100
1000
0100
0000
,
1000
0000
0010
0000
0100
0001
0100
0000
,
0001
0000
0000
0000
0100
0001
0100
0001
,
1000
0000
0000
0000
0010
1000
0010
1000
,
0001
0000
0000
0100
0000
0000
0010
1000
,
0010
0000
0000
0100
0000
0000
0001
0000
,
1000
0100
1000
0100
0001
0100
0010
0000
,
0001
0100
0001
0100
1000
0100
0010
0000
,
1000
0010
1000
0010
0001
0010
0100
0000
,
0001
0000
0010
0000
0001
0000
0010
0000
1000
0000
0010
0000
0100
0010
0100
0010
,
0001
0010
1000
0010
0001
0100
1000
0100
,
0001
0010
0100
0001
0100
0010
0001
1000
,
0010
0100
1000
0100
0010
1000
0001
0100
,
0010
1000
0010
1000
0001
0100
0001
0100
0010
0100
0001
1000
0020
0000
0000
0000
,
0030
0000
0000
0000
;
