#TITLE:Carry On Carry On;
#SUBTITLE:;
#ARTIST:Nuage;
#TITLETRANSLIT:;
#SUBTITLETRANSLIT:;
#ARTISTTRANSLIT:;
#GENRE:SUPER EUROBEAT;
#CREDIT:;
#BANNER:;
#BACKGROUND:;
#LYRICSPATH:;
#CDTITLE:;
#MUSIC:Carry On Carry On.ogg;
#OFFSET:0.000000;
#SAMPLESTART:78.339996;
#SAMPLELENGTH:13.340000;
#SELECTABLE:YES;
#BPMS:0.000000=149.990005
,95.000000=74.995003
,97.000000=149.990005
;
#STOPS:63.250000=0.200000,
94.750000=0.200000,
128.250000=0.200000
;
#BGCHANGES:;
#KEYSOUNDS:;
#ATTACKS:;

//---------------dance-single - ----------------
#NOTES:
     dance-single:
     :
     Challenge:
     9:
     0.686279,0.730108,0.177611,0.059204,0.431341,540.000000,21.000000,7.000000,0.000000,0.000000,0.000000,0.686279,0.730108,0.177611,0.059204,0.431341,540.000000,21.000000,7.000000,0.000000,0.000000,0.000000:
// measure 0
0000
0000
0000
0000
,  // measure 1
0000
0000
0000
0000
,  // measure 2
0000
0000
0000
0000
,  // measure 3
0000
0000
0000
0000
,  // measure 4
1000
0000
1000
0000
0100
0000
1000
0000
0001
0100
0001
0100
0001
0100
0001
0100
,  // measure 5
0010
0000
0010
0000
1000
0000
0001
0000
1000
0100
0000
0100
0000
1000
0100
0000
,  // measure 6
0010
0000
0010
0000
0100
0000
0010
0000
0001
0010
0001
0010
0001
0010
0001
0010
,  // measure 7
0001
0000
1000
0000
0010
0000
0100
0000
0001
0010
0001
0010
0100
1000
0100
1000
,  // measure 8
0001
0100
0010
0010
,  // measure 9
1000
0100
0010
0010
,  // measure 10
0001
0000
0000
0010
0000
0000
0100
0000
1000
0000
0001
0000
1000
0000
0001
0000
,  // measure 11
0100
0000
0010
0000
1000
0100
0001
0000
,  // measure 12
0100
1000
0000
0010
0000
1000
0100
0010
,  // measure 13
0001
0100
0000
0010
0000
0100
1000
0100
,  // measure 14
0001
1000
0000
0100
0000
0010
0100
0010
,  // measure 15
0001
0000
0100
0000
1000
0000
0000
0100
0000
0000
0001
0000
1000
0100
0010
0000
,  // measure 16
0001
0000
0001
0100
0010
1000
0100
0010
,  // measure 17
0100
0000
0100
1000
0010
0100
0001
1000
,  // measure 18
0100
1000
0100
0001
0100
1000
0010
0001
,  // measure 19
0000
0010
0000
1000
0100
0001
0000
0100
,  // measure 20
1000
0000
1000
0000
0010
1000
0100
1000
,  // measure 21
0001
0000
0001
0000
0010
0001
0100
0001
,  // measure 22
1000
0100
1000
0010
0100
1000
0100
0001
,  // measure 23
0010
0000
0000
0000
0100
0000
0000
0000
0000
0000
1000
0000
0000
0000
0000
0000
0010
0000
0000
0000
0100
0000
0001
0000
1000
0100
0000
1000
0000
0010
0100
0000
,  // measure 24
0001
0001
1000
1000
0010
0000
0100
0001
0000
0100
0001
0000
0010
0000
0100
1000
,  // measure 25
0000
0100
1000
0001
0100
0000
0010
0100
0000
0010
0100
0000
1000
0000
0100
0010
,  // measure 26
0000
0100
0010
0000
1000
0000
1000
0000
0100
0010
0000
0100
0010
0000
0010
0000
,  // measure 27
0001
1000
0000
0001
1000
0010
1000
0010
0100
0001
0000
0000
0001
0010
0001
0010
,  // measure 28
0100
1000
0000
0000
0001
0000
0100
0010
0000
0100
0010
0000
1000
0000
0100
0010
,  // measure 29
0000
0100
0010
0001
0010
0000
1000
0010
0000
1000
0010
0000
0001
0000
0010
0100
,  // measure 30
0000
0100
0010
0000
0001
0000
0001
0000
1000
0010
0000
0010
0100
0000
0100
0000
,  // measure 31
0001
1000
0001
1000
0100
0010
0100
0010
0001
1000
0000
0000
0010
0100
0010
0100
,  // measure 32
0001
1000
0100
0000
0010
0000
0001
0000
1000
0000
0001
0000
0100
0000
1000
0000
,  // measure 33
0100
0001
0010
0100
0010
1000
0010
0001
,  // measure 34
1000
0010
0001
0010
0100
0001
0010
0100
,  // measure 35
0200
0000
1300
0001
1000
0010
0100
0001
,  // measure 36
0000
1000
0100
0001
0100
1000
0010
1000
,  // measure 37
0010
0100
1000
0100
0001
0010
0100
0010
,  // measure 38
0100
0001
0100
1000
0010
0001
1000
0100
,  // measure 39
0010
1000
0100
0001
0100
1000
0010
0100
,  // measure 40
0001
1001
0000
0001
0010
1000
0010
0001
,  // measure 41
0010
0100
0010
0100
0001
0100
1000
1010
,  // measure 42
0000
0110
0100
0010
0100
0001
0010
0100
,  // measure 43
0010
0002
0000
0103
0020
0000
1030
0001
,  // measure 44
0000
1100
0000
0010
0001
1000
0010
0001
,  // measure 45
0010
0100
0001
0010
0100
0000
0100
0010
,  // measure 46
0001
1000
0010
0100
1000
0100
1000
0100
,  // measure 47
0001
0010
1100
0101
,  // measure 48
0000
1100
0100
0110
0000
0101
0100
0110
,  // measure 49
0000
1000
0010
0100
0001
0010
0100
0110
,  // measure 50
0000
1000
0010
0001
0010
0100
1000
0100
,  // measure 51
0001
1000
0010
0001
1000
0100
0001
0010
,  // measure 52
0000
0100
0010
1000
0000
0010
0001
0100
,  // measure 53
0010
1000
1100
0101
,  // measure 54
0001
0010
0000
1000
0010
0001
1000
0010
,  // measure 55
0001
0020
0000
0130
0010
0000
1000
0001
,  // measure 56
0000
0110
0100
1100
0000
0110
0100
0101
,  // measure 57
0000
0010
1000
0100
0001
0100
1000
0010
,  // measure 58
0000
0100
0001
0010
1000
0001
0100
1000
,  // measure 59
0010
0001
1000
0100
0001
0010
0100
0010
,  // measure 60
0000
0100
0010
1000
0000
0010
0001
1000
,  // measure 61
0010
0100
0101
1100
,  // measure 62
0001
0100
0000
0010
1000
0100
0010
0001
,  // measure 63
0000
0000
2020
0000
0000
3030
0000
0000
0102
0000
0000
0000
1000
0000
0000
0000
,  // measure 64
0000
0000
0103
0000
0010
1000
0000
0010
1000
0000
0100
0000
0010
0001
0000
0010
,  // measure 65
0001
1000
0010
0000
0100
0010
0000
0100
0010
0000
0001
0000
0010
0100
0000
0010
,  // measure 66
0100
0000
0001
0000
0001
0000
0010
0100
0000
0010
0100
0000
0100
0000
1000
0001
,  // measure 67
0000
1000
0001
0100
0001
0100
0010
1000
0000
0000
1000
0100
1000
0100
0010
0001
,  // measure 68
0000
0000
1000
0000
0010
0100
0000
0010
0100
0000
0001
0000
0010
0100
0000
0010
,  // measure 69
0100
1000
0100
0000
0001
0100
0000
0001
0100
0000
1000
0000
0100
0010
0000
0010
,  // measure 70
0100
0000
1000
0000
1000
0000
0001
0100
0000
0100
0010
0000
0010
0000
1000
0001
,  // measure 71
1000
0001
0010
0100
0010
0100
1000
0001
0000
0000
0100
0010
0100
0010
1000
0001
;

//---------------dance-single - ----------------
#NOTES:
     dance-single:
     :
     Hard:
     8:
     0.571496,0.517160,0.312933,0.143780,0.105721,419.000000,37.000000,17.000000,0.000000,0.000000,0.000000,0.571496,0.517160,0.312933,0.143780,0.105721,419.000000,37.000000,17.000000,0.000000,0.000000,0.000000:
// measure 0
0000
0000
0000
0000
,  // measure 1
0000
0000
0000
0000
,  // measure 2
0000
0000
0000
0000
,  // measure 3
0000
0000
0000
0000
,  // measure 4
1000
0000
0100
0000
1000
0000
0000
0000
0001
0000
0000
0001
0000
0000
0001
0000
,  // measure 5
0100
0000
0010
0000
0100
0000
0000
0000
0010
0000
0000
0010
0000
0000
0010
0000
,  // measure 6
1000
0000
0001
0000
1000
0000
0000
0000
0100
0000
0000
0100
0000
0000
0100
0000
,  // measure 7
0020
0000
0000
0000
0000
0000
0000
0030
,  // measure 8
0002
0000
0000
0103
0000
0000
0010
0000
0000
0000
1000
0000
0000
0000
0001
0000
,  // measure 9
2000
0000
0000
3100
0000
0000
0010
0000
0000
0000
0001
0000
0000
0000
1000
0000
,  // measure 10
0002
0000
0000
0013
0000
0000
0100
0000
0000
0000
1000
0000
0000
0000
0001
0000
,  // measure 11
1000
0010
0110
1001
,  // measure 12
0002
0000
0000
0013
0000
0000
0100
0000
0000
0000
1000
0000
0000
0000
0010
0000
,  // measure 13
2000
0000
0000
3010
0000
0000
0100
0000
0000
0000
0001
0000
0000
0000
1000
0000
,  // measure 14
0002
0000
0000
0013
0000
0000
0100
0000
0000
0000
1000
0000
0000
0000
0001
0000
,  // measure 15
0100
0000
0010
0000
1010
0000
0101
2000
,  // measure 16
0000
3010
0000
0000
0100
0000
0000
0000
0001
0000
0000
0000
1000
0000
0002
0000
,  // measure 17
0000
0013
0000
0000
0100
0000
0000
0000
1000
0000
0000
0000
0001
0000
2000
0000
,  // measure 18
0000
3100
0000
0000
0010
0000
0000
0000
0001
0000
0000
0000
1000
0000
0001
0000
,  // measure 19
0000
0100
0000
0110
0000
1001
0000
2000
,  // measure 20
0000
3100
0000
0000
0010
0000
0000
0000
0001
0000
0000
0000
0100
0000
0002
0000
,  // measure 21
0000
0103
0000
0000
0010
0000
0000
0000
1000
0000
0000
0000
0001
0000
2000
0000
,  // measure 22
0000
3100
0000
0000
0010
0000
0000
0000
0001
0000
0000
0000
1000
0000
0010
0000
,  // measure 23
0100
0000
0010
0000
0000
1000
0000
0000
0100
0000
0010
0001
0200
0000
0000
0000
,  // measure 24
0000
0000
0310
0100
1000
0100
0001
0100
,  // measure 25
0001
0010
0100
0001
0100
1000
0010
1000
,  // measure 26
0010
0100
0001
1000
1100
0000
1000
0001
,  // measure 27
0101
0000
0000
0000
0001
0000
0100
0000
0010
1000
0000
0000
1000
0000
0100
0000
,  // measure 28
0010
0001
0000
0000
0010
0000
0100
0000
0001
0000
0100
0000
1000
0000
0100
0000
,  // measure 29
1000
0010
0100
1000
0100
0001
0010
0001
,  // measure 30
0010
0100
1000
0001
0101
0000
0001
1000
,  // measure 31
1100
0000
0000
0000
1000
0000
0100
0000
0010
0001
0000
0000
0001
0000
0100
0000
,  // measure 32
0010
1000
0100
0000
0010
0000
0000
0000
0010
0000
0001
0000
0010
0000
1000
0000
,  // measure 33
0010
0100
0010
0000
0010
0001
1000
0001
,  // measure 34
0100
1000
0100
0000
0100
0001
1000
0001
,  // measure 35
0020
0000
0130
0010
1000
0010
0000
0001
,  // measure 36
0100
0010
0100
0000
0100
1000
0100
0001
,  // measure 37
0100
0010
0100
0000
0100
0001
1000
0001
,  // measure 38
0010
0100
0010
0000
0100
1000
0001
0000
,  // measure 39
0100
0010
1000
0000
0001
0010
0100
0010
,  // measure 40
0001
1001
0000
1000
0010
0001
0010
0100
,  // measure 41
1000
0100
0000
0001
1000
0100
0000
1100
,  // measure 42
0000
0011
0000
0001
0010
1000
0010
0100
,  // measure 43
0001
0100
0000
1000
0001
0100
0000
0010
,  // measure 44
0000
1010
0000
0001
0100
1000
0100
0010
,  // measure 45
0001
0010
0000
1000
0001
0010
0000
0100
,  // measure 46
0000
0110
0000
0001
1000
0100
1000
0010
,  // measure 47
0100
0001
0011
1100
,  // measure 48
0000
1010
1000
0100
0000
0011
0001
0100
,  // measure 49
0000
0010
1000
0100
0010
0001
0100
0010
,  // measure 50
0000
1000
0010
0100
0001
0010
0001
0010
,  // measure 51
0001
0100
1000
0100
0010
1000
0100
0010
,  // measure 52
0000
0001
0100
0010
0000
1000
0100
0010
,  // measure 53
0011
1100
1010
0101
,  // measure 54
0001
1000
0000
0001
0100
1000
0100
0001
,  // measure 55
0000
0011
0000
0100
0120
0000
0130
0010
,  // measure 56
0000
0011
0001
0100
0000
1010
1000
0100
,  // measure 57
0000
0010
0001
0100
0010
1000
0100
0010
,  // measure 58
0000
0100
1000
0100
1000
0010
0100
0001
,  // measure 59
0010
1000
0001
0100
1000
0010
0100
0001
,  // measure 60
0000
1000
0100
0010
0000
0001
0100
0010
,  // measure 61
1010
0101
0011
1100
,  // measure 62
1000
0001
0100
1000
0100
0001
0100
0010
,  // measure 63
1000
1100
0000
0000
0102
0000
1000
0003
,  // measure 64
0000
0100
0010
0001
0010
1000
0010
1000
,  // measure 65
0100
0010
1000
0010
0001
0100
0001
0100
,  // measure 66
0010
1000
0001
0011
0000
0001
1000
1010
,  // measure 67
0000
0000
1000
0000
0010
0000
0100
0001
0000
0000
0001
0000
0010
0000
0100
1000
,  // measure 68
0000
0100
0010
1000
0010
0001
0010
0001
,  // measure 69
0100
0010
0001
0010
1000
0100
1000
0100
,  // measure 70
0010
0001
1000
1010
0000
1000
0001
0011
,  // measure 71
0000
0000
0001
0000
0010
0000
0100
1000
0000
0000
1000
0000
0010
0000
0100
0001
;

//---------------dance-single - ----------------
#NOTES:
     dance-single:
     :
     Medium:
     6:
     0.444631,0.425526,0.228357,0.118407,0.004229,327.000000,27.000000,14.000000,0.000000,0.000000,0.000000,0.444631,0.425526,0.228357,0.118407,0.004229,327.000000,27.000000,14.000000,0.000000,0.000000,0.000000:
// measure 0
0000
0000
0000
0000
,  // measure 1
0000
0000
0000
0000
,  // measure 2
0000
0000
0000
0000
,  // measure 3
0000
0000
0000
0000
,  // measure 4
1000
0100
0020
0030
,  // measure 5
0001
0100
0020
0030
,  // measure 6
1000
0100
0020
0030
,  // measure 7
2002
0000
0000
0000
0000
0000
0000
0000
0000
0000
0000
0000
0000
0003
3000
0000
,  // measure 8
0001
0100
0010
0010
,  // measure 9
1000
0100
0010
0010
,  // measure 10
0001
0100
0010
1000
,  // measure 11
0001
0010
1100
0101
,  // measure 12
2000
3100
0010
0010
,  // measure 13
0002
0000
0000
0000
0100
0000
0000
0003
0010
0000
0000
0000
0010
0000
0000
0000
,  // measure 14
0200
1000
0310
0010
,  // measure 15
0001
0000
0100
0000
0010
0000
1001
1000
,  // measure 16
0000
0100
0000
0010
0000
0001
0000
1000
,  // measure 17
0000
0010
0000
0100
0010
0100
0000
0001
,  // measure 18
0000
0010
0000
0100
0000
1000
0001
0100
,  // measure 19
0000
0010
0000
1010
0000
0101
0000
1000
,  // measure 20
0000
0100
0000
0010
0001
1000
0000
0001
,  // measure 21
0000
0100
0000
0001
0010
0100
0000
1000
,  // measure 22
0001
0100
0000
0010
1000
0100
0000
0010
,  // measure 23
0100
0000
0010
0000
0000
0001
0000
0000
1000
0000
0010
0000
0100
0000
0000
0000
,  // measure 24
0000
1000
1000
0001
,  // measure 25
0001
0000
0010
0000
0010
0000
0100
1000
,  // measure 26
0010
0000
0100
0001
0010
0000
0001
1000
,  // measure 27
0010
0000
1000
0100
0010
0000
0100
1000
,  // measure 28
0010
0100
0001
0010
,  // measure 29
0100
0000
1000
0000
0001
0000
1000
0010
,  // measure 30
1000
0000
0001
0010
0100
0000
1000
0010
,  // measure 31
0001
0000
0010
0100
0010
0000
1000
0100
,  // measure 32
0010
0001
0000
0001
0000
1000
0010
0100
,  // measure 33
0000
0010
0000
0010
0000
0100
0001
0010
,  // measure 34
0000
0100
1000
0010
0000
1000
0001
0010
,  // measure 35
0000
0001
1000
0010
0000
1000
0100
0010
,  // measure 36
0000
0100
0000
0100
0000
1000
0001
0100
,  // measure 37
0000
0010
0000
0010
0000
0100
0001
0010
,  // measure 38
0000
0100
1000
0001
0000
0100
0001
0010
,  // measure 39
0000
0100
1000
0010
0000
0100
0001
1000
,  // measure 40
0000
1100
0000
0010
0000
0001
1000
0010
,  // measure 41
0000
0101
0000
1010
0000
1100
0000
0011
,  // measure 42
0000
1001
0000
0010
0000
0100
0001
0010
,  // measure 43
0000
0100
0000
0010
0001
0100
0001
1000
,  // measure 44
0000
1010
0000
1100
0000
0001
1000
0010
,  // measure 45
0000
0102
0000
0010
0000
1000
0000
0103
,  // measure 46
0000
2010
0000
0001
0000
0100
0000
3001
,  // measure 47
0010
0100
1001
0110
,  // measure 48
0000
1000
0100
0010
0000
0001
0100
0010
,  // measure 49
0000
0010
1000
0001
0010
0000
0100
1000
,  // measure 50
0000
1000
0100
0010
0001
0000
0001
0000
,  // measure 51
0100
0010
1000
0001
,  // measure 52
1000
0100
0000
0010
0100
1000
0001
0000
,  // measure 53
0101
1010
1100
0011
,  // measure 54
0000
1001
0000
2000
0000
3002
0000
0023
,  // measure 55
0000
0230
0000
1300
0001
0000
0001
0100
,  // measure 56
0000
0010
1000
0001
0000
0010
0001
1000
,  // measure 57
0000
0010
0100
0001
1000
0000
0100
0010
,  // measure 58
0000
0100
1000
0010
0100
0000
0001
0000
,  // measure 59
1000
0100
0001
0100
,  // measure 60
1000
0001
0000
0100
0010
1000
0001
0000
,  // measure 61
0010
0100
1100
0101
,  // measure 62
0001
1000
0000
0010
1000
0100
0010
0000
,  // measure 63
0000
0011
0000
0000
1100
0000
0000
0000
,  // measure 64
0000
1000
0000
1000
0000
0001
0000
0001
,  // measure 65
0000
0010
0000
0010
0000
0100
1000
0010
,  // measure 66
0000
0100
0001
0010
0000
0001
1000
0010
,  // measure 67
0000
1000
0100
0010
0000
0100
1000
0010
,  // measure 68
0000
0100
0000
0001
0000
0010
0000
0100
,  // measure 69
0000
1000
0000
0001
0000
1000
0010
1000
,  // measure 70
0000
0001
0010
0100
0000
1000
0010
0001
,  // measure 71
0000
0010
0100
0010
0000
1000
0100
0010
;

//---------------dance-single - ----------------
#NOTES:
     dance-single:
     :
     Beginner:
     1:
     0.108741,0.090233,0.000000,0.000000,0.000000,90.000000,0.000000,0.000000,0.000000,0.000000,0.000000,0.108741,0.090233,0.000000,0.000000,0.000000,90.000000,0.000000,0.000000,0.000000,0.000000,0.000000:
0000
0000
0000
0000
,
0000
0000
0000
0000
,
0000
0000
0000
0000
,
0000
0000
0000
0000
,
1000
0000
0000
0000
,
0001
0000
0000
0000
,
1000
0000
0000
0000
,
0001
0000
0000
0000
,
0100
0000
0000
0000
,
0100
0000
0000
0000
,
0100
0000
0000
0000
,
0010
0000
0010
0000
,
1000
0000
0000
0000
,
1000
0000
0000
0000
,
1000
0000
0000
0000
,
0001
0000
0001
0000
,
0000
0000
0000
0000
0000
0000
0000
0010
,
0000
0000
0000
0000
0000
0000
0000
0010
,
0000
0000
0000
0000
0000
0000
0000
0100
,
0000
0000
0000
0100
0000
0000
0000
1000
,
0000
0000
0000
0000
0000
0000
0000
1000
,
0000
0000
0000
0000
0000
0000
0000
1000
,
0000
0000
0000
0000
0000
0000
0000
0001
,
0000
0001
0000
1000
0000
0000
0000
0000
,
0000
0100
0000
0100
,
0000
0100
0000
0000
,
0000
0001
0000
1000
,
0000
0001
0000
0000
,
0000
0010
0000
0010
,
0000
0010
0000
0000
,
0000
0001
0000
1000
,
0000
0001
0000
0000
,
0000
0100
0000
0000
0000
0000
0000
0000
,
0000
0010
0000
0000
0000
0000
0000
0000
,
0000
1000
0000
0000
0000
0000
0000
0000
,
0000
0001
0000
0000
0000
0000
0000
0000
,
0000
0010
0000
0000
0000
0000
0000
0000
,
0000
0100
0000
0000
0000
0000
0000
0000
,
0000
1000
0000
0000
0000
0000
0000
0000
,
0000
0001
0000
0000
0000
0000
0000
0000
,
0000
0100
0000
0000
0000
0000
0000
0000
,
0000
0010
0000
0000
0000
0010
0000
0000
,
0000
1000
0000
0000
0000
0000
0000
0000
,
0000
0100
0000
0000
0000
0100
0000
0000
,
0000
1000
0000
0000
0000
0000
0000
0000
,
0000
0100
0000
0000
0000
0100
0000
0000
,
0000
0010
0000
0000
0000
0000
0000
0000
,
0000
0000
0000
0000
,
0000
0001
0000
0000
0000
1000
0000
0000
,
0000
0001
0000
0000
0000
0000
0000
0000
,
0000
0100
0000
0000
0000
0100
0000
0000
,
0000
0100
0000
0000
0000
0000
0000
0000
,
0000
0010
0000
0000
0000
0010
0000
0000
,
0000
1000
0000
0000
0000
0000
0000
0000
,
0000
0001
0000
0000
0000
1000
0000
0000
,
0000
0001
0000
0000
0000
0000
0000
0000
,
0000
1000
0000
0000
0000
0001
0000
0000
,
0000
1000
0000
0000
0000
0000
0000
0000
,
0000
0010
0000
0000
0000
0010
0000
0000
,
0000
0010
0000
0000
0000
0000
0000
0000
,
0000
0100
0000
0000
0000
0100
0000
0000
,
0000
0001
0000
0000
0000
0000
0000
0000
,
0000
1000
0000
0000
0000
0001
0000
0000
,
0000
1000
0000
0000
0000
0000
0000
0000
,
0000
0010
0000
0000
0000
0010
0000
0000
,
0000
0010
0000
0000
0000
0000
0000
0000
,
0000
1000
0000
0000
0000
0001
0000
0000
,
0000
1000
0000
0000
0000
0000
0000
0000
,
0000
0100
0000
0000
0000
0100
0000
0000
,
0000
0100
0000
0000
0000
0000
0000
0000
,
0000
1000
0000
0000
0000
0001
0000
0000
,
0000
1000
0000
0000
0000
0000
0000
0000
;

//---------------dance-single - ----------------
#NOTES:
     dance-single:
     :
     Easy:
     4:
     0.253730,0.273552,0.076119,0.042288,0.000000,196.000000,9.000000,5.000000,0.000000,0.000000,0.000000,0.253730,0.273552,0.076119,0.042288,0.000000,196.000000,9.000000,5.000000,0.000000,0.000000,0.000000:
0000
0000
0000
0000
,
0000
0000
0000
0000
,
0000
0000
0000
0000
,
0000
0000
0000
0000
,
1000
0000
0001
0000
,
1000
0000
0010
0000
,
0100
0000
0001
0000
,
0020
0000
0000
0000
,
0130
0000
0100
0100
,
1000
0000
1000
1000
,
0001
0000
0001
0001
,
0100
0100
0100
0100
,
0020
0030
0010
0010
,
2000
3000
1000
1000
,
0002
0003
0001
0001
,
0010
0000
0010
0000
0100
0000
0100
1000
,
0000
0000
0000
1000
0000
1000
0000
0001
,
0000
0000
0000
0001
0000
0001
0000
0100
,
0000
0000
0000
0100
0000
0100
0000
0010
,
0000
0010
0000
1000
0000
1000
0000
0001
,
0000
0000
0000
0001
0000
0001
0000
0010
,
0000
0000
0000
0010
0000
0010
0000
0100
,
0000
0000
0000
1000
0000
0000
0000
0001
,
0000
0100
0000
0020
0000
0000
0000
0000
,
0000
1030
0000
0001
,
0000
0010
0000
0100
,
0000
1000
1000
0001
,
0001
0100
0010
0100
,
0000
0010
0000
1000
,
0000
0001
0000
0010
,
0000
0100
0010
0100
,
0010
0001
1000
0001
,
1000
0001
0000
0000
0000
0100
0000
0000
,
0000
0010
0000
0000
0000
1000
0000
0000
,
0000
0001
0000
0000
0000
1000
0000
0000
,
0000
0100
0000
0000
0000
0110
0000
0000
,
0000
0001
0000
0000
0000
1000
0000
0000
,
0000
0001
0000
0000
0000
0100
0000
0000
,
0000
0010
0000
0000
0000
1000
0000
0000
,
0000
0001
0000
0000
0000
0010
0000
0000
,
0000
0110
0000
0000
0000
1000
0000
0000
,
0000
0001
0000
0100
0000
0010
0000
0000
,
0000
0110
0000
0000
0000
1000
0000
0000
,
0000
0001
0000
1000
0000
0100
0000
1000
,
0000
0001
0000
0000
0000
0010
0000
0000
,
0000
0001
0000
0100
0000
0010
0000
0000
,
0000
1000
0000
0001
0000
1000
0000
0000
,
0100
0010
0110
0110
,
0000
1000
0000
1000
0000
0001
0000
0001
,
0000
0100
0000
0010
0000
1000
0000
0000
,
0000
0001
0000
0010
0000
0001
0000
0010
,
0000
0100
0000
1000
0000
0100
0000
0000
,
0000
1000
0000
0001
0000
0100
0000
0000
,
0010
0010
0010
0010
,
0000
0100
0000
0001
0000
1000
0000
0010
,
0000
1010
0000
0000
1001
0000
0000
0000
,
0000
1000
0000
1000
0000
0001
0000
0001
,
0000
0100
0000
0010
0000
1000
0000
0000
,
0000
0001
0000
0010
0000
0001
0000
0010
,
0000
0100
0000
1000
0000
0100
0000
0000
,
0000
1000
0000
0001
0000
0100
0000
0000
,
0010
0010
0010
0010
,
0000
0100
0000
0001
0000
1000
0000
0010
,
0000
1010
0000
0000
1001
0000
0000
0000
,
0000
0001
0000
0000
0000
1000
0000
0000
,
0000
0100
0000
0000
0000
0010
0000
0000
,
0000
0001
0000
0001
0000
1000
0000
1000
,
0000
0010
0000
0100
0000
0010
0000
0000
,
0000
0100
0000
0000
0000
0001
0000
0000
,
0000
1000
0000
0000
0000
0100
0000
0000
,
0000
0010
0000
0100
0000
0010
0000
0100
,
0000
1000
0000
0001
0000
1000
0000
0001
;
