#TITLE:Sledgehammer;
#SUBTITLE:;
#ARTIST:Fifth Harmony;
#TITLETRANSLIT:;
#SUBTITLETRANSLIT:;
#ARTISTTRANSLIT:;
#CREDIT:;
#BANNER:[ROUND B] - Sledgehammer.png;
#BACKGROUND:[ROUND B] - Sledgehammer-bg.png;
#LYRICSPATH:;
#CDTITLE:cdtitle.png;
#MUSIC:[ROUND B] - Sledgehammer.ogg;
#OFFSET:-1.236;
#SAMPLESTART:48.158;
#SAMPLELENGTH:15.000;
#SELECTABLE:YES;
#BPMS:0.000=100.000;
#STOPS:;
#BGCHANGES:0.000=[ROUND B] - Sledgehammer-bg.PNG=1.000=0=0=1,
14.250=[ROUND B] - Sledgehammer.avi=1.000=0=0=1,
143.000=[ROUND B] - Sledgehammer-bg.png=1.000=0=0=1,
99999=-nosongbg-=1.000=0=0=0 // don't automatically add -songbackground-
;

//---------------dance-single - ----------------
#NOTES:
     dance-single:
     :
     Beginner:
     3:
     0.136,0.174,0.000,0.000,0.000: // measure 1
0000
0000
0000
0000
,  // measure 2
0000
0000
0000
0000
,  // measure 3
0000
0000
0000
0000
,  // measure 4
0000
0000
0000
0000
,  // measure 5
1000
0001
1000
0001
,  // measure 6
0001
1000
0001
1000
,  // measure 7
0000
0100
0000
0100
,  // measure 8
0000
0100
0000
0000
,  // measure 9
0000
0010
0000
0010
,  // measure 10
0000
0010
0000
0010
,  // measure 11
0000
1000
0000
1000
,  // measure 12
0000
1000
0000
0000
,  // measure 13
0001
0001
0001
0001
,  // measure 14
0000
0100
0000
0000
,  // measure 15
0000
0010
0010
0010
,  // measure 16
1000
0000
0000
0000
,  // measure 17
0100
0000
0000
0000
,  // measure 18
0010
0000
0000
0000
,  // measure 19
0001
0000
0000
0000
,  // measure 20
1000
0000
0000
0000
,  // measure 21
0100
0100
0010
0001
,  // measure 22
0001
0001
0001
0001
,  // measure 23
0000
1000
1000
1000
,  // measure 24
0000
0010
0010
0010
,  // measure 25
0100
0100
0001
1000
,  // measure 26
1000
1000
1000
1000
,  // measure 27
0000
0100
0001
0001
,  // measure 28
0000
0010
1000
1000
,  // measure 29
0100
0100
0100
0100
,  // measure 30
0010
0100
0010
0000
,  // measure 31
0001
0001
0001
0001
,  // measure 32
1000
0001
1000
0001
,  // measure 33
0100
0100
0100
0010
,  // measure 34
0100
0100
0100
0100
,  // measure 35
0000
1000
1000
0001
,  // measure 36
0000
0001
0001
1000
;

//---------------dance-single - ----------------
#NOTES:
     dance-single:
     :
     Hard:
     9:
     0.489,0.484,0.498,0.130,0.374:
0000
0000
0000
0000
,
0000
0000
0000
0000
,
0000
0000
0000
0000
,
0000
0000
0000
0000
0000
0000
0000
0000
0000
0001
0100
0001
0100
0000
0100
0000
,
1000
0000
0000
0000
0011
0000
0000
0000
0110
0000
0000
0000
0001
0010
0000
0200
,
0000
1300
0010
0100
0001
0000
1001
1001
,
0100
0010
0100
0010
1000
0100
1000
0100
,
0010
0001
0010
0001
2002
0000
0000
3003
,
0001
0000
0000
0100
1000
0010
1000
0010
0200
0000
0000
0000
0301
0000
0000
0000
,
1000
0000
0100
0010
0000
0100
0010
0000
0021
0000
0000
0000
1030
0000
0000
0000
,
0100
0000
0000
0001
0000
0010
1000
0100
2000
0000
0000
0000
3001
0000
0000
0000
,
1000
0000
0010
0100
0000
0001
0200
0000
0010
0000
0000
0000
0301
0000
0000
0000
,
1000
0000
0000
0010
0000
0100
0010
0100
0001
0000
1000
0000
1100
0000
1001
0000
,
0000
0000
0100
0010
0000
0100
0010
0000
1000
0001
0100
0001
1000
0001
0100
0001
,
1000
0000
0010
0100
0000
0010
0100
0000
0000
1000
0100
1000
0001
0000
1001
0000
,
0010
0000
0110
0000
0010
0000
1010
0000
0110
0000
0000
1000
0100
1000
0100
1000
,
0001
0000
0000
0101
0000
0000
0011
0000
0100
0000
1000
0000
0100
0000
1000
0000
,
0011
0000
0000
0101
0000
0000
1001
0000
0100
0000
0010
0000
0100
0000
0010
0000
,
1100
0000
0000
0110
0000
0000
1010
0000
0001
0000
0010
0000
0100
0000
0020
0000
,
1000
0000
0000
1030
0000
0000
0010
0000
0000
0001
0100
1000
0001
0000
0010
0000
,
0110
0000
0100
0000
1100
0000
0001
0000
1001
0000
0000
0000
1000
0010
0000
0002
,
0000
1003
0010
0100
0110
0000
0001
1001
,
0000
0000
0010
0100
0000
0010
0100
0000
1100
0000
0100
0000
0110
0000
0000
0000
,
0000
0000
1000
0001
0000
1000
0001
0000
0100
0010
0100
0010
0100
0000
0001
0000
,
0001
0000
0000
0000
1100
0000
0000
0000
0110
0000
0000
0000
0001
0010
0000
0020
,
0000
1030
0100
0010
2001
0000
3001
0001
,
0000
0000
1000
0010
1000
0001
0010
0000
0100
0000
0010
0000
0100
0000
0000
0000
,
0000
0000
0001
1000
0100
0001
1000
0000
0010
0000
0100
0000
0110
1000
0001
1000
,
0001
0100
1000
0100
0001
0100
1000
0010
0001
0000
0001
0000
0010
0000
1000
0000
,
1100
0000
0000
0000
0100
0000
0001
0000
0011
0000
0000
0000
0000
0010
0100
0010
,
1000
0010
0100
0001
1000
0001
0100
0010
1000
0000
0010
0000
0100
0000
0001
0000
,
1001
0000
0000
0000
0100
0000
0010
0000
0110
0000
1000
0100
0010
0000
0001
0000
,
0011
0000
0000
0000
0101
0000
0000
0000
1100
0000
0000
0000
0100
0010
0000
0200
,
0000
0301
1000
0010
0110
0000
0001
1001
,
0000
0000
0010
0100
0010
0100
0010
0000
1100
0000
0110
0000
1001
0000
0000
0000
,
0000
0000
0100
0010
0100
0010
0100
0000
0011
0000
0110
0000
1001
0000
0000
0000
;

//---------------dance-single - ----------------
#NOTES:
     dance-single:
     :
     Medium:
     7:
     0.269,0.290,0.141,0.000,0.092:
0000
0000
0000
0000
,
0000
0000
0000
0000
,
0000
0000
0000
0000
,
0000
0000
0000
0000
0000
0000
0000
0000
0000
1000
0100
1000
0100
0000
0000
0000
,
1000
0010
0001
0100
,
0010
1000
0001
1000
0001
0000
0100
0100
,
0000
0010
0100
0010
,
1000
0001
1000
0000
,
0100
0100
0100
0010
,
0001
0001
1000
0001
,
0100
0100
1000
0001
,
0010
0010
1000
0000
,
0100
0010
0001
0100
0000
1000
0010
0010
,
0000
0001
0100
0001
0000
0000
0100
0000
,
1000
0000
1000
0100
0000
0001
0100
0100
,
0001
0010
0100
1000
0001
0000
0000
0000
,
0100
0000
0000
1000
0000
0000
0011
0000
0000
0000
0000
0000
0100
0000
0000
0000
,
1000
0000
0000
0011
0000
0000
0100
0000
0000
0000
0000
0000
0000
0000
0000
0000
,
1000
0000
0000
0010
0000
0000
0101
0000
0000
0000
0000
0000
0001
0000
0000
0000
,
0010
0000
0000
1100
0000
0000
0000
0000
0000
0010
0100
0010
0100
0000
0000
0000
,
1001
1010
0101
0001
,
1000
0000
0100
0010
0001
0000
0100
0100
,
0000
0000
1000
0010
0000
0000
0000
0000
0001
0000
0001
0000
0001
0000
0000
0000
,
0000
0000
0100
0001
0000
0000
0000
0000
1000
0100
1000
0100
1000
0000
0000
0000
,
0101
1010
0110
0001
,
1000
0000
0010
0100
0001
0000
1000
1000
,
0000
0000
0001
0100
0000
0000
0000
0000
0010
0000
0010
0000
0010
0000
0000
0000
,
0000
0000
1000
0010
0000
0000
0000
0000
0100
0000
0100
0000
0100
0000
0000
0000
,
0001
0010
0100
1000
0001
0000
1000
0001
,
1000
0000
0010
0100
0010
0000
0000
0000
,
1000
0100
0010
0001
1000
0000
0100
0010
,
0100
0000
0001
1000
0001
1000
0010
0000
,
0110
0000
0000
0000
1001
0000
0000
0000
1010
0000
0000
0000
0001
0000
0000
0100
,
0000
0000
0001
1000
0001
0000
0010
0010
,
0000
0000
1000
0001
0000
0000
0000
0000
0100
0000
0100
0000
0100
0000
0000
0000
,
0000
0000
0010
0100
0000
0000
0000
0000
0001
0000
0001
0000
0001
0000
0000
0000
;

//---------------dance-single - ----------------
#NOTES:
     dance-single:
     :
     Easy:
     4:
     0.210,0.213,0.065,0.032,0.022:
0000
0000
0000
0000
,
0000
0000
0000
0000
,
0000
0000
0000
0000
,
0000
0000
0000
0000
0000
1000
1000
0000
,
0100
0010
0001
1000
,
0010
0000
1000
0000
0001
0000
0100
0100
,
0000
0010
0000
1100
,
0000
0011
0000
0000
,
1000
0010
0001
0100
,
1000
0010
0001
0100
,
1000
0010
0001
0100
,
1000
0010
0001
0000
,
1000
0000
0001
0000
0000
0000
0100
0100
,
0000
0010
1000
0001
,
1000
0000
0100
0000
0000
0000
0001
0001
,
0010
0100
1000
0000
,
0010
0000
0000
0010
0000
0000
0010
0000
0000
0000
0000
0000
0100
0000
0000
0000
,
1000
0000
0000
1000
0000
0000
1000
0000
0000
0000
0000
0000
0010
0000
0000
0000
,
0001
0000
0000
0001
0000
0000
0001
0000
0000
0000
0000
0000
0100
0000
0000
0000
,
1000
0000
0000
1000
0000
0000
0000
0000
0000
0000
0001
0000
0010
0000
0000
0000
,
0100
1000
0110
0001
,
1000
0001
2000
3010
,
0000
0000
0100
0000
0010
0010
0010
0000
,
0000
0000
0001
0000
0100
0100
0100
0000
,
0001
1000
1001
0100
,
0020
0000
0031
0000
1000
0000
0100
0100
,
0000
0000
0001
0000
0010
0010
0010
0000
,
0000
0000
0100
0000
1000
1000
1000
0000
,
0010
0000
0100
0000
0010
0000
0100
0001
,
0001
0000
1000
0100
0100
0000
0000
0000
,
0001
0000
0010
0000
0001
0000
0010
1000
,
1000
0000
0100
0010
0010
0000
0001
0000
,
1000
1010
0101
0010
,
0100
1000
0002
1003
,
0000
0000
0100
0000
0010
0010
0010
0000
,
0000
0000
1000
0000
0001
0001
0001
0000
;
