#TITLE:Samba de Hardcore!!;
#SUBTITLE:;
#ARTIST:P*Light;
#TITLETRANSLIT:;
#SUBTITLETRANSLIT:;
#ARTISTTRANSLIT:;
#GENRE:;
#CREDIT:Loodee;
#BANNER:;
#BACKGROUND:;
#LYRICSPATH:;
#CDTITLE:;
#MUSIC:Samba de Hardcore!!.ogg;
#OFFSET:0.000;
#SAMPLESTART:25.068;
#SAMPLELENGTH:14.118;
#SELECTABLE:YES;
#DISPLAYBPM:170.000;
#BPMS:0.000=170.000,215.000=-170.000,219.000=170.000;
#STOPS:;
#BGCHANGES:;
#KEYSOUNDS:;

//---------------dance-single - Loodee----------------
#NOTES:
     dance-single:
     Loodee:
     Challenge:
     12:
     0.950,1.000,0.153,0.361,1.000:
0000
0000
0000
0000
,
0000
0000
0000
0000
,
0000
0000
0000
0000
,
0000
0000
0000
0000
,
1100
0000
1000
0000
0010
0000
1000
0100
0000
0001
0000
0100
1000
0000
0001
0000
,
0101
0000
0100
0000
0010
0000
1000
0100
0000
0001
0000
0100
0010
0000
0001
0000
,
1001
0000
1000
0000
0010
0000
0100
0010
0000
0001
0000
0010
0100
0000
0010
0000
,
1001
0000
0000
0000
1000
0000
0000
0000
0100
0000
0000
0000
0010
0000
0000
0000
0100
0000
0000
0000
0010
0000
0000
0000
0004
0000
0000
0000
0000
0000
0000
0000
0000
0000
0000
0000
0000
0000
0000
0003
0000
0000
0000
0000
0000
0000
0000
0000
,
1000
0000
0010
0000
0100
0000
0001
0100
0000
0100
0010
1000
0100
0000
0100
0000
,
0010
0000
0001
0000
0100
0000
0001
1000
0000
1000
0100
0010
0002
0000
0103
0000
,
0010
0000
1000
0000
0010
0000
0100
0001
0000
0001
0010
0100
1000
0000
1000
0000
,
0001
0000
0100
0000
0001
0000
1000
0100
0000
0100
0010
0001
0200
0000
0310
0000
,
1000
0000
0100
0000
0010
0000
0001
1000
0010
0100
0010
1000
0001
0000
0004
0000
,
0013
0000
0000
0000
0000
0000
0100
0000
0000
0000
0000
0000
0010
0000
0000
0000
0001
0000
1000
0000
0000
0001
0000
0000
1000
0000
0000
0010
0000
0000
1000
0000
0000
0100
0000
0000
0010
0000
0000
0001
0000
0000
1000
0000
0000
0001
0000
0000
,
0100
0000
0001
1000
0001
0010
0100
1000
0100
1000
0010
1000
0001
1000
0001
0010
,
0100
1000
0010
0100
0001
0010
0001
0100
0001
0010
0100
1000
0100
0010
0001
0100
,
0001
0100
1000
0100
0000
0000
0010
0001
0010
1000
0000
0000
,
0010
0000
0000
0000
0100
0000
0000
0000
1000
0000
0000
0000
0001
0000
0000
0000
0010
0000
0000
0000
0100
0000
0000
0000
0002
0000
0000
0000
0000
0000
0000
0000
0000
0000
0000
0000
0020
0000
0000
0000
0000
0000
0000
0000
0000
0033
0000
0000
,
1100
0000
0100
1000
0001
0000
1000
0000
0010
0000
0100
0001
1000
0000
0100
0000
,
0010
0000
0001
0100
0001
0000
0100
0000
1000
0000
0100
0010
1000
0000
0001
0000
,
0010
0000
0100
1000
0100
0000
0010
0000
0100
0000
1000
0010
1000
0000
0001
0000
,
0100
0000
0010
1000
0001
0000
0010
0000
1000
0000
0010
0100
0010
0000
0001
0000
,
0100
0000
0010
1000
0100
0000
0010
0000
0001
0000
1000
0001
0100
0000
1000
0000
,
0100
0000
0001
1000
0100
0000
0010
0000
1000
0000
0010
0100
1000
0000
0001
0000
,
0100
0000
0001
0010
0001
0000
1000
0000
0010
0000
1000
0100
1000
0000
0010
0000
,
0110
0000
0000
0000
0000
0000
0000
0000
0000
0101
0000
0000
0000
0000
0000
0000
0000
0000
1001
0000
0000
0000
0000
0000
0001
0000
0000
0000
0100
0000
0000
0000
1000
0000
0000
0000
0200
0000
0000
0000
0000
0000
0000
0000
0000
0300
0000
0000
,
0101
0000
0001
1000
0001
0000
0010
0000
0100
0000
0010
0001
0100
0000
0001
0000
,
0010
0000
0001
0100
0010
0000
0100
0000
1000
0000
0100
0001
1000
0000
0010
0000
,
1000
0000
0100
0010
0001
0000
0100
0000
0010
0000
1000
0100
0010
0000
0001
0000
,
0100
0000
0010
1000
0100
0000
0010
0000
1000
0000
0010
0100
1000
0000
0001
0000
,
0100
0000
0010
1000
0100
0000
1000
0000
0010
0000
0100
0001
0010
0000
1000
0000
,
0010
0000
0100
0010
0001
0000
0100
0000
0010
0000
1000
0100
4000
0000
0000
0000
,
3100
0010
0001
1000
0000
0000
0010
0100
0001
1000
0000
0000
,
0001
0000
0000
0000
0010
0000
0000
0000
1000
0000
0000
0000
0010
0000
0000
0000
0001
0000
0000
0000
1000
0000
0000
0000
0020
0000
0000
0000
0000
0000
0000
0000
0000
0000
0000
0000
0200
0000
0000
0000
0000
0000
0000
0000
0000
0330
0000
0000
,
0001
1000
0001
0100
0020
0000
1030
0100
,
0020
0000
0130
0000
0010
0001
0000
0200
0000
0000
0000
0000
0310
0000
1000
0000
,
0002
0000
0013
0100
2000
0000
3100
0010
,
0001
0000
0100
0000
0010
1000
0000
0002
0000
0003
000M
0000
0100
0000
0010
0000
,
0002
0000
0103
0010
2000
0000
3001
1000
,
0200
0000
0310
0000
0100
1000
0000
0002
0000
0000
0003
0000
0100
0000
0010
0000
,
1000
0001
0100
0001
0010
0100
1000
0001
,
2000
0000
0000
3000
0010
1000
0000
0002
0000
0000
0000
0000
0013
0000
0100
0000
,
1000
0000
1000
0000
0010
0100
0010
1000
0000
1000
0001
0010
0100
0000
0100
0000
,
0010
0000
0010
0000
0001
1000
0010
0100
0000
0100
0001
1000
0200
0000
0310
0000
,
0001
0000
0001
0000
1000
0100
1000
0001
0000
0001
0100
0010
0100
0000
0100
0000
,
0001
0000
0001
0000
1000
0100
1000
0010
0000
0010
0100
0001
2000
0000
3100
0000
,
0010
0000
0010
0000
0001
0100
0010
1000
0000
1000
0010
0100
0001
0000
0001
0000
,
0010
0000
0010
0000
0100
0010
0001
1000
0000
1000
0100
0010
0001
1000
0001
1000
,
0010
0000
0010
0000
0100
0001
1000
0010
0100
0001
1000
0100
0010
0001
1000
0001
,
0100
0010
0100
1000
0100
0010
0100
1000
0100
0010
0100
0001
1000
0100
0010
0001
,
1000
0010
0001
0020
0000
0000
1030
0100
0001
0200
0000
0000
,
0310
0000
0000
0000
1000
0000
0000
0000
0010
0000
0000
0000
0100
0000
0000
0000
0001
0000
0000
0000
0100
0000
0000
0000
2000
0000
0000
0000
0000
0000
0000
0000
0000
0000
0000
0000
0002
0000
0000
0000
0000
0000
0000
0000
0000
3003
0000
0000
,
0101
0000
0100
0010
0000
0000
1000
0000
0100
0000
0000
0010
0000
0000
0011
0000
,
1001
0000
0000
1010
0000
0000
1000
0000
0001
0000
1000
0100
0020
0000
0000
0000
,
000M
0000
0000
0000
,
0000
0000
0000
0000
,
0031
0000
1000
0100
0010
0000
0100
0000
1000
0000
0001
0100
0010
0000
0100
0000
,
0001
0000
0010
0100
1000
0000
0010
0000
0001
0000
0010
0100
0001
0000
1000
0000
,
0001
0000
0010
0100
0010
0000
0001
0000
1000
0000
0010
0100
0010
0000
0001
0000
,
0010
0000
1000
0100
1000
0000
0001
0000
0010
0000
0100
1000
0400
0000
0000
0000
,
0310
0001
0100
1000
0000
0000
0100
0001
0010
1000
0000
0000
,
0010
0000
0000
0000
0001
0000
0000
0000
0100
0000
0000
0000
1000
0000
0000
0000
0100
0000
0000
0000
0001
0000
0000
0000
2000
0000
0000
0000
0000
0000
0000
0000
0000
0000
0000
0000
0200
0000
0000
0000
0000
0000
0000
0000
0000
3300
0000
0000
,
1001
0000
0001
0000
0100
0000
0100
0001
0000
0001
0010
0100
1000
0000
1000
0000
,
0100
0000
0100
0000
0010
0000
0010
0001
0000
0001
0100
0010
2000
0000
0000
0000
,
3010
0000
0010
0000
1000
0000
1000
0001
0000
0001
1000
0100
0010
0000
0010
0000
,
0001
0000
0001
0000
0100
0000
0100
0001
0000
0001
0010
0100
2000
0000
0000
0000
,
3100
0000
0100
0000
1000
0000
1000
0010
0000
0010
0100
0001
0010
0000
0010
0000
,
0100
1000
0100
0010
0100
1000
0100
0010
0001
0100
0010
1000
0004
0000
0000
0000
,
1003
0010
0100
1000
0000
0000
0001
0010
0100
0001
0000
0000
,
0010
0000
0000
0000
0100
0000
0000
0000
0001
0000
0000
0000
1000
0000
0000
0000
0010
0000
0000
0000
0100
0000
0000
0000
2000
0000
0000
0000
0000
0000
0000
0000
0000
0000
0000
0000
0002
0000
0000
0000
0000
0000
0000
0000
0000
3003
0000
0000
,
0011
0000
0010
0000
0001
0000
1000
0010
0000
0010
0000
0010
1000
0000
0001
0000
,
0010
0000
0100
0000
1000
0000
0100
0010
0000
0010
0000
0010
0200
0000
0000
0000
,
1300
0000
0010
0000
1000
0000
0001
0010
0000
0010
0000
0010
0001
0000
1000
0000
,
0001
0000
0100
0000
0010
0000
1000
0100
0000
0100
0000
0100
2000
0000
0000
0000
,
3001
0000
0010
0000
0100
0000
0010
0001
0000
0001
0000
0001
0010
0000
0001
0000
,
1000
0000
0010
0000
0100
0000
0010
1000
0000
1000
0000
1000
0020
0000
0000
0000
,
1030
0100
0001
0200
0000
0000
0310
0100
0001
0200
0000
0000
,
0310
0000
0000
0000
0000
0000
0000
0000
0000
0000
0000
0000
0000
0000
0000
0000
0001
0000
0000
0000
0000
0000
0000
0000
0000
0000
0000
0000
0000
0000
0000
0000
0100
0000
0000
0000
0000
0000
0000
0000
0000
0000
0000
0000
0000
0000
0000
0000
1000
0000
0000
0000
0000
0000
0000
0000
0000
0000
0000
0000
0000
0000
0000
0000
0100
0000
0000
0000
0000
0000
0000
0000
0000
0000
0000
0000
0000
0000
0000
0000
0001
0000
0000
0000
0000
0000
0000
0000
0000
0000
0000
0000
0000
0000
0000
0000
2000
0000
0000
0000
0000
0000
0000
0000
0000
0000
0000
0000
0000
0000
0000
0000
0000
0000
0000
0000
0000
0000
0000
0000
0000
0000
0000
0000
0000
0000
0000
0000
0000
0000
0000
0000
0000
0000
0000
0000
0000
0000
0000
0000
0000
3000
0000
0000
0101
0000
0000
0000
0000
0000
0000
0000
0000
0000
0000
0000
0000
0000
0000
0000
0000
0000
0000
0000
0000
0000
0000
0000
0000
0000
0000
0000
0000
0000
0000
0000
0000
0000
0000
0000
0000
0000
0000
0000
0000
0000
0000
0000
0000
0000
0000
0000
,
2002
0000
0000
0000
,
0000
0000
0000
0000
,
0000
0000
3003
0000
;

//---------------dance-single - Loodee----------------
#NOTES:
     dance-single:
     Loodee:
     Hard:
     10:
     0.749,0.724,0.208,0.235,0.713:
0000
0000
0000
0000
,
0000
0000
0000
0000
,
0000
0000
0000
0000
,
0000
0000
0000
0000
,
1010
0000
0000
1001
0000
0000
0000
0000
0000
0000
0000
0000
0000
0000
0000
0000
,
0011
0000
0000
1001
0000
0000
0000
0000
0000
0000
0000
0000
0000
0000
0000
0000
,
1100
0000
0110
0000
,
0001
1000
0001
1000
0100
0010
0002
0000
0000
0000
0000
0000
,
1003
0000
1000
0000
0010
0000
0000
0100
0000
0010
0000
0100
0001
0000
1000
0000
,
0001
0000
0001
0000
0010
0000
0000
0100
0000
0010
0000
0100
1000
0000
0000
0000
,
1000
0000
1000
0000
0010
0000
0000
0100
0000
0001
0000
0100
0010
0000
1000
0000
,
0100
0000
0100
0000
1000
0000
0000
0001
0000
0010
0000
0001
1000
0000
0000
0000
,
0001
0000
0001
0000
0100
0000
0010
1000
0010
0000
1000
0000
0001
0000
0001
0000
,
1000
0000
0100
0000
0010
0000
0001
0000
1000
0100
1000
0100
1000
0000
0001
0000
,
0100
1000
0100
0010
0001
0010
1000
0001
,
1000
0001
1000
0000
0100
0000
0010
0000
0001
0000
1000
0000
0100
0000
0010
0000
,
0001
0100
0001
1000
0000
0000
0100
1000
0001
1000
0000
0000
,
0001
0000
0000
0000
0010
0000
0000
0000
0100
0000
0000
0000
0010
0000
0000
0000
0100
0000
0000
0000
1000
0000
0000
0000
0020
0000
0000
0000
0000
0000
0000
0000
0000
0030
0000
0000
1001
0000
0000
0000
0000
0000
0000
0000
0000
0000
0000
0000
,
0101
0000
0000
0001
1000
0000
0100
0000
0010
0000
0000
0001
1000
0000
0100
0000
,
0010
0000
0000
0001
1000
0000
0010
0000
0001
0000
0000
0010
0000
0000
0100
0000
,
0001
0000
0000
0010
0100
0000
1000
0000
0100
0000
0000
0010
0100
0000
1000
0000
,
0001
0000
0000
1000
0010
0000
0100
0000
1000
0000
0000
0100
0000
0000
0001
0000
,
0010
0000
0000
0001
1000
0000
0010
0000
0100
0000
0000
0001
0010
0000
1000
0000
,
0010
0000
0000
0001
0000
0000
1000
0000
0010
0000
0000
0100
0001
0000
1000
0000
,
0010
0000
0000
1000
0100
0000
0010
0000
0100
0000
0000
0010
0001
0000
0100
0000
,
1001
0000
0000
0000
0000
0000
0000
0000
0000
0110
0000
0000
0000
0000
0000
0000
0000
0000
1001
0000
0000
0000
0000
0000
0001
0000
0000
0000
1000
0000
0000
0000
0001
0000
0000
0000
2000
0000
0000
0000
0000
0000
0000
0000
3000
0000
0000
0000
,
0010
0000
0000
0100
0001
0000
1000
0000
0010
0000
0000
0100
0001
0000
1000
0000
,
0100
0000
0000
0010
0001
0000
0010
0000
1000
0000
0000
0010
0000
0000
0100
0000
,
1000
0000
0000
0001
1000
0000
0010
0000
0100
0000
0000
0001
1000
0000
0010
0000
,
0100
0000
0000
0001
0010
0000
0100
0000
0001
0000
0000
0100
0000
0000
1000
0000
,
0001
0000
0000
0100
0010
0000
1000
0000
0100
0000
0000
0010
0100
0000
0010
0000
,
0001
0000
0000
1000
0010
0000
0100
0000
1000
0000
0000
0100
0000
0000
0001
0000
,
1000
0100
1000
0010
0000
0000
0100
0001
0100
0010
0000
0000
,
1000
0000
0000
0000
0100
0000
0000
0000
0010
0000
0000
0000
0001
0000
0000
0000
0010
0000
0000
0000
0100
0000
0000
0000
2000
0000
0000
0000
0000
0000
0000
0000
0000
3000
0000
0000
0101
0000
0000
0000
0000
0000
0000
0000
0000
0000
0000
0000
,
0002
0000
0013
0100
2000
0000
3010
0100
,
0001
0000
1000
0000
0100
0000
0000
0020
0000
0000
0000
0000
0031
0000
1000
0000
,
0020
0000
0130
0001
2000
0000
3100
0010
,
0001
0000
0010
0000
0001
0000
0000
0200
0000
0000
0000
0000
0310
0000
1000
0000
,
0002
0000
1003
0001
0020
0000
0031
0100
,
0010
0000
1000
0000
0001
0000
0000
2000
0000
0000
0000
0000
3100
0000
0010
0000
,
0001
0100
0001
0010
0001
1000
0010
0100
,
0001
0000
0000
0000
1000
0000
0000
0200
0000
0000
0000
0000
0000
0000
0000
0000
,
0310
0000
0010
0000
0001
0000
0010
0100
0000
1000
0000
0100
0010
0000
0001
0000
,
1000
0000
1000
0000
0010
0000
0100
0001
0000
1000
0000
0001
0200
0000
0000
0000
,
0310
0000
0010
0000
0100
0000
0001
1000
0000
0100
0000
1000
0001
0000
0010
0000
,
0100
0000
0100
0000
0010
0000
0001
1000
0000
0001
0000
1000
0002
0000
0000
0000
,
0103
0000
0010
0000
1000
0000
0100
0000
0010
0000
0001
0000
1000
0000
0001
1000
,
0001
0000
0100
0000
0010
0000
0100
0000
0001
1000
0001
1000
0001
0000
0010
0000
,
0100
0010
1000
0010
0100
0010
0001
1000
,
0001
0100
0000
0000
0100
0010
0000
0000
0010
1000
0010
1000
0010
0000
0000
0000
,
1000
0001
1000
0200
0000
0000
0310
0001
1000
0002
0000
0000
,
0103
0000
0000
0000
0010
0000
0000
0000
1000
0000
0000
0000
0001
0000
0000
0000
0100
0000
0000
0000
0010
0000
0000
0000
2000
0000
0000
0000
0000
0000
0000
0000
0000
3000
0000
0000
0011
0000
0000
0000
0000
0000
0000
0000
0000
0000
0000
0000
,
0001
0000
0000
0100
0000
0000
0010
0000
1000
0000
0000
0001
0000
0000
1000
0000
,
1000
0000
0000
0100
0000
0000
0010
0000
0001
0000
0000
0010
0100
0000
0000
0000
,
M000
0000
0000
0000
,
0000
0000
0000
0000
,
1000
0000
0001
0100
0001
0000
1000
0000
0010
0000
0000
0100
0010
0000
1000
0000
,
0010
0000
0000
1000
0001
0000
0010
0000
1000
0000
0000
0010
0000
0000
0001
0000
,
1000
0000
0000
0010
0100
0000
0001
0000
1000
0000
0000
0100
0010
0000
0001
0000
,
0010
0000
0000
0100
0010
0000
0100
0000
0001
0000
0000
0100
0000
0000
1000
0000
,
0001
0100
0001
0100
0000
0000
0001
1000
0001
1000
0000
0000
,
0001
0000
0000
0000
0010
0000
0000
0000
1000
0000
0000
0000
0010
0000
0000
0000
0100
0000
0000
0000
1000
0000
0000
0000
0002
0000
0000
0000
0000
0000
0000
0000
0000
0003
0000
0000
0101
0000
0000
0000
0000
0000
0000
0000
0000
0000
0000
0000
,
0001
0000
0100
0010
0100
0000
0001
0000
1000
0000
0000
0100
0010
0000
0001
0000
,
1000
0000
0000
0100
0010
0000
0001
0000
0100
0000
0000
0010
1000
0000
0001
0000
,
1000
0000
0000
0001
0010
0000
0100
0000
1000
0000
0000
0001
0010
0000
0100
0000
,
1000
0000
0000
0010
0100
0000
0010
0000
0001
0000
0000
0010
0100
0000
0001
0000
,
1000
0000
0000
0100
1000
0000
0001
0000
1000
0000
0000
0100
0010
0000
1000
0000
,
0010
0000
0000
0100
0010
0000
0001
0000
0100
0000
0000
0010
1000
0000
0001
0000
,
1000
0100
0010
1000
0000
0000
0010
0100
1000
0001
0000
0000
,
1000
0000
0000
0000
0001
0000
0000
0000
0100
0000
0000
0000
0010
0000
0000
0000
1000
0000
0000
0000
0001
0000
0000
0000
0200
0000
0000
0000
0000
0000
0000
0000
0000
0300
0000
0000
1001
0000
0000
0000
0000
0000
0000
0000
0000
0000
0000
0000
,
1000
0000
0100
0000
0010
0000
0100
0010
0000
0010
0000
0000
0011
0000
0000
0000
,
0001
0000
1000
0000
0010
0000
0100
0010
0000
0010
0000
0000
1010
0000
0000
0000
,
1000
0000
0001
0000
0010
0000
0001
1000
0000
1000
0000
0000
0101
0000
0000
0000
,
0100
0000
0001
0000
1000
0000
0100
1000
0000
1000
0000
0000
0011
0000
0000
0000
,
0001
0000
1000
0000
0010
0000
1000
0001
0000
0001
0000
0000
1001
0000
0000
0000
,
1000
0000
0010
0000
1000
0000
0001
0100
0000
0100
0000
0000
1001
0000
0000
0000
,
1000
0100
0010
0002
0000
0000
1003
0100
0010
0002
0000
0000
,
1003
0000
0000
0000
0100
0000
0000
0000
0010
0000
0000
0000
0100
0000
0000
0000
0010
0000
0000
0000
0001
0000
0000
0000
0200
0000
0000
0000
0000
0000
0000
0000
0000
0300
0000
0000
0110
0000
0000
0000
0000
0000
0000
0000
0000
0000
0000
0000
,
2002
0000
0000
0000
,
0000
0000
0000
0000
,
0000
3003
0000
0000
;

//---------------dance-single - Loodee----------------
#NOTES:
     dance-single:
     Loodee:
     Medium:
     7:
     0.635,0.690,0.198,0.262,0.487:
0000
0000
0000
0000
,
0000
0000
0000
0000
,
0000
0000
0000
0000
,
0000
0000
0000
0000
,
1001
0000
0000
1001
0000
0000
0000
0000
0000
0000
0000
0000
0000
0000
0000
0000
,
0101
0000
0000
0101
0000
0000
0000
0000
0000
0000
0000
0000
0000
0000
0000
0000
,
1001
0000
1001
0000
,
1000
0001
1000
0001
1000
0001
2000
0000
0000
0000
0000
0000
,
3001
0100
0010
1000
0200
0000
0310
0001
,
1000
0000
0001
0000
1000
0000
0000
0200
0000
0000
0300
0000
0010
0000
0001
0000
,
2000
0000
3010
0100
0002
0000
0013
0100
,
0010
0000
0001
0000
1000
0000
0000
0002
0000
0000
0003
0000
0100
0000
0000
0000
,
0110
0000
0010
1000
0001
1000
0100
0000
,
0010
0000
0000
0000
1001
0000
0000
2000
0000
0000
3000
0000
0001
0000
0010
0000
,
0100
1000
0100
0010
0001
1000
0010
0100
,
0001
0000
0100
0000
2002
0000
0000
3003
,
1000
0100
1000
0100
0000
0000
0010
0001
0010
0001
0000
0000
,
1000
0001
1000
0001
1000
0001
0020
0000
0000
0130
0000
0000
,
1001
0000
0000
0001
0000
0000
0100
0000
0010
0000
0000
1000
0000
0000
0001
0000
,
0100
0000
0000
0010
0000
0000
1000
0000
0001
0000
0000
0010
0000
0000
0100
0000
,
0010
0000
0000
0001
0000
0000
0010
0000
0100
0000
0000
0010
0000
0000
0001
0000
,
1000
0000
0000
0001
0000
0000
0010
0000
0001
0000
0000
0100
0000
0000
0001
0000
,
1000
0000
0000
0010
0000
0000
0100
0000
0001
0000
0000
0010
0000
0000
1000
0000
,
0010
0000
0000
0100
0000
0000
1000
0000
0001
0000
0000
1000
0000
0000
0010
0000
,
0100
0000
0000
0001
0000
0000
1000
0000
0001
0000
0000
0010
0000
0000
0100
0000
,
0010
0000
0000
1001
0000
0000
2002
0000
0000
0000
0000
0000
3003
0000
0000
0000
,
0001
0000
0100
0000
0001
0000
0010
0000
0100
0000
0000
0010
0000
0000
0001
0000
,
0010
0000
0000
0100
0000
0000
0010
0000
0001
0000
0000
0100
0000
0000
0010
0000
,
1000
0000
0000
0010
0000
0000
0100
0000
0001
0000
0000
0100
0000
0000
0010
0000
,
1000
0000
0000
0100
0000
0000
0010
0000
0001
0000
0000
0010
0000
0000
0100
0000
,
1000
0000
0000
0001
0000
0000
0100
0000
0010
0000
0000
0100
0000
0000
1000
0000
,
0100
0000
0000
0001
0000
0000
1000
0000
0001
0000
0000
0010
0000
0000
0100
0000
,
1000
0001
1000
0001
0000
0000
0100
0010
0100
0010
0000
0000
,
1000
0001
1000
0001
1000
0001
0020
0000
0000
0031
0000
0000
,
2000
0000
3010
0100
0020
0000
1030
0001
,
1000
0000
0000
0000
0001
0000
0000
2000
0000
0000
0000
0000
3100
0000
1000
0000
,
0002
0000
0103
0010
0200
0000
0301
1000
,
0100
0000
0010
0000
0100
0000
0000
1000
0000
0000
0000
0000
0001
0000
0100
0000
,
0020
0000
1030
0001
2000
0000
3100
0010
,
0001
0000
0000
0000
0010
0000
0000
0100
0000
0000
0000
0000
1000
0000
0001
0000
,
1000
0100
1000
0100
0010
0100
1000
0001
,
0100
0000
0000
0200
0000
0000
0301
1000
,
0001
0001
0100
0100
0001
0000
1010
0000
,
1000
1000
0100
0100
1000
0000
0101
0000
,
0100
0100
0001
0001
1000
0000
1100
0000
,
0100
0100
0010
0010
0100
0000
1001
0000
,
1100
0000
0100
0100
0010
0000
0001
1000
,
0010
0100
0010
0000
0010
1000
0001
1000
,
0001
0010
0100
0010
0001
1000
0001
1000
,
0010
0110
0101
1010
,
1000
0001
1000
0001
0000
0000
1000
0001
1000
0001
0000
0000
,
1000
0100
1000
0100
1000
0100
0020
0000
0000
0031
0000
0000
,
1000
0000
0000
0010
0000
0000
0000
0000
0100
0000
0000
0010
0000
0000
1000
0000
,
1000
0000
0000
0001
0000
0000
1000
0000
0001
0000
0000
0000
1001
0000
0000
0000
,
0000
0000
0000
0000
,
0000
0000
0000
0000
,
0000
0000
0000
0000
0001
0000
0010
0000
0100
0000
0000
0010
0000
0000
0001
0000
,
1000
0000
0000
0010
0000
0000
0100
0000
0001
0000
0000
0010
0000
0000
0100
0000
,
1000
0000
0000
0001
0000
0000
1000
0000
0010
0000
0000
0100
0000
0000
1000
0000
,
0100
0000
0000
0010
0000
0000
0100
0000
0001
0000
0000
1000
0000
0000
0001
0000
,
1000
0100
1000
0100
0000
0000
1000
0001
1000
0001
0000
0000
,
0100
0010
0100
0010
0100
0010
2000
0000
0000
3001
0000
0000
,
0100
0100
0010
1000
0001
1000
0100
0010
,
0001
0001
1000
0001
0010
0100
1000
0000
,
0010
0010
0100
0001
0100
0010
1000
0001
,
1000
1000
0100
0010
0001
0010
0100
0000
,
1000
1000
0001
1000
0100
0010
0001
0010
,
0001
0001
1000
0001
0100
0010
1000
0001
,
1000
0010
1000
0010
0000
0000
0100
0001
0100
0001
0000
0000
,
1000
0001
1000
0001
0010
0001
0020
0000
0000
0031
0000
0000
,
1000
0000
0000
0000
0001
0000
0000
1000
0000
1000
0000
0000
0001
0000
0000
0000
,
0010
0000
0000
0000
0100
0000
0000
0010
0000
0010
0000
0000
0100
0000
0000
0000
,
1000
0000
0000
0000
0010
0000
0000
0100
0000
0100
0000
0000
0010
0000
0000
0000
,
1000
0000
0000
0000
0001
0000
0000
0010
0000
0010
0000
0000
0001
0000
0000
0000
,
0100
0000
0000
0000
0010
0000
0000
1000
0000
1000
0000
0000
0001
0000
0000
0000
,
1000
0000
0000
0000
0100
0000
0000
1000
0000
1000
0000
0000
0100
0000
0000
0000
,
1000
0001
1000
0002
0000
0000
1003
0001
1000
0002
0000
0000
,
1003
0100
1000
0100
0010
0001
2000
0000
0000
3001
0000
0000
,
2002
0000
0000
0000
,
0000
0000
0000
0000
,
0000
0000
3003
0000
;

//---------------dance-single - Loodee----------------
#NOTES:
     dance-single:
     Loodee:
     Easy:
     5:
     0.474,0.505,0.208,0.325,0.000:
0000
0000
0000
0000
,
0000
0000
0000
0000
,
0000
0000
0000
0000
,
0000
0000
0000
0000
,
1001
0000
0000
0000
,
0110
0000
0000
0000
,
1100
0000
0101
0000
,
2001
0001
3001
0000
,
0002
0000
0013
0100
0010
0000
0001
1000
,
0001
0000
0100
0000
0000
0000
0001
1000
,
0200
0000
1300
0100
0010
0000
0100
0010
,
0001
0000
0100
0000
0010
0000
1000
0001
,
2000
0000
3001
0010
0001
0000
0100
0010
,
0100
0000
0100
0000
0001
1000
0001
1000
,
0100
0100
0010
0010
,
0002
1000
1000
0003
,
0110
0000
1001
0000
,
2100
0100
3002
0003
,
0100
0000
0001
1000
0001
0000
0100
0010
,
0100
0000
0001
0010
0001
0000
0010
0000
,
0100
0000
1000
0001
1000
0000
0010
0100
,
0010
0000
1000
0001
1000
0000
0010
0000
,
0100
0000
0001
0010
0001
0000
1000
0010
,
0100
0000
0010
1000
0010
0000
1000
0000
,
0001
0000
0010
0100
0010
0000
0100
1000
,
0001
0000
0000
2002
0000
0000
3003
0000
,
1000
0100
1000
0100
1000
0000
0001
0100
,
0001
0000
0010
0100
0010
0000
0001
0000
,
1000
0000
0010
0100
0010
0000
0100
0001
,
0100
0000
0001
1000
0001
0000
0010
0000
,
0100
0000
1000
0100
1000
0000
0010
0100
,
0001
0000
0010
0100
0010
0000
0100
0000
,
1001
0000
0101
0000
,
2001
0010
3020
0030
,
2000
3100
0020
0031
,
1000
1000
0000
0010
,
0200
0301
2000
3001
,
0100
0100
0000
0001
,
0020
0130
2000
3100
,
1000
1000
0000
0010
,
0100
0001
0100
0000
0001
0000
1000
0000
,
0100
0000
0000
0000
,
2000
0000
3001
0100
0001
0000
0010
0000
,
0200
0000
0310
0001
0010
0000
0100
0000
,
2000
0000
3001
0010
0001
0000
1000
0000
,
0002
0000
0103
0010
0100
0000
0010
0000
,
1000
0001
1000
0100
1000
0000
0100
0000
,
0010
0001
0010
0001
1000
0000
1000
0000
,
0001
0010
0100
0010
0001
0000
1000
0000
,
0020
0100
0100
0030
,
2002
0000
0000
3003
0022
0000
0000
0033
,
2100
0100
3002
0003
,
0100
0000
0000
0000
0010
0000
0000
1000
,
1000
0000
0000
0001
0001
0000
0000
0000
,
0000
0000
0000
0000
,
0000
0000
0000
0000
,
0000
0000
0000
0000
1000
0000
0001
0100
,
0001
0000
0010
0100
0010
0000
0001
0000
,
1000
0000
0010
0100
0010
0000
1000
0001
,
0010
0000
0100
1000
0100
0000
1000
0000
,
0110
0000
0110
0000
,
2001
0010
3200
0300
,
0001
0000
0010
0100
1000
0000
0100
0010
,
0001
0000
1000
0001
1000
0000
0010
0000
,
0100
0000
0001
1000
0010
0000
0100
0001
,
1000
0000
0100
0010
0100
0000
1000
0000
,
0001
0000
0010
0001
1000
0000
0010
0100
,
0001
0000
1000
0100
0010
0000
0100
0000
,
0110
0000
0011
0000
,
1002
0100
1003
1001
,
1000
0100
1000
0000
0001
0000
0001
0000
,
0100
0010
0100
0000
0001
0000
0001
0000
,
0010
0100
1000
0000
0100
0000
0100
0000
,
1000
0010
0100
0000
0001
0000
0001
0000
,
1000
0010
1000
0000
0100
0000
0100
0000
,
0010
0001
0010
0000
0001
0000
0001
0000
,
2000
0000
0200
3000
,
0020
0300
0000
0031
,
2002
0000
0000
0000
,
0000
0000
0000
0000
,
3003
0000
0000
0000
;
