#TITLE:Prismatic Lollipops;
#SUBTITLE:;
#ARTIST:DJ Mashiro;
#TITLETRANSLIT:;
#SUBTITLETRANSLIT:;
#ARTISTTRANSLIT:;
#GENRE:;
#CREDIT:;
#BANNER:[ROUND B] - Prismatic Lollipops-banner.png;
#BACKGROUND:[ROUND B] - Prismatic Lollipops-bg.png;
#LYRICSPATH:;
#CDTITLE:;
#MUSIC:[ROUND B] - Prismatic Lollipops.mp3;
#OFFSET:-0.990000;
#SAMPLESTART:3.641000;
#SAMPLELENGTH:29.999001;
#SELECTABLE:YES;
#DISPLAYBPM:202.000000;
#BPMS:0.000000=202.000000
;
#STOPS:
;
#BGCHANGES:;
#KEYSOUNDS:;
#ATTACKS:;

//---------------dance-single - ----------------
#NOTES:
     dance-single:
     :
     Hard:
     9:
     0.632841,0.674816,0.211956,0.010598,0.116576,418.000000,398.000000,20.000000,1.000000,0.000000,0.000000,0.632841,0.674816,0.211956,0.010598,0.116576,418.000000,398.000000,20.000000,1.000000,0.000000,0.000000:
0000
0000
0000
0000
,
0000
0000
0000
0000
,
1000
0100
1000
0100
1000
0000
0000
0000
0010
0000
0000
0000
1000
0000
0100
0000
,
0010
0001
0000
0001
0000
1000
0001
0100
,
0010
0100
0010
0000
1000
0000
0001
0000
,
0100
0010
0000
1000
0000
0001
0010
0001
,
0010
0100
1000
0000
0001
0000
0010
0000
,
0001
0100
0000
0001
0000
0100
0001
0010
,
0001
0100
0001
0000
0010
0000
0001
0010
,
0000
0000
0010
0000
0000
0000
0010
0000
0000
0000
0010
0000
0001
0010
0001
0000
,
0100
1000
0100
0000
0010
0000
1000
0010
,
0001
0010
0000
1000
0000
0001
0010
0001
,
0010
0001
0010
0000
0001
1000
0100
0010
,
0000
0001
0000
0001
0000
0100
0010
1000
,
0100
0000
1000
0100
1000
0000
0000
0000
0010
0000
0000
0000
0100
0000
0000
0000
,
0010
0100
0000
0010
0000
0010
1000
0100
,
0001
0100
1000
0010
0001
0010
0001
0010
,
0000
0000
0100
0000
0010
0000
0000
0010
0000
0000
1000
0000
0001
0100
0001
0000
,
0100
0001
0010
0000
1100
0000
1100
0000
,
1100
0000
0001
0010
0001
0010
0001
0000
,
1000
0100
1000
0100
1000
0000
0000
0000
0010
0000
0100
0000
0000
0000
0001
0000
,
0100
0001
0100
0001
0100
0000
0000
0000
0010
0000
0000
0000
0100
0000
0010
0000
,
1000
0100
0000
0010
0001
0010
0100
0000
,
0100
0000
1000
0000
0000
0000
0100
0000
0000
0000
1000
0000
0010
0000
1000
0100
,
1000
0010
0100
0000
0000
1001
0000
0000
,
0000
0001
0010
0000
0010
0000
0010
0000
,
0010
0100
0010
0000
0001
0000
0100
0010
,
1000
0000
0100
0000
1000
0000
0000
0000
1000
0000
0001
0010
0001
0000
0100
0000
,
0010
0100
0000
0000
0001
0100
0000
0100
,
0010
1000
0010
1000
0010
0000
0000
0000
0100
0000
0000
0000
0010
0000
1000
0000
,
0100
0010
0000
0010
0010
0100
0001
0000
,
0100
1000
0000
0010
0000
0100
0010
1000
,
0100
0010
0001
0000
0000
0101
0000
0000
,
0000
0010
0100
0000
0100
0000
0100
0000
,
0010
0100
0010
0000
1000
0000
0100
1000
,
0010
0200
0000
0000
0000
0300
0100
0001
,
0010
0100
1000
0000
1100
0000
0011
0000
,
0101
0000
0100
0010
1000
0100
0010
0000
,
1001
0100
0110
0010
,
1000
0100
1000
0000
1010
0000
1100
0000
,
0110
0010
0001
0100
,
0010
1000
0100
0001
0100
1000
0100
0000
,
0010
0100
1000
0010
,
0100
0001
0100
0001
,
1000
0100
1000
0100
1000
0000
0000
0000
0010
0000
0000
0000
0101
0000
0000
0000
,
1000
0000
0010
0100
0001
1000
0010
0000
,
0100
0010
1000
0100
,
0010
0001
0100
0000
0110
0000
0110
0000
,
0110
0010
1000
1000
,
0100
1000
0010
0001
0010
1000
0100
0000
,
0010
0001
0100
0010
,
1000
0001
0100
0001
,
0100
0000
0001
0000
0100
0001
0000
0000
,
1000
0010
1000
0010
1000
0000
0000
0000
0100
0000
0000
0000
0001
0000
0100
0000
,
0010
0001
0000
0100
0000
0010
1000
0100
,
0001
0100
1000
0000
0010
0000
0100
0000
,
0001
0100
0000
0010
0000
1000
0100
0010
,
0001
0100
0010
0000
1000
0000
0100
0000
,
0010
1000
0000
0010
0000
0100
0001
1000
,
0010
0001
0100
0000
0010
0000
1000
0100
,
0000
0000
1000
0000
0000
0000
0010
0000
0000
0000
0100
0000
0001
0100
0001
0000
,
1000
0100
0010
0000
0100
0000
1000
0100
,
0010
0100
0000
1000
0000
1000
0010
0001
,
0010
1000
0100
0000
0010
0001
0100
0010
,
0000
1000
0000
0010
0000
0001
0010
0100
,
0010
0000
1000
0100
1000
0000
0000
0000
0010
0000
0000
0000
0100
0000
0000
0000
,
0001
0100
0000
0010
0000
0100
0001
0100
,
1000
0001
0010
1000
0100
0001
0100
1000
,
0000
0000
0010
0000
0100
0000
0000
0100
0000
0000
0100
0000
0001
0010
0001
0000
,
0100
0010
1000
0000
1001
0000
1001
0000
,
1001
0000
0001
0010
0100
1000
0001
0000
;

//---------------dance-single - ----------------
#NOTES:
     dance-single:
     :
     Medium:
     7:
     0.510210,0.562347,0.042391,0.000000,0.010598,337.000000,333.000000,4.000000,0.000000,0.000000,0.000000,0.510210,0.562347,0.042391,0.000000,0.010598,337.000000,333.000000,4.000000,0.000000,0.000000,0.000000:
// measure 0
0000
0000
0000
0000
,  // measure 1
0000
0000
0000
0000
,  // measure 2
0000
0000
1000
0000
0010
0000
1000
0100
,  // measure 3
1000
0100
0000
1000
0000
0000
0100
0010
,  // measure 4
0100
0010
0100
0000
0001
0000
0100
0000
,  // measure 5
0110
0000
0000
1010
0000
0000
0010
0000
,  // measure 6
0010
0010
1000
0100
,  // measure 7
1000
0000
0000
0001
0000
0000
0100
0000
,  // measure 8
0100
0000
0010
0000
1000
0000
0010
0100
,  // measure 9
0000
0100
0000
0100
0000
0100
0001
0000
,  // measure 10
0100
0001
0100
0000
0001
0000
0001
0100
,  // measure 11
0001
0000
0000
1000
0000
1000
0100
0000
,  // measure 12
0100
0000
0100
0000
1000
0010
1000
0000
,  // measure 13
0000
0001
0000
0100
0000
0010
0100
0000
,  // measure 14
0100
0010
0010
0100
,  // measure 15
0001
0010
0000
0010
0000
0000
0001
0100
,  // measure 16
0001
0000
1000
0010
1000
0000
1000
0010
,  // measure 17
0000
0000
0100
0000
0010
0000
0000
0010
0000
0000
1000
0000
0001
0000
0000
0000
,  // measure 18
0100
0010
0010
0010
,  // measure 19
0010
0000
1000
0100
1000
0100
1000
0000
,  // measure 20
0000
0000
0010
0000
0010
0000
0000
1000
,  // measure 21
0100
0000
0000
0000
0010
0000
0100
1000
,  // measure 22
0100
1000
0000
0010
0100
0010
0100
0000
,  // measure 23
0001
0100
0000
0100
0000
0001
0010
0001
,  // measure 24
0010
0001
0010
0000
0000
1001
0000
0000
,  // measure 25
0000
0001
0100
0000
0100
0000
0100
0000
,  // measure 26
0100
0000
0100
0000
0010
0000
1000
0100
,  // measure 27
1000
0100
1000
0000
0010
0000
0100
0000
,  // measure 28
0010
0100
0000
0000
0001
1000
0000
1000
,  // measure 29
0010
0000
0000
0000
0100
0000
0010
1000
,  // measure 30
0010
1000
0000
0100
0000
0100
1000
0000
,  // measure 31
0100
1000
0000
0010
0000
0100
0010
0100
,  // measure 32
0010
0100
0010
0000
0000
0101
0000
0000
,  // measure 33
0000
0010
1000
0000
1000
0000
1000
0000
,  // measure 34
0010
0100
0010
0000
1000
0000
0100
1000
,  // measure 35
0100
1000
0000
0000
0000
0000
0100
1000
,  // measure 36
0100
1000
0100
0000
1000
0000
0010
0000
,  // measure 37
0100
0000
0010
1000
0010
1000
0010
0000
,  // measure 38
1000
0001
0100
0010
,  // measure 39
1000
0100
1000
0000
0010
0000
1000
0000
,  // measure 40
0001
0100
0010
1000
,  // measure 41
0100
1000
0100
1000
0100
1000
0100
0000
,  // measure 42
0010
0001
0100
0010
,  // measure 43
1000
0100
0010
0001
,  // measure 44
0000
0100
0010
0100
,  // measure 45
0010
0000
1000
0100
1000
0100
1000
0000
,  // measure 46
0010
1000
0010
0100
,  // measure 47
0010
0100
0010
0010
,  // measure 48
0010
1000
0001
0100
,  // measure 49
0001
0100
0001
0100
0001
0100
0001
0000
,  // measure 50
1000
0100
1000
0010
,  // measure 51
0100
0001
1000
0010
,  // measure 52
0100
0000
0010
0000
0100
0001
0000
0000
,  // measure 53
0000
0000
0100
0000
0100
0000
0001
0100
,  // measure 54
0001
0100
0000
0010
0000
1000
0100
1000
,  // measure 55
0100
1000
0100
0000
1000
0000
0010
0000
,  // measure 56
1000
0000
0000
1000
0000
0001
0100
0001
,  // measure 57
0100
0001
0100
0000
0001
0000
0100
0000
,  // measure 58
0010
0000
0000
0010
0000
0100
0001
0100
,  // measure 59
0001
0100
0001
0000
1000
0000
0001
0000
,  // measure 60
0000
0100
0000
0010
0000
0100
0001
0100
,  // measure 61
0010
0100
0010
0000
0100
0000
0001
0100
,  // measure 62
0001
0100
0000
0001
0000
1000
0100
1000
,  // measure 63
0100
1000
0100
0000
0010
0001
0010
0001
,  // measure 64
0000
0100
0000
0010
0000
1000
0100
1000
,  // measure 65
0000
0010
1000
0100
,  // measure 66
1000
0100
0000
0010
0000
0001
0100
0001
,  // measure 67
0100
0001
0100
0001
0100
0001
0100
0001
,  // measure 68
0000
0000
1000
0000
0100
0000
0000
0100
0000
0000
0100
0000
1000
0000
0000
0000
,  // measure 69
0100
0010
0100
0000
1000
0000
1000
0000
,  // measure 70
1000
0000
0001
0010
0001
1000
0001
0000
;

//---------------dance-single - ----------------
#NOTES:
     dance-single:
     :
     Easy:
     4:
     0.224068,0.299918,0.052989,0.074185,0.000000,148.000000,143.000000,5.000000,7.000000,0.000000,0.000000,0.224068,0.299918,0.052989,0.074185,0.000000,148.000000,143.000000,5.000000,7.000000,0.000000,0.000000:
// measure 0
0000
0000
0000
0000
,  // measure 1
0000
0000
0000
0000
,  // measure 2
0000
1000
0000
0010
,  // measure 3
0000
0000
0000
1000
0000
0000
0001
0000
,  // measure 4
0000
0100
0001
0100
,  // measure 5
0010
0000
0000
0100
0000
0000
0001
0000
,  // measure 6
0000
0001
1000
0000
,  // measure 7
1000
0000
0000
0001
0000
0000
0100
0000
,  // measure 8
0000
0010
0000
0020
,  // measure 9
0000
2030
0000
3001
,  // measure 10
0100
0100
0001
0001
,  // measure 11
0000
0000
0000
1000
0000
1000
0000
0000
,  // measure 12
0000
0100
0000
1000
,  // measure 13
0000
0001
0000
0100
0000
0000
0000
0000
,  // measure 14
0000
0100
0000
0001
,  // measure 15
0000
0000
0000
0010
0000
0000
0001
0000
,  // measure 16
0000
1001
0000
0000
,  // measure 17
0000
0020
0000
0000
,  // measure 18
0000
0130
0000
0001
,  // measure 19
0000
1000
1000
1000
,  // measure 20
0000
0010
0010
0000
,  // measure 21
0000
0100
0100
0000
,  // measure 22
0000
0020
0000
2030
,  // measure 23
0000
3002
0000
0103
,  // measure 24
0000
0000
0110
0000
0000
1001
0000
0000
,  // measure 25
0000
0100
0100
0100
,  // measure 26
0000
0010
0000
1000
,  // measure 27
0000
1000
1000
0000
,  // measure 28
0000
0001
0000
0000
,  // measure 29
0000
0100
0000
0010
,  // measure 30
0010
0000
0000
1000
,  // measure 31
1000
0000
0000
0010
,  // measure 32
0000
0000
0110
0000
0000
0001
0000
0000
,  // measure 33
0000
0100
0000
1000
,  // measure 34
0000
0001
0000
0000
,  // measure 35
0000
0000
0000
1001
,  // measure 36
0000
1000
0000
0000
,  // measure 37
0100
0100
0000
0000
,  // measure 38
1000
0000
0100
0000
,  // measure 39
1000
0000
0010
0000
,  // measure 40
0100
0000
0100
0000
,  // measure 41
0010
0010
0010
0010
,  // measure 42
0000
1000
0000
0010
,  // measure 43
0000
0100
0000
0001
,  // measure 44
0000
0100
0000
0001
,  // measure 45
0000
0100
0100
0100
,  // measure 46
0000
0001
0000
0001
,  // measure 47
0000
1000
0000
1000
,  // measure 48
0000
1000
0000
0001
,  // measure 49
0000
0100
0100
0100
,  // measure 50
0000
0010
0000
0100
,  // measure 51
0000
0001
0000
1000
,  // measure 52
0010
0000
0100
0000
,  // measure 53
0000
0001
0000
1000
,  // measure 54
1000
0000
0000
0100
,  // measure 55
0000
1000
0000
0010
,  // measure 56
0000
0000
0000
0100
0000
0000
0000
0000
,  // measure 57
0001
0001
0000
0100
,  // measure 58
0000
0000
0000
0010
0000
0000
0100
0000
,  // measure 59
0000
0100
0000
0010
,  // measure 60
0000
0100
0000
0000
0000
0000
0010
0000
,  // measure 61
0000
0010
0000
1000
,  // measure 62
0000
0000
0000
0100
0000
0000
1000
0000
,  // measure 63
0000
0010
0000
0000
,  // measure 64
0000
0100
0000
0000
0000
0000
0010
0000
,  // measure 65
0000
1000
1000
0000
,  // measure 66
1000
0000
0000
0010
0000
0000
1000
0000
,  // measure 67
0000
1000
0000
1000
,  // measure 68
0000
0002
0000
0000
,  // measure 69
0000
0013
0000
0001
,  // measure 70
0000
0100
0100
0100
;
