#TITLE:One Last Time;
#SUBTITLE:;
#ARTIST:Ariana Grande;
#TITLETRANSLIT:;
#SUBTITLETRANSLIT:;
#ARTISTTRANSLIT:;
#GENRE:;
#CREDIT:;
#BANNER:[ROUND B] - One Last Time-bn.png;
#BACKGROUND:[ROUND B] - One Last Time-bg.png;
#LYRICSPATH:;
#CDTITLE:cdtitle.png;
#MUSIC:[ROUND B] - One Last Time.mp3;
#OFFSET:-0.41100;
#SAMPLESTART:39.692001;
#SAMPLELENGTH:12.000000;
#SELECTABLE:YES;
#BPMS:0.000000=125
;
#STOPS:
;
#BGCHANGES:0.00=one last time.avi=1.000=0=0=0=StretchNoLoop==CrossFade==,
99999=-nosongbg-=1.000=0=0=0 // don't automatically add -songbackground-
;
#KEYSOUNDS:;
#ATTACKS:;

//---------------dance-single - ----------------
#NOTES:
     dance-single:
     :
     Hard:
     7:
     0.359475,0.439287,0.213852,0.349291,0.153261,353.000000,323.000000,30.000000,49.000000,9.000000,0.000000,0.359475,0.439287,0.213852,0.349291,0.153261,353.000000,323.000000,30.000000,49.000000,9.000000,0.000000:
0000
0000
0000
0000
,
0000
0000
0000
0000
,
0000
0000
0000
0000
,
0000
0000
0000
0000
,
0000
0000
1000
0100
,
1000
0000
0001
0100
,
0001
0000
0100
0000
0020
0000
1030
0001
,
0200
0000
0310
1000
0001
0000
0010
0000
,
0200
0300
1000
0010
,
1000
0000
0001
0010
,
0001
0000
0010
0000
0200
0000
1300
0001
,
0020
0000
0130
1000
0001
0000
0100
0000
,
0020
0000
0000
0000
1030
0000
1000
0000
0001
0000
0000
0001
0010
0000
0000
0010
,
0100
0000
1000
0001
1000
0000
0010
0100
,
0001
0000
1000
0000
0200
0000
0310
0001
,
2000
0000
0000
0000
3100
0000
0010
0000
0001
0000
0000
1000
0000
0000
1001
0000
,
0000
0000
0000
0000
0001
0000
0001
0000
1000
0000
0000
1000
0100
0000
0000
0100
,
0010
0000
0001
1000
0001
0000
0100
0010
,
1000
0000
0001
0000
0020
0000
0130
1000
,
0002
0000
0000
0000
0013
0000
0100
0000
1000
0000
0000
0001
0000
0000
2002
0000
,
0000
3003
0120
1030
,
0210
0000
0301
0000
0120
0000
1030
1000
,
0001
0000
0000
0100
0000
0000
0002
0000
0000
0000
0000
0000
0013
0000
0100
0000
,
0020
0000
0000
0000
0130
0000
1000
0000
0001
0000
0000
0001
0000
0000
2000
0000
,
0000
3000
0201
0310
,
0102
0000
0013
0000
0210
0000
0310
0001
,
0010
0000
0000
0010
0000
0000
0200
0000
0000
0000
0000
0000
1300
0000
0001
0000
,
2000
0000
0000
0000
3010
0000
0100
0000
0001
0000
0000
0001
0000
0000
2000
0000
,
0000
0000
3000
0000
0001
0010
0100
0010
,
0001
0000
1000
0001
1000
0000
1001
0000
,
0220
0000
0330
0000
1000
0100
0010
0100
,
1000
0000
0010
0100
0010
0000
1010
0000
,
2002
3003
2100
3001
,
0012
0000
1003
0000
2010
0000
3100
0100
,
0010
0000
0000
0001
0000
0000
0200
0000
0000
0000
0000
0000
0301
0000
1000
0000
,
0002
0000
0000
0000
0013
0000
0100
0000
1000
0000
0000
1000
0000
0000
0002
0000
,
0000
0003
M000
0000
,
00M0
0000
0000
0M00
0000
0000
0000
000M
,
M000
0000
0000
0M00
0000
0000
00M0
0000
2000
0000
0000
0000
3100
0000
0001
0000
,
0020
0000
0000
0000
1030
0000
0100
0000
1000
0000
0000
0001
0000
0000
2000
0000
,
0000
3000
0001
0100
,
1000
0010
0001
1000
,
0010
0000
0100
0000
0002
0000
1003
0100
,
0020
0000
0000
0000
0130
0000
1000
0000
0001
0000
0000
0001
0000
0000
2000
0000
,
0000
0000
0000
0000
3000
0000
0000
0000
1000
0000
0000
1000
0010
0000
0000
0010
,
0100
0010
0100
0001
1000
0001
0010
0100
,
2000
0000
3001
0001
0200
0000
0310
1000
,
0002
0000
0000
0000
0103
0000
0010
0000
1000
0000
0000
1000
0000
0000
0002
0000
,
0000
0000
0000
0000
1003
0000
1000
0000
0001
0000
0000
0001
0010
0000
0000
0010
,
0100
0010
0100
1000
0001
1000
0010
0100
,
0001
1000
0001
0100
0020
0000
1030
0100
,
0020
0000
0031
1000
2002
0000
0000
0000
,
0000
0000
0000
0000
3003
0000
0000
0000
1010
0000
0000
0010
0100
0000
0000
0000
,
0101
0000
0000
0100
0001
0000
0000
0000
1001
0000
0000
0001
0010
0000
0000
0000
,
0100
0000
0000
0100
0000
0000
1000
0000
0001
0000
0000
0001
0100
0000
0000
0000
,
0100
0000
0000
0100
0001
0000
0000
0000
0010
0000
0000
0010
0000
0000
0100
0000
,
1000
0000
0000
1000
0000
0000
0010
0000
1010
0000
0000
1000
0100
0000
0000
0000
,
0110
0000
0000
0010
0001
0000
0000
0000
1001
0000
0000
0001
0100
0000
0000
0000
,
0010
0000
0000
0010
0000
0000
1000
0000
0001
0000
0000
0001
0010
0000
0000
0000
,
0010
0000
0000
0010
0001
0000
0000
0000
0001
0000
0000
0001
1000
0000
0000
0000
,
0010
0000
0000
0010
0100
0000
0100
0000
0001
0000
1000
0000
0001
0000
0010
0000
,
1000
0010
0001
0100
0010
0000
1010
0000
,
0101
0000
1001
0000
0001
1000
1000
0100
,
0001
0100
1000
0010
1000
0001
0100
0000
,
0110
0000
0000
0000
1001
0000
0000
0000
1100
0000
0000
0100
1000
0000
0000
0000
,
1010
0000
0000
1000
0010
0000
0000
0000
0110
0000
0000
0010
0100
0000
0000
0000
,
0100
0000
0000
0100
0000
0000
0001
0000
1000
0000
0000
1000
0100
0000
0000
0000
,
1000
0000
0000
1000
0010
0000
0100
0000
0001
0000
0000
0001
0000
0000
2000
0000
,
0000
0000
3000
0000
,
0000
0000
0000
0000
,
0000
0000
0000
0000
,
0000
0000
0000
0000
,
0000
0000
M00M
0000
;

//---------------dance-single - ----------------
#NOTES:
     dance-single:
     :
     Medium:
     5:
     0.275971,0.317392,0.228109,0.577400,0.000000,271.000000,239.000000,32.000000,81.000000,5.000000,0.000000,0.275971,0.317392,0.228109,0.577400,0.000000,271.000000,239.000000,32.000000,81.000000,5.000000,0.000000:
// measure 0
0000
0000
0000
0000
,  // measure 1
0000
0000
0000
0000
,  // measure 2
0000
0000
0000
0000
,  // measure 3
0000
0000
0000
0000
,  // measure 4
0000
0000
1000
0000
,  // measure 5
0100
0000
0000
0000
1000
0000
0000
0001
,  // measure 6
1000
0000
0001
0000
0200
0000
0300
0010
,  // measure 7
2000
0000
3000
0001
0100
0000
0001
0000
,  // measure 8
2000
3000
0001
0000
,  // measure 9
0010
0000
0000
0000
0001
0000
0000
1000
,  // measure 10
0001
0000
1000
0000
0200
0000
0300
0010
,  // measure 11
0002
0000
0003
1000
0100
0000
1000
0000
,  // measure 12
0002
0003
1000
1010
,  // measure 13
0010
0000
0110
0000
0100
0001
0100
0000
,  // measure 14
0001
0000
0001
0000
2000
0000
3000
1000
,  // measure 15
0200
0000
0300
0100
1000
0000
0001
0000
,  // measure 16
1001
0000
0001
0101
,  // measure 17
0100
0000
0110
0000
0010
1000
0010
0000
,  // measure 18
1000
0000
1000
0000
0002
0000
0003
0001
,  // measure 19
0020
0000
0030
0010
0001
0000
1000
0000
,  // measure 20
2002
3003
1000
0100
,  // measure 21
0001
0010
1000
0100
,  // measure 22
1000
0000
0010
0000
0200
0000
0300
0001
,  // measure 23
0020
0000
0030
0001
0100
0000
0001
0000
,  // measure 24
2000
3000
0001
0010
,  // measure 25
1000
0100
0001
0010
,  // measure 26
0001
0000
0100
0000
0020
0000
0030
1000
,  // measure 27
0200
0000
0300
1000
0010
0000
1000
0000
,  // measure 28
0002
0003
1000
0100
,  // measure 29
0010
0000
0001
0100
0001
0000
0101
0000
,  // measure 30
2002
3003
0010
0100
,  // measure 31
0001
0000
1000
0100
1000
0000
1100
0000
,  // measure 32
2002
3003
0001
0100
,  // measure 33
1000
0010
0001
0100
,  // measure 34
0001
0000
0010
0000
0200
0000
0300
1000
,  // measure 35
0020
0000
0030
1000
0100
0000
0010
0000
,  // measure 36
0002
0003
M000
0000
,  // measure 37
00M0
0000
0M00
0000
,  // measure 38
000M
0000
M000
0000
0200
0000
0310
0100
,  // measure 39
0020
0000
0130
0001
0100
0000
0001
0000
,  // measure 40
2002
3003
1000
0100
,  // measure 41
1000
0000
0001
0100
,  // measure 42
0001
0000
1000
0000
0020
0000
0130
0010
,  // measure 43
0200
0000
0310
1000
0010
0000
1000
0000
,  // measure 44
2002
3003
0002
0023
,  // measure 45
2030
0000
3100
0100
0001
0000
0010
0000
,  // measure 46
0100
1000
0100
0000
2000
0000
3010
0100
,  // measure 47
0020
0000
0130
0001
0100
0000
0001
0000
,  // measure 48
0202
0303
2000
3200
,  // measure 49
0302
0000
0013
0010
1000
0000
0100
0000
,  // measure 50
0010
0001
0010
0000
0002
0000
0103
0010
,  // measure 51
0200
0310
2002
0000
,  // measure 52
0000
3003
2200
3300
,  // measure 53
0022
0033
0202
0303
,  // measure 54
0010
0000
1000
0000
0002
0000
0013
0100
,  // measure 55
2000
0000
3001
0010
0100
0000
1100
0000
,  // measure 56
2002
3003
0202
0303
,  // measure 57
2020
3030
2200
3300
,  // measure 58
0010
0000
0001
0000
2000
0000
3010
0100
,  // measure 59
0002
0000
1003
0010
0100
0000
0101
0000
,  // measure 60
2002
0000
3003
0000
1000
0100
1000
0000
,  // measure 61
1000
0001
1000
0000
0010
0000
0110
0000
,  // measure 62
0202
0000
0303
0000
0001
0100
0001
0000
,  // measure 63
1000
0000
0001
1000
0001
0000
0011
0000
,  // measure 64
0220
0330
2200
3300
,  // measure 65
2002
3003
0202
0303
,  // measure 66
0010
0000
1000
0000
0002
0000
0013
0100
,  // measure 67
2000
0000
3010
0100
0001
0000
1000
0000
,  // measure 68
2002
0000
3003
0000
;

//---------------dance-single - ----------------
#NOTES:
     dance-single:
     :
     Easy:
     2:
     0.175155,0.219733,0.135440,0.178210,0.000000,172.000000,153.000000,19.000000,25.000000,4.000000,0.000000,0.175155,0.219733,0.135440,0.178210,0.000000,172.000000,153.000000,19.000000,25.000000,4.000000,0.000000:
// measure 0
0000
0000
0000
0000
,  // measure 1
0000
0000
0000
0000
,  // measure 2
0000
0000
0000
0000
,  // measure 3
0000
0000
0000
0000
,  // measure 4
0000
0000
1000
0000
,  // measure 5
1000
0000
1000
0000
,  // measure 6
0010
0010
0020
0030
,  // measure 7
0200
0300
0001
0001
,  // measure 8
2000
0000
3001
0000
,  // measure 9
0001
0000
0001
0000
,  // measure 10
0010
0010
0020
0030
,  // measure 11
0200
0300
1000
1000
,  // measure 12
0002
0000
1003
1000
,  // measure 13
1000
0000
0100
0000
,  // measure 14
0010
0000
0002
0003
,  // measure 15
0200
0300
0001
1000
,  // measure 16
1001
0000
0001
0001
,  // measure 17
0001
0000
0010
0000
,  // measure 18
0100
0000
2000
3000
,  // measure 19
0020
0030
1000
0001
,  // measure 20
1001
0000
0002
0003
,  // measure 21
0020
0030
2000
3000
,  // measure 22
0200
0300
0001
0000
,  // measure 23
1000
0000
0100
0100
,  // measure 24
0100
0000
2000
3000
,  // measure 25
0020
0030
0002
0003
,  // measure 26
0200
0300
1000
0000
,  // measure 27
0001
0000
0100
0100
,  // measure 28
0100
0000
0001
0000
,  // measure 29
0011
0000
1000
0000
,  // measure 30
1100
0000
0010
0000
,  // measure 31
0110
0000
1000
0000
,  // measure 32
1001
0000
0002
0003
,  // measure 33
0020
0030
0200
0300
,  // measure 34
2000
3000
0001
0000
,  // measure 35
0100
0000
0001
0001
,  // measure 36
0001
0000
M000
0000
,  // measure 37
0M00
0000
00M0
0000
,  // measure 38
000M
0000
1000
0000
,  // measure 39
1000
0000
0010
0010
,  // measure 40
0110
0000
0001
0000
,  // measure 41
0001
0000
1000
0000
,  // measure 42
0001
0001
0010
0000
,  // measure 43
0010
0000
0100
0100
,  // measure 44
1100
0000
1000
1000
,  // measure 45
0010
0010
0100
0000
,  // measure 46
0001
0000
1000
0000
,  // measure 47
1000
0000
0001
0001
,  // measure 48
1001
0000
0001
0001
,  // measure 49
0010
0010
0100
0000
,  // measure 50
1000
0000
0001
0000
,  // measure 51
0001
0000
2002
0000
,  // measure 52
0000
3003
1010
0000
,  // measure 53
0110
0000
0101
0000
,  // measure 54
1000
1000
0100
0000
,  // measure 55
0100
0000
0010
0010
,  // measure 56
0010
0000
0011
0000
,  // measure 57
1001
0000
1010
0000
,  // measure 58
0010
0010
0100
0000
,  // measure 59
0100
0000
0001
0001
,  // measure 60
0001
0000
1000
1000
,  // measure 61
0010
0010
0100
0000
,  // measure 62
0100
0000
0001
0001
,  // measure 63
0010
0010
0001
0010
,  // measure 64
0001
0000
1100
0000
,  // measure 65
0011
0000
1001
0000
,  // measure 66
0010
0010
0100
0000
,  // measure 67
0100
0000
0001
0001
,  // measure 68
0002
0000
0003
0000
;
