#TITLE:Nigra Ludia;
#SUBTITLE:;
#ARTIST:Akhuta;
#TITLETRANSLIT:;
#SUBTITLETRANSLIT:;
#ARTISTTRANSLIT:;
#CREDIT:Lisek;
#BANNER:[ROUND B] - Nigra Ludia.png;
#BACKGROUND:[ROUND B] - Nigra Ludia-bg.png;
#LYRICSPATH:;
#CDTITLE:cdtitle.png;
#MUSIC:[ROUND B] - Nigra Ludia.ogg;
#OFFSET:-1.245;
#SAMPLESTART:9.322;
#SAMPLELENGTH:10.792;
#SELECTABLE:YES;
#BPMS:0.000=177.000;
#STOPS:;
#BGCHANGES:;

//---------------dance-single - Lisek----------------
#NOTES:
     dance-single:
     Lisek:
     Hard:
     9:
     0.591,0.726,0.377,0.329,0.222: // measure 1
0000
0000
0000
0000
,  // measure 2
0000
0000
0000
0000
,  // measure 3
0000
0000
0000
0000
1000
0010
0100
0001
,  // measure 4
1000
0100
0010
0001
1000
0001
0010
0100
,  // measure 5
1100
0000
0000
0110
0000
0000
0022
0000
,  // measure 6
0000
0000
0000
0000
0000
0033
0000
0000
,  // measure 7
2000
0000
0000
0000
3000
0000
0010
0100
0010
0000
0000
0000
0100
0000
0001
0000
,  // measure 8
0020
0000
0000
0000
0030
0000
0100
1000
0100
0000
0000
0000
0010
0000
0001
0000
,  // measure 9
0100
1000
0100
0010
0100
1000
0100
0001
,  // measure 10
0010
1000
0001
0100
1000
0001
1000
0001
,  // measure 11
0200
0000
0000
0000
0300
0000
0001
0100
0001
0000
0000
0000
1000
0000
0010
0000
,  // measure 12
0200
0000
0000
0000
0300
0000
0010
1000
0010
0000
0000
0000
0100
0000
0000
0000
,  // measure 13
0110
0000
0000
1010
0000
0000
0101
0000
,  // measure 14
0000
0110
0000
0000
2002
0000
0000
0000
,  // measure 15
0000
0000
0000
3003
1100
0000
0011
0000
,  // measure 16
0001
0100
1000
0100
0010
0100
0001
1000
,  // measure 17
1000
0100
0001
0100
0010
0100
1000
0001
,  // measure 18
0001
0100
0100
0010
0010
1000
1000
0001
,  // measure 19
0001
0100
0100
0010
1000
0001
2000
0000
,  // measure 20
3001
0000
0010
0000
0100
0000
1000
0010
1000
0000
0010
0000
0100
0000
0001
0000
,  // measure 21
1000
0000
0100
0000
0010
0000
0001
0100
0001
0000
0100
0000
0010
0000
0000
1000
,  // measure 22
0100
0000
0000
0010
0001
0000
0000
1000
0010
0000
0000
0100
0001
0000
0000
1000
,  // measure 23
0001
0100
0010
0100
0001
1000
0001
0000
,  // measure 24
1000
0010
0001
0100
,  // measure 25
1000
0001
2000
3000
,  // measure 26
0001
0010
0001
0000
0000
0000
0001
0100
0001
0000
0000
0000
1000
0010
1000
0000
,  // measure 27
0000
0000
1000
0100
1000
0000
0100
0000
0010
0000
0001
0000
1000
0000
0000
0000
,  // measure 28
0001
0100
0001
0000
0000
0000
1000
0010
1000
0000
0000
0000
0010
0000
0100
0000
,  // measure 29
0010
1000
0100
0010
0001
1000
0020
0000
,  // measure 30
1030
0000
0000
1000
0100
0000
0000
0100
0010
0000
0000
0010
0001
0000
0000
0000
,  // measure 31
0001
0000
0000
0001
0010
0000
0000
0010
0100
0000
0000
0100
1000
0000
0000
0000
,  // measure 32
1000
0000
0000
1000
0010
0000
0000
0010
0100
0000
0000
0100
0001
0000
1000
0000
,  // measure 33
0010
0100
0001
0010
0200
0000
0000
0300
,  // measure 34
2000
0010
0100
0001
,  // measure 35
3002
0010
1000
0100
,  // measure 36
0203
0001
1000
0010
,  // measure 37
0320
0001
0100
1000
,  // measure 38
2030
0100
0010
0001
,  // measure 39
3002
0010
0100
1000
,  // measure 40
2M03
00M0
000M
0M00
302M
0M00
M000
000M
,  // measure 41
M230
000M
00M0
M000
000M
M000
00M0
M000
,  // measure 42
032M
0000
0000
0000
,  // measure 43
0200
0000
0000
0000
0000
0000
0000
0330
,  // measure 44
0110
0000
1001
0000
,  // measure 45
1010
0101
1001
0000
,  // measure 46
0001
0000
0000
0100
0000
0000
0010
0000
0100
0000
0000
0001
0000
0000
0100
0000
,  // measure 47
0010
0000
0000
1000
0000
0000
0010
0000
0100
0000
0001
0000
1000
0000
0010
0000
,  // measure 48
0100
0000
0000
0001
0000
0000
0100
0000
0010
0000
0000
1000
0000
0000
0010
0000
,  // measure 49
0100
0000
0000
0001
0000
0000
1000
0000
0100
0000
1000
0000
0001
0000
0010
0000
,  // measure 50
0200
0010
0320
0001
,  // measure 51
0032
1000
2003
0100
,  // measure 52
3200
0010
0010
0000
0320
0001
0001
0000
,  // measure 53
0031
1000
0010
0100
0002
0000
0000
0003
,  // measure 54
1000
0000
0000
0010
0000
0000
0100
0000
0010
0000
0000
1000
0000
0000
0010
0000
,  // measure 55
0100
0000
0000
0001
0000
0000
0010
0000
0001
0000
0100
0000
0010
0000
1000
0000
,  // measure 56
0001
0000
0000
0010
0000
0000
0100
0000
0010
0000
0000
0001
0000
0000
0100
0000
,  // measure 57
0010
0000
0000
1000
0000
0000
0010
0000
0100
0000
0001
0000
1000
0000
0001
0000
,  // measure 58
0200
0010
0320
1000
,  // measure 59
2030
0001
3002
0100
,  // measure 60
0103
0000
0110
0000
,  // measure 61
1100
0011
1001
0000
,  // measure 62
1010
0000
1100
0000
,  // measure 63
0110
0000
0011
0000
,  // measure 64
0101
0000
1001
0000
,  // measure 65
1010
0101
1001
0000
,  // measure 66
0011
0000
1100
0000
,  // measure 67
1010
0101
0110
1001
,  // measure 68
1000
0001
0010
0100
1000
0100
0010
0001
,  // measure 69
1000
0000
0000
0000
0000
0000
0010
0000
0000
1000
0000
0000
0010
0000
0000
0000
0000
0000
0100
0000
0000
0000
0000
0000
0001
0000
0000
0100
0000
0000
0001
0000
0000
0000
0000
0000
1000
0000
0000
0000
0001
0000
0000
0000
1000
0000
0000
0000
,  // measure 70
0001
1000
0001
1000
0001
1000
0001
0000
0000
1000
0000
0000
,  // measure 71
1001
0000
0110
0000
,  // measure 72
1001
0110
1001
0000
;

//---------------dance-single - Lisek----------------
#NOTES:
     dance-single:
     Lisek:
     Beginner:
     1:
     0.094,0.173,0.000,0.087,0.000:
0000
0000
0000
0000
,
0000
0000
0000
0000
,
0000
0000
0000
0000
,
0000
0000
0000
0000
,
0000
0000
0000
0000
,
0000
0000
0000
0000
,
1000
0000
0000
0000
,
0001
0000
0000
0000
,
1000
0000
0000
0000
,
0010
0000
0000
0000
,
1000
0000
0000
0000
,
0001
0000
0000
0000
,
0200
0000
0000
0000
,
0000
0000
0000
0000
,
0000
0000
0000
0300
,
0001
0000
0000
0000
,
1000
0000
0000
0000
,
0001
0000
0000
0000
,
1000
0000
0000
0000
,
0010
0000
0000
0000
,
1000
0000
0000
0000
,
0010
0000
0000
0000
,
1000
0000
0000
0000
,
0020
0000
0000
0000
,
0000
0000
0000
0000
0000
0030
0000
0000
,
2000
0000
0000
0000
,
0000
0000
0000
3000
,
0002
0000
0000
0000
,
0000
0000
0000
0003
,
1000
0000
0000
0000
,
0001
0000
0000
0000
,
1000
0000
0000
0000
,
0001
0000
0000
0000
,
0100
0000
0000
0000
,
0001
0000
0000
0000
,
0100
0000
0000
0000
,
0001
0000
0000
0000
,
1000
0000
0000
0000
,
0010
0000
0000
0000
,
2000
0000
0000
0000
,
0000
0000
0000
3000
,
0002
0000
0000
0000
,
2000
0000
0000
3003
,
0000
0000
0000
0000
,
0000
0000
0000
0000
,
1000
0000
0000
0000
,
0010
0000
0000
0000
,
0100
0000
0000
0000
,
0010
0000
0000
0000
,
1000
0000
0000
0000
,
0001
0000
0000
0000
,
1000
0000
0000
0000
,
0001
0000
0000
0000
,
0100
0000
0000
0000
,
0010
0000
0000
0000
,
0100
0000
0000
0000
,
0001
0000
0000
0000
,
1000
0000
0000
0000
,
0001
0000
0000
0000
,
1000
0000
0000
0000
,
0000
0000
0000
0000
,
0001
0000
0000
0000
,
0010
0000
0000
0000
,
0100
0000
0000
0000
,
1000
0000
0000
0000
,
0001
0000
0000
0000
,
1000
0000
0000
0000
,
0002
0000
0000
0000
,
2000
0000
0000
0000
,
0000
0000
0000
0000
0000
3003
0000
0000
,
1000
0000
0001
0000
,
1000
0001
1000
0000
;

//---------------dance-single - Lisek----------------
#NOTES:
     dance-single:
     Lisek:
     Medium:
     6:
     0.391,0.449,0.164,0.193,0.000: // measure 1
0000
0000
0000
0000
,  // measure 2
0000
0000
0000
0000
,  // measure 3
0000
0000
2000
0000
,  // measure 4
0000
3002
0000
0000
,  // measure 5
1003
0000
0000
0010
0000
0000
0200
0000
,  // measure 6
0000
0000
0000
0000
0000
0300
0000
0000
,  // measure 7
0002
0000
0003
0100
0001
0000
1000
0000
,  // measure 8
0020
0000
0030
1000
0100
0000
0010
0000
,  // measure 9
0001
1000
0010
1000
,  // measure 10
0001
0100
0010
1000
0100
0010
0001
1000
,  // measure 11
0002
0000
0003
1000
0010
0000
0100
0000
,  // measure 12
0020
0000
0030
1000
0001
0000
0100
0000
,  // measure 13
0001
0000
0000
1000
0000
0000
0010
0000
,  // measure 14
0000
0100
0000
0000
0002
0000
0000
0000
,  // measure 15
0000
0000
1003
1000
,  // measure 16
0001
0000
0100
0000
0010
1000
0010
0000
,  // measure 17
1000
0000
0100
0000
0010
0001
0010
0000
,  // measure 18
0001
1000
0010
0100
,  // measure 19
0001
0000
1000
0000
0010
0100
0001
0000
,  // measure 20
1000
0000
0100
0000
0010
0001
1000
0000
,  // measure 21
0010
0000
0100
0000
0001
0010
0100
0000
,  // measure 22
1000
0010
0100
0001
,  // measure 23
1000
0000
0100
0000
1000
0001
1000
0000
,  // measure 24
0001
0001
0010
0010
,  // measure 25
0100
0100
2000
3000
,  // measure 26
0001
0000
0000
1000
0000
0000
0010
0000
,  // measure 27
0000
1000
0010
0000
0100
0000
0001
0000
,  // measure 28
1000
0000
0000
0100
0000
0000
0010
0000
,  // measure 29
0001
1000
0010
0100
,  // measure 30
0000
0100
0001
0000
0100
0000
0001
0000
,  // measure 31
1000
0010
1000
0000
0010
0000
1000
0000
,  // measure 32
0001
1000
0001
0000
1000
0000
0001
0000
,  // measure 33
1000
0100
0010
0001
2000
0000
3000
0000
,  // measure 34
0001
0001
0100
0100
,  // measure 35
1000
1000
0100
0100
,  // measure 36
0001
0001
0010
0010
,  // measure 37
1000
1000
0010
0001
,  // measure 38
1000
1000
0100
0100
,  // measure 39
0001
0001
0100
0100
,  // measure 40
1000
0010
0100
0001
,  // measure 41
2000
0000
0000
3000
,  // measure 42
0002
0000
0000
0000
,  // measure 43
2000
0000
0000
0000
0000
0000
0000
3003
,  // measure 44
1001
0000
0110
0000
,  // measure 45
1001
0110
1001
0000
,  // measure 46
0001
1000
0100
1000
,  // measure 47
0001
0000
0100
0000
0010
0100
0010
1000
,  // measure 48
0001
0100
0010
0100
,  // measure 49
0001
0000
1000
0000
0001
1000
0001
0100
,  // measure 50
0010
1000
0010
0100
,  // measure 51
0001
0100
0010
1000
,  // measure 52
0020
0000
2030
0000
,  // measure 53
3001
0010
0100
0000
,  // measure 54
1000
0001
0010
0001
,  // measure 55
1000
0000
0001
0000
0100
0010
0100
0001
,  // measure 56
1000
0010
0100
0010
,  // measure 57
1000
0000
0001
0000
1000
0001
1000
0010
,  // measure 58
0100
0001
0100
0010
,  // measure 59
1000
0010
0100
0001
,  // measure 60
0200
0000
0320
0000
,  // measure 61
0130
0010
0110
0000
,  // measure 62
1010
0000
1010
0000
,  // measure 63
0110
0000
0110
0000
,  // measure 64
0101
0000
0101
0000
,  // measure 65
0001
1000
0100
0000
,  // measure 66
0110
0000
0110
0000
,  // measure 67
0010
0001
1000
0000
,  // measure 68
0001
0100
0010
1000
,  // measure 69
0020
0000
0000
0230
0000
0000
0320
0000
,  // measure 70
0000
0000
0000
0000
0000
0000
0000
0030
,  // measure 71
0100
0000
0010
0000
,  // measure 72
1001
0110
1001
0000
;

//---------------dance-single - Lisek----------------
#NOTES:
     dance-single:
     Lisek:
     Easy:
     3:
     0.192,0.242,0.029,0.068,0.000:
0000
0000
0000
0000
,
0000
0000
0000
0000
,
0000
0000
0000
0000
,
0000
0000
0000
0000
,
0000
0000
0000
0000
,
0000
0000
0000
0000
,
1000
0000
0010
0000
,
0100
0000
0010
0000
,
1000
0000
0100
0000
,
0010
0000
0001
0000
,
0100
0000
0010
0000
,
0100
0000
0001
0000
,
1000
0000
0000
0001
0000
0000
1000
0000
,
0000
0001
0000
0000
2000
0000
0000
0000
,
0000
0000
3000
0000
,
0001
0000
0010
0000
,
0100
0000
1000
0000
,
0001
0000
0100
0000
,
0010
0000
1000
0000
,
1000
0000
0100
0000
,
0010
0000
0001
0000
,
1000
0000
0010
0000
,
0100
0000
0001
0000
,
2002
0000
0000
0000
,
0000
0000
3003
0000
,
1000
0000
0000
1000
0000
0000
1000
0000
,
0000
0000
0000
0000
,
0001
0000
0000
0001
0000
0000
0001
0000
,
0000
0000
0000
0000
,
1000
0000
0100
0000
,
0010
0000
0001
0000
,
1000
0000
0100
0000
,
0010
0000
0001
0000
,
1000
0000
1000
0000
,
0010
0000
0010
0000
,
0100
0000
0100
0000
,
0001
0000
0001
0000
,
1000
0000
1000
0000
,
0100
0000
0100
0000
,
0010
0000
0001
0000
,
2000
0000
0000
3000
,
0002
0000
0000
0000
,
2000
0000
0000
3003
,
1001
0000
1001
0000
,
1000
0001
1000
0000
,
0001
0000
0100
0000
,
0001
0000
0100
0000
,
0010
0000
1000
0000
,
0010
0000
1000
0000
,
0100
0000
0010
0000
,
0001
0000
1000
0000
,
0010
0000
1000
0000
,
0001
1000
0001
0000
,
1000
0000
0100
0000
,
1000
0000
0100
0000
,
0010
0000
0001
0000
,
0010
0000
0001
0000
,
1000
0000
0010
0000
,
0100
0000
0001
0000
,
1000
0000
0001
0000
,
1000
0001
1000
0000
,
0010
0000
0010
0000
,
0010
0000
0010
0000
,
0100
0000
0100
0000
,
0100
0100
0100
0000
,
0001
0000
0001
0000
,
0001
0001
0001
0000
,
1000
0000
0010
0000
,
0100
0000
0000
0010
0000
0000
0100
0000
,
0020
0000
0000
0000
0000
0000
0000
0030
,
1000
0000
0001
0000
,
1000
0001
1000
0000
;

//---------------dance-single - Lisek----------------
#NOTES:
     dance-single:
     Lisek:
     Challenge:
     12:
     0.882,0.967,0.348,0.184,0.720: // measure 1
0000
0000
0000
0000
,  // measure 2
0000
0000
0000
1000
,  // measure 3
0001
0000
0000
0000
1000
0000
0000
0000
0010
0000
0100
0010
0100
0000
0010
0100
,  // measure 4
0001
1000
0100
0010
0001
0000
1000
0100
1000
0000
0001
0010
0100
1000
0001
1000
,  // measure 5
0010
0100
0010
0001
0010
1000
0002
0000
,  // measure 6
0000
0000
0000
0000
0000
0000
0000
0000
0000
0000
1003
0001
1000
0000
0000
0000
,  // measure 7
0001
0000
1000
0000
0100
0000
0010
0100
0010
0000
0100
0000
1000
0000
0001
0000
,  // measure 8
1000
0000
0010
0000
0100
0000
0001
0010
0001
0000
0100
0000
0010
0000
1000
0000
,  // measure 9
0001
0100
1000
0100
0001
0010
1000
0010
,  // measure 10
0001
0100
0001
0100
0010
1000
0010
1000
0001
0000
1000
0000
0010
0000
0100
0000
,  // measure 11
0001
0000
1000
0000
0100
0000
1000
0010
1000
0000
0100
0000
1000
0000
0010
0000
,  // measure 12
0100
0000
0001
0000
1000
0000
0100
0010
0100
0000
1000
0000
0010
0000
0100
0000
,  // measure 13
0101
0000
0000
0110
0000
0000
1010
0000
,  // measure 14
0000
1100
0000
0000
2002
0000
0000
0000
,  // measure 15
0000
0000
0000
3003
1000
0000
0001
0000
,  // measure 16
1000
0000
0100
0000
0001
0000
0100
1000
0100
0000
1000
0000
0010
0000
0100
0000
,  // measure 17
0001
0000
0100
0000
1000
0000
0100
0001
0100
0000
0010
0000
1000
0000
0001
1000
,  // measure 18
0010
0000
0100
0001
1000
0000
0010
1000
0001
0000
0100
0001
1000
0000
0010
1000
,  // measure 19
0100
0000
0010
0001
1000
0100
0010
0001
1000
0000
0010
0000
0200
0000
0000
0000
,  // measure 20
0301
0000
0010
0000
1000
0000
0010
0001
0010
0000
0001
0000
0100
0000
0010
0000
,  // measure 21
1000
0000
0010
0000
0001
0000
0010
1000
0010
0000
1000
0000
0100
0000
0010
0001
,  // measure 22
1000
0000
0010
1000
0001
0000
0010
0000
0001
0000
0100
0010
1000
0000
0001
0000
,  // measure 23
1000
0000
0010
0100
0001
1000
0010
0000
0100
0000
0001
0000
0101
0000
0000
0000
,  // measure 24
0001
0100
1000
0010
,  // measure 25
0001
1000
0002
0003
,  // measure 26
1000
0100
0010
0001
1000
0000
0001
0100
0010
0100
0001
0000
1000
0100
0010
0001
,  // measure 27
1000
0000
0010
0100
0001
0000
0010
0000
0100
0000
1000
0000
1001
0000
0000
0000
,  // measure 28
0001
0010
0100
1000
0001
0000
1000
0001
0100
0010
1000
0100
0010
0001
0010
0100
,  // measure 29
1000
0000
0010
0100
0001
0000
1000
0000
0010
0000
1000
0000
0002
0000
0000
0000
,  // measure 30
1003
0000
1000
0100
1000
0000
1000
0010
1000
0000
1000
0100
0010
0001
2000
0000
,  // measure 31
3001
0000
0001
0010
0001
0000
0001
0100
0001
0000
0001
0010
0100
1000
0002
0000
,  // measure 32
1003
0000
0001
0100
0001
0000
1000
0010
1000
0001
0100
0001
1000
0010
0100
0001
,  // measure 33
1000
0000
0100
0000
0010
0000
0001
0000
1000
0000
0000
0010
0000
0000
0100
0000
,  // measure 34
0002
0000
0000
0000
0010
0000
0000
0000
0100
0000
0000
1000
0000
0000
0100
0000
,  // measure 35
2003
0000
0000
0000
0010
0000
0000
0000
0100
0000
0000
0001
0000
0000
0010
0000
,  // measure 36
3200
0000
0000
0000
0010
0000
0000
0000
1000
0000
0000
0010
0000
0000
0001
0000
,  // measure 37
0320
0001
1000
0100
,  // measure 38
0032
0000
0000
0000
1000
0000
0000
0000
0010
0000
0000
0100
0000
0000
0010
0000
,  // measure 39
2003
0001
0010
0001
,  // measure 40
3001
0100
0010
1000
0001
0010
0100
1000
,  // measure 41
0001
0000
0000
1000
0000
0000
0100
0000
0010
0000
0100
0000
1000
0000
0001
0000
0100
0000
0010
0000
1000
0000
0001
0000
,  // measure 42
2000
0000
0000
0000
,  // measure 43
0002
0000
0000
0000
0000
0000
0000
3003
,  // measure 44
1001
0000
1000
0000
0001
0000
0010
0000
1001
0000
0001
1000
0010
0000
0100
0000
,  // measure 45
0110
1001
0110
0000
,  // measure 46
1000
0000
0000
0100
1000
0000
0010
0000
0100
0000
0000
0001
0100
0000
0010
0000
,  // measure 47
1000
0000
0000
0100
0010
0000
0001
0000
1000
0100
0010
0100
1000
0001
0010
0000
,  // measure 48
0001
0000
0000
1000
0010
0000
0100
0000
0010
0000
0000
1000
0001
0000
0010
0000
,  // measure 49
0001
0000
0000
0010
0100
0000
1000
0000
0001
0010
0100
0010
0001
1000
0001
0000
,  // measure 50
1000
0010
0100
0001
0010
0100
1000
0010
0100
0001
0010
0100
1000
0100
0010
0001
,  // measure 51
1000
0010
0100
0001
1000
0100
0010
0001
1000
0010
0100
0001
0010
0100
1000
0000
,  // measure 52
0001
0000
1000
0010
0100
0000
0001
0000
1000
0000
0100
0010
0001
0000
1000
0000
,  // measure 53
0010
0100
0001
1000
0100
0010
0001
1000
0002
0000
0000
0000
0000
0000
0003
0000
,  // measure 54
1000
0000
0000
0001
0010
0000
0100
0000
1000
0000
0000
0010
0100
0000
0001
0000
,  // measure 55
1000
0000
0000
0010
0100
0000
0010
0000
1000
0001
0010
0100
0010
0001
1000
0000
,  // measure 56
0010
0000
0000
0100
0001
0000
1000
0000
0010
0000
0000
1000
0100
0000
0010
0000
,  // measure 57
0001
0000
0000
1000
0010
0000
0100
0000
0001
1000
0100
0010
0100
1000
0001
0000
,  // measure 58
1000
0100
0010
0001
1000
0010
0100
0001
1000
0100
0010
0001
0010
0100
1000
0001
,  // measure 59
1000
0010
0100
0001
1000
0100
0010
0001
1000
0001
0010
0100
1000
0001
1000
0000
,  // measure 60
0010
0000
0100
0001
1000
0000
0010
0000
0100
0000
0010
1000
0001
0000
1000
0000
,  // measure 61
1001
0110
1001
0000
,  // measure 62
1010
0010
0100
0001
0101
0001
1000
0010
,  // measure 63
1010
1000
0100
0010
0011
0001
1000
0010
,  // measure 64
1010
1000
0010
0100
0101
0001
1000
0010
,  // measure 65
1010
0000
0000
0000
1001
0000
0000
0000
0101
0000
0000
0001
0000
0000
0100
0000
,  // measure 66
0110
0010
1000
0100
0110
0010
0001
1000
,  // measure 67
1001
0110
2002
3003
,  // measure 68
1000
0000
0100
0000
0010
0000
0001
0000
0100
0000
0001
0100
0010
0000
1000
0000
,  // measure 69
1010
0000
0000
0000
0000
0000
1000
0000
0000
0010
0000
0000
0100
0000
0000
0000
0000
0000
0110
0000
0000
0000
0000
0000
0010
0000
0000
1000
0000
0000
0100
0000
0000
0000
0000
0000
0010
0000
0000
0000
0001
0000
0000
0000
1000
0000
0000
0000
,  // measure 70
0100
0010
0001
0010
0100
1000
0001
0000
0000
1000
0000
0000
,  // measure 71
1001
0000
1000
0010
0100
0000
0010
0000
1001
0000
0001
0100
0010
0000
0100
0000
,  // measure 72
1001
0110
1001
0000
;
