#TITLE:メルヘンデビュー!;
#SUBTITLE:;
#ARTIST:ARM(IOSYS) feat. 安部菜々;
#TITLETRANSLIT:Märchen Debut!;
#SUBTITLETRANSLIT:;
#ARTISTTRANSLIT:ARM(IOSYS) feat. Nana Abe;
#GENRE:;
#CREDIT:;
#BANNER:[ROUND B] - Marchen Debut!.jpg;
#BACKGROUND:[ROUND B] - Marchen Debut!-bg.jpg;
#LYRICSPATH:;
#CDTITLE:cdtitle.png;
#MUSIC:[ROUND B] - Marchen Debut!.ogg;
#OFFSET:0.000000;
#SAMPLESTART:14.118000;
#SAMPLELENGTH:11.294000;
#SELECTABLE:YES;
#BPMS:0.000000=170.000000
;
#STOPS:
;
#BGCHANGES:;
#KEYSOUNDS:;
#ATTACKS:;

//---------------dance-single - ----------------
#NOTES:
     dance-single:
     :
     Hard:
     8:
     0.612758,0.650338,0.219215,0.365358,0.109607,507.000000,30.000000,50.000000,0.000000,0.000000,0.000000,0.612758,0.650338,0.219215,0.365358,0.109607,507.000000,30.000000,50.000000,0.000000,0.000000,0.000000:
// measure 0
0000
0000
0000
0000
,  // measure 1
0000
0000
0000
0000
,  // measure 2
0000
0000
0000
0000
,  // measure 3
0000
0000
0000
0000
,  // measure 4
0000
0000
0000
0000
,  // measure 5
0000
0000
0000
0000
,  // measure 6
2100
0000
0000
0000
,  // measure 7
3002
0000
0203
0000
,  // measure 8
0310
0110
0000
0000
1000
1001
0000
0000
,  // measure 9
0100
0001
0000
0000
1000
0001
0000
0000
0010
0000
0000
0000
0100
0000
1000
0000
,  // measure 10
0002
0000
0013
0100
2000
0000
3010
0100
,  // measure 11
0002
1000
0000
1003
0200
0010
0000
0310
,  // measure 12
0200
0000
1300
0001
0020
0000
0130
1000
,  // measure 13
0001
0000
0001
0000
0100
0000
1000
0000
0100
0010
0100
0000
0001
0000
0010
0000
,  // measure 14
0210
0000
1300
0001
0020
0000
0130
1000
,  // measure 15
0020
0100
0000
0130
0002
1000
0000
1003
,  // measure 16
0100
0000
0100
0000
0010
0000
0010
0000
0001
0100
0001
0000
1000
0010
1000
0000
,  // measure 17
0000
0101
0000
1100
1100
0000
0001
0000
,  // measure 18
1001
0000
0001
0000
0100
0000
0000
0100
0000
0000
0010
0000
1000
0000
0001
0000
,  // measure 19
0100
0000
0010
0000
1000
0000
0000
1000
0000
0000
0100
0000
0010
0000
0001
0000
,  // measure 20
0100
0010
1000
0000
0100
0010
0001
0000
,  // measure 21
1000
0100
0001
0100
1000
0010
0100
0001
,  // measure 22
1000
0000
0010
0000
0100
0000
0000
0100
0000
0000
0001
0000
1000
0000
0010
0000
,  // measure 23
1000
0000
0001
0000
0100
0000
0000
0100
0000
0000
0010
0000
1000
0000
0001
0000
,  // measure 24
0010
0000
0100
0010
0000
0000
0100
0000
1000
0001
0000
0000
1000
0000
0000
0000
,  // measure 25
0001
0100
1000
0100
0010
1000
0100
0010
,  // measure 26
0001
1000
0001
0100
0010
1000
0001
0100
,  // measure 27
0010
1000
0010
0100
0001
0010
0100
1000
,  // measure 28
0002
1000
1003
0010
0200
0001
0301
0010
,  // measure 29
0100
1000
0100
0010
0001
0100
0010
1000
,  // measure 30
0100
1000
0100
0010
0001
1000
0010
0100
,  // measure 31
0001
0000
0001
0000
1000
0000
1000
0000
0010
0100
0010
0000
1000
0000
0001
0100
,  // measure 32
0001
0000
0000
0000
,  // measure 33
1100
0000
0000
0000
0011
0000
0000
0000
0100
0000
0001
0100
0001
0000
1000
0000
,  // measure 34
0002
1000
1003
0100
0010
0100
1000
0000
,  // measure 35
0020
0100
0130
0001
0010
0001
0100
0000
,  // measure 36
0010
1000
0001
0100
0010
1000
0100
0010
,  // measure 37
0001
0100
0010
1000
0001
0010
0100
1000
,  // measure 38
0002
0100
0103
0010
1000
0010
0100
0000
,  // measure 39
0002
0010
0013
0100
1000
0100
0010
0000
,  // measure 40
0100
0010
0001
1000
0010
0100
0001
1000
,  // measure 41
0000
0000
0000
0000
,  // measure 42
0000
0000
0000
0000
,  // measure 43
1100
0000
0000
0011
0000
1001
0000
0000
,  // measure 44
0101
0000
0000
1010
0000
1100
0000
0000
,  // measure 45
0001
1001
0100
0110
,  // measure 46
1000
0100
0010
0001
0000
0100
0100
0000
,  // measure 47
0020
1000
1030
0000
0100
0010
0001
2001
,  // measure 48
0000
3100
0100
0000
0010
0100
1000
0000
,  // measure 49
0002
0100
0103
0000
0010
1000
0001
0201
,  // measure 50
0000
0310
0010
0000
1000
0001
0010
0000
,  // measure 51
0200
1000
0000
1300
0200
0000
0010
0000
,  // measure 52
0320
0001
0100
1030
,  // measure 53
0010
0100
0010
0100
1000
0010
0001
0010
,  // measure 54
0100
0100
1001
0000
,  // measure 55
0002
0010
0013
0000
0100
1000
0001
0021
,  // measure 56
0000
0130
0100
0000
0010
0100
1000
0000
,  // measure 57
0020
0100
0130
0000
0001
0010
0100
2100
,  // measure 58
0000
3001
0001
0000
0100
0010
1000
0000
,  // measure 59
0002
0100
0000
0103
0020
0000
1000
0000
,  // measure 60
0230
1000
0010
0301
,  // measure 61
1001
0000
0000
0000
,  // measure 62
0000
0000
0000
0000
,  // measure 63
1000
0100
0001
0100
1000
0010
0001
0010
,  // measure 64
1000
0000
0000
0000
0000
0000
0000
1001
,  // measure 65
0000
0000
0000
0000
0001
0010
0100
1000
,  // measure 66
1000
0000
0001
0000
1000
0000
0010
0000
1000
0000
0000
0001
0000
0000
0001
0000
,  // measure 67
0010
0000
0000
0100
0010
0100
1000
0001
,  // measure 68
0100
0010
0100
0001
0100
0010
0000
1001
,  // measure 69
0000
0000
0000
0010
0000
0000
0100
0000
0000
1000
0000
0000
0100
0000
0010
0000
0100
0000
1000
0000
0001
0000
1000
0000
,  // measure 70
0010
0000
0000
0000
0100
0000
0000
0000
0010
0000
0000
0000
1000
0000
0000
0000
0100
0000
0000
0000
1000
0000
0000
0000
0001
0000
0000
0000
0010
0000
0000
0000
0100
0000
0000
0000
1000
0000
0000
0000
0000
0000
0000
0000
0000
0010
0000
0000
,  // measure 71
0000
0000
0100
0000
0100
0000
0001
0000
0001
0000
0000
1000
0001
0000
0010
0000
,  // measure 72
0100
0000
0100
0000
1000
0000
1000
0000
0001
0000
0100
0001
0100
0000
0010
0000
,  // measure 73
0020
1000
1030
0002
1000
1003
0200
0010
,  // measure 74
0320
0000
0031
1000
0200
0000
0300
0010
,  // measure 75
0200
0000
1000
0000
1300
0000
0002
0000
1000
0000
1003
0000
0010
1000
0010
0000
,  // measure 76
0100
0100
0010
0010
0100
0000
0001
0010
,  // measure 77
0100
0100
1000
1000
0100
0010
0100
0000
,  // measure 78
1000
1000
0001
0001
0100
0010
0100
0000
,  // measure 79
0020
1000
0000
1030
0002
0100
0003
0100
,  // measure 80
0010
1000
0010
0100
0001
0000
0001
0000
,  // measure 81
0020
0001
0031
2000
0001
3001
0200
0001
,  // measure 82
0302
0000
1003
0000
0020
0000
0030
1000
,  // measure 83
0200
0000
0010
0000
0310
0000
0002
0000
0010
0000
0013
0000
0100
1000
0100
0000
,  // measure 84
0010
0010
0001
0001
0200
0000
0300
0000
,  // measure 85
0010
0010
0100
0100
0001
1000
0001
0000
,  // measure 86
0100
0100
0010
0010
1000
0001
1000
0000
,  // measure 87
1001
0000
0010
1010
0000
0100
0101
0000
,  // measure 88
0010
0100
0100
1000
1000
0001
0001
0100
,  // measure 89
0101
0000
0000
0000
;

//---------------dance-single - ----------------
#NOTES:
     dance-single:
     :
     Medium:
     6:
     0.459307,0.520270,0.138836,0.021921,0.007307,418.000000,19.000000,3.000000,0.000000,0.000000,0.000000,0.459307,0.520270,0.138836,0.021921,0.007307,418.000000,19.000000,3.000000,0.000000,0.000000,0.000000:
0000
0000
0000
0000
,
0000
0000
0000
0000
,
0000
0000
0000
0000
,
0000
0000
0000
0000
,
0000
0000
0000
0000
,
0000
0000
0000
0000
,
2001
0000
0000
0000
,
3002
0000
0023
0000
,
0130
1000
0000
0000
0010
0100
0000
0000
,
0001
0001
1000
0000
,
1001
0000
1000
0010
0100
0000
0010
1000
,
0001
0010
0000
0010
0100
0010
0000
0100
,
1000
0000
0001
0100
0010
0000
1000
0000
,
1001
0000
1001
0000
0010
0100
0010
0100
,
0010
0000
0001
1000
0100
0000
0010
0001
,
1000
0001
0000
0001
0100
0010
0000
0010
,
1000
0001
1000
0001
1000
0001
1000
0001
,
0000
0011
0000
1000
0001
0000
0100
0000
,
0110
0000
0010
0000
0000
1000
0001
0000
,
0010
0000
0010
0000
0000
0100
1000
0000
,
0010
0100
0010
0000
1000
0001
1000
0000
,
0010
0100
0010
0000
0100
0010
0100
0000
,
0001
0000
0001
0000
0000
1000
0010
0000
,
0100
0000
0100
0000
0000
0001
0010
0000
,
0100
0000
0100
0000
1000
0001
1000
0000
,
0001
0000
0001
1000
0001
0000
0010
0000
,
0100
0000
0100
1000
0001
1000
0010
0000
,
0100
0000
0010
1000
0001
1000
0100
0000
,
0010
0001
0010
0000
0100
1000
0100
0000
,
0010
0001
0010
0001
0100
0000
0010
0000
,
1000
0000
1000
0001
0100
0010
1000
0000
,
0100
0010
0100
0010
0001
1000
0001
1000
,
0001
0000
0000
0000
,
1000
0000
1000
0000
0001
0010
0001
0000
,
0100
0000
0100
0001
0100
0000
0010
0000
,
1000
0000
1000
0001
1000
0000
0100
0000
,
0010
0000
0010
0001
0010
0100
1000
0000
,
1000
0000
1000
0100
1000
0001
0010
0000
,
0100
0000
0100
1000
0100
0000
0010
0000
,
0001
0000
0001
1000
0001
0000
0100
0000
,
0010
1000
0010
1000
0001
1000
0001
1000
,
0000
0000
0000
0000
,
0000
0000
0000
0000
,
1001
0000
0000
1001
0000
1001
0000
0000
,
0110
0000
0000
0110
0000
0110
0000
0000
,
0100
0001
1000
0010
,
0100
0001
0100
0001
0000
1000
0001
0000
,
0010
0100
0010
0000
0100
0000
0100
1000
,
0000
1000
0001
0000
0100
0000
0010
0000
,
1000
0100
1000
0000
0001
0000
0001
0100
,
0000
0100
0010
0000
0010
1000
0001
0000
,
1000
0010
1000
0100
,
0010
0001
0100
0010
,
1000
0001
1000
0001
0010
0100
1000
0001
,
0100
0000
0000
0000
,
0010
1000
0010
0000
1000
0100
0010
0001
,
0000
0001
1000
0000
1000
0100
1000
0000
,
0010
0100
0010
0000
1000
0001
0010
0100
,
0000
0100
1000
0000
1000
0001
1000
0010
,
0100
0000
0100
0001
0100
0000
0010
0000
,
1000
0001
1000
0010
,
0110
0000
0000
0000
,
0000
0000
0000
0100
,
0001
0010
0001
0010
0100
0010
0100
0010
,
0001
0000
0000
0000
0000
0000
0000
1100
,
0000
0000
0000
0000
1000
0000
0000
0001
,
0100
0000
0100
0000
0110
0000
0000
0010
,
1000
0000
0000
0100
0010
0000
0000
0010
,
0100
0000
0100
0000
1000
0001
0000
1001
,
0000
0001
0100
0100
,
0010
0000
0000
0000
0010
0000
0000
0000
1000
0000
0000
0000
1000
0000
0000
0001
,
0000
0000
0001
0000
1000
0000
0001
0000
1000
0000
0000
0010
0000
0000
0010
0000
,
0100
0001
0100
0001
1000
0010
1000
0010
,
0100
0001
0100
0010
1000
0010
0100
1000
,
0100
0000
0001
0000
0010
0000
0000
0100
,
0010
0001
0010
0100
1000
0100
0010
1000
,
0010
0100
0010
0100
1000
0000
0001
0000
,
0100
0001
0100
0001
1000
0010
0100
0000
,
0010
1000
0010
1000
0001
0100
0010
0000
,
1000
0000
0001
0100
0001
0000
0010
0100
,
0010
0000
1000
0000
0010
0000
0100
1000
,
0001
0100
0001
1000
0010
1000
0001
0100
,
1000
0000
0100
0000
0010
0000
0000
1000
,
0100
0010
0100
1000
0001
1000
0100
0001
,
0100
0010
0100
0010
0001
0000
1000
0000
,
0010
0100
0010
0100
0001
1000
0100
0000
,
0010
0001
0010
0001
1000
0010
0100
0000
,
1010
0000
0000
1001
0000
0000
0101
0000
,
0000
0010
0100
0010
0100
0001
0010
0100
,
1000
0000
0000
0000
;

//---------------dance-single - ----------------
#NOTES:
     dance-single:
     :
     Easy:
     4:
     0.366402,0.390203,0.219215,0.007307,0.000000,320.000000,30.000000,1.000000,0.000000,0.000000,0.000000,0.366402,0.390203,0.219215,0.007307,0.000000,320.000000,30.000000,1.000000,0.000000,0.000000,0.000000:
0000
0000
0000
0000
,
0000
0000
0000
0000
,
0000
0000
0000
0000
,
0000
0000
0000
0000
,
0000
0000
0000
0000
,
0000
0000
0000
0000
,
1100
0000
0000
0000
,
0010
0000
0100
0000
,
1001
0000
0110
0000
,
0100
0010
1000
0000
,
1001
0000
1000
0000
0010
1000
0010
0000
,
0100
0100
0001
0001
,
0010
0000
0100
0000
1000
0001
1000
0000
,
0100
0000
0100
0000
0010
0100
0010
0100
,
1000
0000
0001
0000
0100
0001
0100
0000
,
0010
0010
1000
1000
,
0100
0100
0100
0100
,
0000
1100
0000
1000
0001
0000
0100
0000
,
0010
0010
0000
1000
,
0100
0100
0000
0010
,
0001
0001
1000
1000
,
0010
0000
0100
0010
0100
0000
0001
0000
,
1000
1000
0000
0010
,
0100
0100
0000
0001
,
0010
0010
0000
0100
,
1000
0000
1000
0001
0100
0000
0100
0000
,
0010
0000
0010
0000
1000
0010
1000
0000
,
0100
0000
0100
0000
0010
0100
0010
0000
,
0001
0001
1000
1000
,
0010
1000
0010
0100
0010
0000
0100
0000
,
0001
0000
0001
0000
1000
0001
1000
0000
,
0100
0000
0100
0000
0010
0100
0010
0000
,
0011
0000
0000
0000
,
1000
0000
1000
0000
0001
0000
0100
0001
,
0010
0000
0010
0100
1000
0000
0001
0000
,
0100
0000
0100
0001
0010
0000
0100
0000
,
1000
0000
1000
0001
0010
0000
0110
0000
,
0100
0000
1000
0010
0100
0000
0110
0000
,
0010
0000
0010
1000
0001
0000
1001
0000
,
1000
0000
0010
0100
0001
0000
0101
0000
,
0100
0100
0010
0010
,
0000
0000
0000
0000
,
0000
0000
0000
0000
,
0001
0000
0000
0001
0000
0001
0000
0000
,
1000
0000
0000
1000
0000
1000
0000
0000
,
0010
0100
0010
0100
,
1002
0000
0000
0003
0000
0100
0010
0000
,
0010
0000
1000
0000
0010
0100
0001
0100
,
0000
0001
0010
0100
,
1000
0000
0001
0000
0100
0010
1000
0010
,
0000
0100
0001
1000
,
0010
0010
0100
0100
,
0001
1000
0001
0010
,
0100
0000
0100
0000
0100
1000
0010
0100
,
0001
0000
0000
0000
,
1000
0000
1000
0000
0001
0010
0100
0010
,
0000
0100
1000
0010
,
0100
0000
0100
0000
0001
1000
0010
1000
,
0000
0100
0010
0001
,
1000
1000
0001
0001
,
0100
0010
0100
0001
,
1001
0000
0000
0000
,
0000
0000
0000
0000
,
1000
0001
1000
0001
,
1001
0000
0000
0000
0000
0000
0000
1100
,
0000
0000
0000
0000
0000
0000
0000
0001
,
1000
0010
1000
0000
,
0100
0000
0000
0010
0100
0000
0000
1000
,
0001
0000
0100
0000
0010
0100
0000
0110
,
0000
0000
1000
0000
0001
0000
0000
0010
,
0100
1000
0001
0000
,
0100
0100
0010
1000
,
1000
0000
0001
0000
1000
0000
0010
0100
,
0001
0000
0100
0000
0010
1000
0100
0000
,
0010
0100
1000
0001
,
0100
0000
0010
0000
1000
0100
1000
0000
,
0100
0100
0110
0010
,
1001
1001
1001
0000
,
0110
0110
0110
0000
,
0100
0000
0100
0001
0100
0000
0010
1000
,
0010
0100
0001
0010
,
0100
0000
1000
0000
0010
0100
0001
0000
,
1000
0001
0100
0010
,
1000
0000
0001
0000
0100
0010
1000
0000
,
0100
0100
1100
1000
,
0101
0101
0101
0000
,
1010
1010
1010
0000
,
1001
0000
0000
0001
0000
0000
1000
0000
,
0000
0100
0010
0100
0010
0100
0010
0100
,
1000
0000
0000
0000
;
