#TITLE:KISS TO KISS;
#SUBTITLE:;
#ARTIST:MAKO;
#TITLETRANSLIT:;
#SUBTITLETRANSLIT:;
#ARTISTTRANSLIT:;
#CREDIT:;
#BANNER:Kiss To Kiss.png;
#BACKGROUND:Kiss to Kiss-bg.png;
#LYRICSPATH:;
#CDTITLE:;
#MUSIC:KISS TO KISS.ogg;
#OFFSET:-0.003;
#SAMPLESTART:62.000;
#SAMPLELENGTH:12.000;
#SELECTABLE:YES;
#BPMS:0.000=160.000,68.000=159.540,228.000=160.000;
#STOPS:32.000=0.400
,262.000=0.380
;
#BGCHANGES:;

//---------------dance-single - ----------------
#NOTES:
     dance-single:
     :
     Medium:
     7:
     0.626,0.707,0.323,0.175,0.022:
0000
0000
0000
0000
,
0000
0000
0000
0000
,
0000
0000
0000
0000
,
0000
0000
0000
0000
,
0000
0000
0000
0000
1000
0000
0000
1000
0000
0000
1000
0000
0100
0000
0010
0000
,
0001
0000
0010
0000
0100
0000
0000
0100
0000
0000
0100
0000
0010
0000
0001
0000
,
0100
0000
0010
0000
1000
0000
0000
0001
0000
0000
1000
0000
0100
0000
1000
0000
,
0010
0000
0100
0000
0001
0000
0000
0010
0000
0000
0100
0000
1000
0000
0100
0000
,
1001
0101
0000
1010
0000
1100
0000
1010
,
0000
1001
0000
0101
0000
0011
0001
1001
,
0000
1100
0000
1010
0000
1100
0000
1010
,
0000
1001
0000
1001
0000
0110
0010
0110
,
0002
0100
0103
0000
2000
0100
3100
0000
,
2000
0010
3010
0000
0002
0010
0013
0000
,
2100
0001
3001
0000
0102
1000
1003
0000
,
2010
0001
3001
0000
0012
1000
1003
0000
,
1000
0100
1000
0010
0100
0001
0010
0001
,
0100
0010
0100
1000
0100
0001
0000
0001
,
0100
0001
0010
0001
1000
0001
0010
0001
,
1000
0010
0100
0010
1000
0001
0000
0001
,
0000
1000
0100
1000
0010
0100
0001
0100
,
0010
1000
0010
0100
0010
1000
0000
1000
,
0000
0100
0001
0100
1000
0100
0010
0001
,
0010
0100
0010
0001
0001
0100
0000
0010
,
0000
1000
0100
0010
0100
0001
0100
0010
,
0100
0000
0001
0100
0010
0100
0001
0100
,
0010
0100
0000
0010
0000
0001
0010
0001
,
0000
0001
1000
0001
1000
0001
0100
0002
,
0000
1003
0000
0200
0000
0310
0000
0000
,
0000
0010
0100
1000
1000
0100
0010
0001
,
0010
0100
1000
1000
0000
0100
0010
0100
,
0000
0100
0000
0100
0000
0100
1000
0010
,
0000
0010
0000
0010
0000
0010
0000
0000
,
0000
0000
0001
0100
0001
0100
0001
1000
,
0001
1000
0010
0100
0001
0100
0010
0010
,
0000
0000
1000
0100
1000
0100
0001
0100
,
0001
0100
0010
0100
1000
0100
0001
0100
,
0000
0001
0010
0001
0010
1000
0010
1000
,
0010
0100
0001
0100
0010
0010
1000
0010
,
0100
0010
0001
0100
0010
1000
0100
0010
,
0100
1000
0000
1001
0000
0101
0000
0000
,
0001
0100
0010
0100
0010
1000
0000
0100
,
1000
0100
0010
0000
0010
0001
0010
0010
,
0100
1000
0100
1000
0100
0001
0000
0001
,
0100
1000
0010
0001
0010
1000
0100
1000
,
0100
1000
0100
0001
0100
1000
0000
0001
,
0000
0001
0010
1000
0010
0100
0010
0001
,
0100
0001
0100
0010
1000
0010
0000
0100
,
0000
0001
0100
0001
1000
0001
1000
0010
,
0100
0010
0100
0001
0010
0100
0000
0100
,
0010
0001
0010
0100
0010
1000
0010
0100
,
0001
0100
0010
1000
0010
0100
0000
0010
,
0001
0100
0010
2000
0010
0010
3010
0000
,
0001
0100
0001
0010
0001
0100
0000
1000
,
0000
0100
1000
0010
1000
0100
0001
0100
,
0010
0100
1000
0100
0010
0001
0000
0001
,
0000
0001
0010
0001
2000
0100
0100
3100
,
0000
1001
0000
0100
0000
1001
0000
0010
,
0000
1001
0000
0100
0000
1100
0100
0010
,
0000
0011
0000
0001
0000
0101
0000
0100
,
0000
0010
0000
1000
0000
1100
0010
0100
,
0020
0100
0130
0000
0200
0010
0310
0000
,
2001
0100
3001
0000
1002
0100
1003
0000
,
2001
0010
3001
0000
1002
0010
1003
0000
,
0210
0001
0310
0000
0120
1000
0130
0000
,
1000
0100
0010
0001
1001
0000
0001
0010
,
0001
0000
1000
0100
1000
0000
1000
0010
,
1000
0000
0100
0001
0100
0000
0001
1000
,
0001
0000
0010
0100
0010
0000
0100
1000
,
0001
0000
0100
0001
1000
0000
1000
0100
,
0001
0000
0001
0100
1000
0000
1000
0010
,
0001
0000
0001
0010
1000
0000
1000
0100
,
0010
0000
0010
0100
1000
0000
0001
0100
,
0010
0000
0000
0000
0010
0000
0100
0000
0001
0000
0010
0100
0000
0000
0000
0000
;

//---------------dance-single - ----------------
#NOTES:
     dance-single:
     :
     Hard:
     9:
     0.840,0.804,0.847,0.017,0.519:
0000
0000
0000
0000
,
0000
0000
0000
0000
,
0000
0000
0000
0000
,
0000
0000
0000
0000
,
0000
0000
0000
0000
1000
0000
1000
0100
0000
0010
0001
0000
0001
1000
0000
1000
,
0100
0000
0010
0000
0001
0000
0100
0010
0000
0010
1000
0000
1000
0001
0000
0001
,
0100
0000
0010
0000
1000
0000
0100
0010
0000
0010
0001
0000
0001
1000
0000
1000
,
0100
0000
0010
0000
0001
0000
1000
0001
0000
0001
0100
0000
0100
0010
0000
0010
,
1000
1100
0000
0011
0000
0101
0000
1010
,
0000
1100
0000
0011
0000
1001
0110
1001
,
0000
0101
0000
1010
0000
1100
0000
1010
,
0000
0101
0000
0011
0000
0101
0001
1000
,
1100
0100
0010
0000
0101
0100
0010
0000
,
1010
1000
0100
0000
0011
0001
0100
0000
,
1001
0100
0010
0000
1001
0010
0100
0000
,
1100
0010
1010
0000
0101
0001
0011
0000
,
2002
0000
0000
0000
0000
0000
3003
0000
1000
0001
1000
0001
1000
0001
1000
0001
,
1000
0001
1000
0100
1000
0001
1000
0100
1000
0001
1000
0000
0000
0000
1001
0000
,
0000
0000
0001
0000
0010
0001
0010
0000
0001
1000
0001
0000
1000
0100
1000
0000
,
0001
0100
0001
1000
0001
0100
0001
1000
0001
0100
0001
0000
0000
0000
0011
0000
,
0000
0000
1000
0000
0010
1000
0010
0000
0100
0010
0100
0000
0001
0100
0001
0000
,
0010
1000
0010
0100
0010
1000
0010
0100
0010
1000
0010
0000
0000
0000
0110
0000
,
0000
0000
0100
0000
0001
0100
0010
0000
1000
0010
0100
0000
0001
0100
0010
0000
,
0100
0010
0100
0001
0100
0010
0100
0001
0100
0010
0100
0000
0000
0000
1001
0000
,
0000
0000
0010
0000
0100
0010
1000
0000
0100
0010
0001
0000
0100
0010
1000
0100
,
0010
0001
0010
0100
0010
0001
0100
1000
,
0100
0001
0100
1001
0000
0001
0100
0101
,
0100
0010
1000
0010
0100
0001
0010
0100
,
1000
1010
0000
1100
0000
0101
0000
0011
,
0001
0100
0010
0100
0001
0100
0010
0100
,
1000
1000
0100
1001
0000
0001
0100
0010
,
0010
1000
0100
0001
0100
1000
0100
0010
,
0001
0000
0101
0000
0000
0000
1001
0000
0000
0000
1100
0000
1000
0100
1000
0100
,
1000
0100
0001
0100
1000
1000
0010
0001
,
0010
0010
0100
0101
0000
0011
0000
1100
,
1000
0010
0100
0010
0001
0001
0010
0100
,
0010
0000
0010
0000
1000
0000
0100
0000
0000
0000
0100
1000
0001
0000
0101
0000
,
0001
0010
0100
1000
0010
0100
0001
0010
,
0100
1000
0010
0100
0001
0100
0001
0001
,
0100
0100
0010
1000
0100
0100
1000
0010
,
0100
0101
0000
1100
0000
1010
0000
0000
,
1001
1000
1100
1000
0001
1000
0000
0101
,
0000
0001
1001
1000
0010
0100
0001
0010
,
0101
0001
1001
1000
0010
0100
0000
0011
,
0000
0100
1100
1000
0010
0100
0010
1000
,
1100
0010
0011
0001
0100
0010
0000
0110
,
0000
0010
1010
1000
0100
0010
0001
0001
,
1010
0001
0101
0001
0100
0010
0000
1010
,
0000
1000
1001
0001
0100
0010
0100
0001
,
1000
0001
1000
0010
1000
0001
1000
0010
1000
0001
1000
0000
0000
0000
1001
0000
,
0000
0000
0001
0000
1000
0010
1000
0000
0001
1000
0001
0000
0100
0001
0100
0000
,
0001
1000
0001
0010
0001
1000
0001
0010
0001
1000
0001
0000
0000
0000
0101
0000
,
0000
0000
0100
0000
0001
0100
0001
0000
0010
0100
0010
0000
1000
0100
0010
0000
,
0010
0001
0010
0100
0010
0001
0010
0100
0010
0001
0010
0100
0000
0000
1001
0000
,
0000
0000
0001
0000
1000
0010
0100
0000
0010
1000
0001
0000
0100
0001
1000
0000
,
0100
1000
0100
0010
0100
1000
0100
0010
0100
1000
0100
0000
0000
0000
1001
0000
,
0000
0000
0001
0000
1000
0100
0010
0000
0001
0100
0010
0000
1000
0010
0100
0001
,
0010
0100
0000
1001
0000
0110
0000
1001
,
0000
0101
0000
1010
0000
1100
1001
0101
,
0000
0011
0000
0110
0000
1100
0000
1010
,
0000
0110
0000
0101
0000
1001
0010
0100
,
1100
0010
0101
0000
0101
0010
1100
0000
,
1010
0100
0011
0000
0011
0100
1010
0000
,
1001
0100
1001
0000
1001
0010
1001
0000
,
0110
1000
0001
0000
0110
0001
1000
0000
,
1000
0100
0010
0001
0010
0100
1000
0100
0010
0000
0000
0000
0001
0000
0100
0000
,
0010
1000
0000
1000
0010
1000
0010
0000
0100
0000
0001
0000
1000
0000
0100
0000
,
0010
0001
0000
0001
0010
0001
0010
0000
0100
0000
1000
0000
0001
0000
1000
0000
,
0100
0010
0000
0010
0001
0010
0100
0000
0010
0000
0001
0000
1000
0000
0001
0000
,
0010
0100
0000
0100
1000
0100
0010
0000
0001
0000
0010
0000
0100
0000
1000
0000
,
1000
0001
0000
0001
1000
0001
0010
0000
0100
0000
1000
0000
0010
0000
0100
0000
,
0001
1000
0000
1000
0001
1000
0100
0000
0010
0000
0001
0000
0001
0000
0100
0000
,
0010
1000
0000
1000
0100
0010
0100
0000
0010
0000
0001
0000
1000
0000
0001
0000
,
0100
0010
0000
0010
0100
0001
1000
0000
0001
0000
1000
0001
0000
0000
0000
0000
;

//---------------dance-single - ----------------
#NOTES:
     dance-single:
     :
     Easy:
     5:
     0.434,0.578,0.559,0.192,0.000:
0000
0000
0000
0000
,
0000
0000
0000
0000
,
0000
0000
0000
0000
,
0000
0000
0000
0000
,
0000
1000
0100
0010
,
1001
0001
0100
0010
,
1001
1000
0100
0010
,
1001
0001
0100
0010
,
1001
1000
0000
1000
0000
0100
0000
0100
,
0000
0010
0000
0001
0000
0001
0100
0001
,
0000
0100
0000
0100
0000
1000
0000
1000
,
0000
0010
0000
0010
0000
0010
0100
0001
,
2000
3100
0002
0103
,
2000
3010
0002
0013
,
2010
3001
0012
1003
,
2100
3001
0102
1003
,
2002
0000
0000
0000
0000
0000
0000
3003
,
1000
0100
0010
0000
,
0001
0100
0010
0100
,
0001
0010
0100
0000
,
1000
0100
0001
0100
,
1000
0010
0100
0000
,
0100
0001
0010
0100
,
1000
0100
0010
0000
,
1000
0100
0001
0010
,
1000
0100
0001
0100
,
1000
0000
0000
1001
0000
0001
0000
0010
,
0000
0000
1000
0000
0100
0000
0001
0001
,
0000
0010
0000
1000
0000
0010
0000
0000
,
0001
0101
1000
1100
,
1001
0000
0000
0101
0000
0001
0100
0001
,
0000
0010
0000
0001
0000
0001
0010
0001
,
0000
0100
0000
0010
0000
2002
0000
0000
,
3003
1000
1100
0010
,
0011
0000
0001
0100
0000
0100
0000
0000
,
1001
0100
1001
0010
,
0100
0000
0010
0001
0000
1000
0000
0100
,
0000
0011
1000
1010
,
0001
0000
0001
0100
0000
1000
0100
0000
,
0010
0001
0010
0000
0100
1000
0100
0010
,
0000
0001
0000
0100
0000
1010
0000
0000
,
1001
0000
0101
0000
1001
0000
0000
1100
,
0000
1010
1001
1010
,
1001
0000
0101
0000
1001
0000
0000
0011
,
0000
1100
1010
0101
,
0011
0000
1001
0000
0011
0000
0000
1001
,
0000
1010
0110
1010
,
0110
0000
0101
0000
0110
0000
0000
1001
,
0000
1100
0101
1010
,
0011
0000
0001
0000
0100
0000
0000
1010
,
0000
0100
0010
0001
,
0100
0000
0010
0000
1000
0000
0000
1001
,
0000
0001
0100
0010
,
0100
0000
0001
0000
0010
0000
0000
1100
,
0000
1000
0010
0100
,
0010
0000
1000
0000
0001
0000
0000
0101
,
0000
0001
0010
0010
,
0000
0100
0000
1000
0000
0100
0000
0001
,
0000
0100
0000
1000
0000
0010
0100
0001
,
0000
0010
0000
0100
0000
1000
0000
0100
,
0000
0010
0000
0001
0000
0100
0010
1000
,
0200
0310
0020
0130
,
2000
3001
0002
1003
,
2010
3100
0012
0103
,
2100
3010
0102
0013
,
2002
0000
3003
1000
,
0100
0010
0000
0001
,
0100
0010
0000
1000
,
0010
0100
0000
0001
,
0010
0100
0000
1000
,
0100
1100
0000
0001
,
0100
0101
0000
1000
,
0010
1010
0000
0001
,
0010
0000
0011
0000
0001
1000
0000
0000
;

//---------------dance-single - ----------------
#NOTES:
     dance-single:
     :
     Beginner:
     2:
     0.187,0.254,0.000,0.009,0.000:
0000
0000
0000
0000
,
0000
0000
0000
0000
,
0000
0000
0000
0000
,
0000
0000
0000
0000
,
0000
0100
0000
0100
,
0000
0010
0000
0010
,
0000
0001
0000
0001
,
0000
1000
0000
1000
,
1000
0000
0000
0000
,
0001
0000
0000
0000
,
0100
0000
0000
0000
,
0010
0000
0000
0000
,
1000
0000
0100
0000
,
0001
0000
0100
0000
,
1000
0000
0010
0000
,
0001
0000
0010
0000
,
2000
0000
0000
0000
,
3001
0001
0001
0000
,
0100
0100
0100
0000
,
0010
0010
0010
0000
,
1000
0001
1000
0001
,
1000
1000
1000
0000
,
0100
0100
0100
0000
,
0010
0010
0010
0000
,
0001
1000
0001
1000
,
0000
0001
0001
0001
,
0001
0000
0000
1000
0000
0000
0000
0000
,
1000
0000
0000
0000
1000
0000
0000
1000
,
0000
0000
0000
1000
0000
0000
0000
0000
,
0100
0100
0100
0100
,
0100
0000
0000
0100
0000
0000
0000
0010
,
0000
0000
0000
0001
0000
0000
0000
1000
,
0000
0000
0000
0000
,
1000
0000
0001
0000
,
0100
0000
0010
0000
,
0000
0010
0000
0100
,
0000
0001
0000
1000
,
0000
0100
0000
0010
,
0000
0001
0000
0100
,
0100
0000
0100
0000
0100
0000
0000
0010
,
0000
0010
0000
0010
0000
0010
0000
0000
,
1000
1000
1000
0000
,
0000
0100
0100
0100
,
0010
0010
0010
0000
,
0000
0001
0001
0001
,
0100
0100
0100
0000
,
0000
1000
1000
1000
,
0010
0010
0010
0000
,
0000
0100
0100
0100
,
0001
0000
1000
0000
,
0100
0000
0010
0000
,
0001
0000
0100
0000
,
1000
0000
0100
0000
,
0001
0001
0001
0000
,
0000
1000
1000
1000
,
0010
0010
0010
0000
,
0000
0100
0100
0100
,
0100
0000
0000
0000
,
0010
0000
0000
0000
,
1000
0000
0000
0000
,
0001
0000
0000
0000
,
1000
0000
0010
0000
,
0001
0000
0010
0000
,
1000
0000
0100
0000
,
0001
0000
0100
0000
,
1000
0000
0000
1000
,
0000
0000
0000
0100
,
0000
0000
0000
0010
,
0000
0000
0000
0001
,
0000
0000
0000
0100
,
0000
0000
0000
0010
,
0000
0000
0000
1000
,
0000
0000
0000
0001
;

//---------------dance-double - ----------------
#NOTES:
     dance-double:
     :
     Hard:
     9:
     0.802,0.868,0.655,0.105,0.441:
00000000
00000000
00000000
00000000
,
00000000
00000000
00000000
00000000
,
00000000
00000000
00000000
00000000
,
00000000
00000000
00000000
00000000
,
00000000
00000000
00000000
00000000
10000000
00000000
01000000
00100000
00000000
00100000
00010000
00000000
00010000
00001000
00000000
00001000
,
00000100
00000000
00000010
00000000
00000001
00000000
00000100
00000010
00000000
00000010
00001000
00000000
00001000
00010000
00000000
00010000
,
00100000
00000000
01000000
00000000
10000000
00000000
01000000
00010000
00000000
00010000
00001000
00000000
00001000
00000100
00000000
00000100
,
00000001
00000000
00000010
00000000
00000100
00000000
00001000
00010000
00000000
00010000
00100000
00000000
00100000
00010000
00000000
00010000
,
00001000
00011000
00000000
01010000
00000000
10010000
00000000
00110000
,
00000000
00011000
00000000
00001100
00000000
00001001
00000110
00001001
,
00000000
00001010
00000000
00010010
00000000
00011000
00000000
10010000
,
00000000
00011000
00000000
00001001
00000000
00011000
00010000
00100000
,
20000000
01000000
30010000
00000000
00002000
00000100
00003001
00000000
,
00000002
00000100
00001003
00000000
00020000
01000000
10030000
00000000
,
21000000
00100000
30010000
00000000
00002100
00000010
00003001
00000000
,
00000012
00000100
00001003
00000000
00120000
01000000
10030000
00000000
,
10000000
00010000
10000000
00010000
10000000
00010000
10000000
00010000
00100000
01000000
00100000
01000000
00100000
01000000
00100000
01000000
,
00100000
01000000
10000000
00000000
10000000
01000000
00100000
00000000
00100000
00010000
00100000
00000000
00000000
00000000
00011000
00000000
,
00000000
00000000
00000100
00000000
00000010
00000001
00000100
00000000
00000010
00000000
00001000
00000000
00000100
00010000
00001000
00000000
,
00001000
00100000
00010000
00000000
00010000
01000000
00100000
00000000
00100000
10000000
01000000
00000000
00000000
00000000
10010000
00000000
,
00000000
00000000
01000000
00000000
00100000
00001000
00010000
00000000
00001000
00000000
00000100
00000000
00000010
00000100
00000010
00000000
,
00000100
00000001
00000100
00000000
00000100
00001000
00000100
00000000
00000100
00000001
00000100
00000000
00000000
00000000
00000101
00000000
,
00000000
00000000
00000010
00000000
00000100
00001000
00000100
00000000
00010000
00000000
00010000
00000000
00001000
00010000
00001000
00000000
,
00100000
00010000
00100000
00000000
01000000
00100000
01000000
00000000
10000000
00100000
10000000
00000000
00000000
00000000
11000000
00000000
,
00000000
00000000
10000000
00000000
01000000
00100000
00010000
00000000
00001000
00000000
00000100
00000000
00000010
00000001
00000100
00000010
,
00001000
00000100
00000010
00000100
00001000
00010000
00100000
00100000
,
01000000
10000000
01000000
10010000
00000000
00100000
00010000
00110000
,
00000000
00010000
00001000
00000100
00001000
00010000
01000000
10000000
,
00100000
00000000
00010000
00000000
00001000
00000000
00011000
00000000
00000000
00000000
00011000
00000000
00010000
00001000
00010000
00001000
,
00010000
00001000
00001000
00000100
00000100
00000010
00000010
00000001
,
00000001
00001000
00001000
00001001
00000000
00000001
00000100
00000101
,
00000000
00001100
00000000
00011000
00000000
00010000
00100000
11000000
,
10010000
00000000
01010000
00000000
00000000
00000000
00011000
00000000
00000000
00000000
00110000
00000000
00010000
00100000
01000000
10000000
,
00010000
00100000
01000000
10000000
10000000
01000000
00010000
00001000
,
00001000
00000100
00000001
00000100
00000000
00001001
00000000
00000110
,
00000000
00000001
00000010
00001000
00010000
00010000
00100000
10000000
,
00100000
00100000
00010000
00001000
00000000
00011000
00000000
00000110
,
00000000
00000001
00000100
00000010
00001000
00001000
00000100
00001000
,
00010000
00010000
00100000
01000000
00000000
10000000
01000000
00010000
,
00010000
00001000
00000100
00000001
00000001
00000010
00001000
00010000
,
00000000
00110000
00000000
00101000
00000000
00010100
00000000
00000000
,
00000010
00000001
00000100
00000010
00001000
00000100
00001000
00011000
,
00000000
00010000
00100000
01000000
10000000
10000000
01000000
00010000
,
00100000
00010000
00001000
00010000
00100000
00010000
00001000
00011000
,
00000000
00001000
00000100
00001000
00000001
00001000
00000010
00001000
,
00000100
00010000
00100000
00010000
00000100
00000010
00000000
00001001
,
00000000
00000000
00000001
00000000
00000100
00000000
00000010
00000000
00001000
00000100
00001000
00000000
00010000
00000000
00100000
00000000
,
01000000
10000000
01000000
00100000
01000000
00010000
00000000
00011000
,
00000000
00001000
00000100
00000001
00000010
00001000
00010000
01000000
,
10000000
00100000
10000000
00000000
01000000
00010000
01000000
00000000
10000000
00010000
10000000
00000000
00000000
00000000
00110000
00000000
,
00000000
00000000
00010000
00000000
00010000
00000100
00001000
00000000
00000010
00000000
00000100
00000000
00000001
00000010
00000100
00000000
,
00000100
00001000
00000100
00000000
00010000
00001000
00010000
00000000
00001000
00100000
00001000
00000000
00010000
00000000
00110000
00000000
,
00000000
00000000
10000000
00000000
01000000
00100000
00010000
00000000
00001000
00000000
00000100
00000000
00000010
00000001
00000100
00000000
,
00000010
00001000
00000001
00000000
00000001
00001000
00000010
00000000
00000010
00010000
00001000
00000000
00000000
00000000
00011000
00000000
,
00000000
00000000
00010000
00000000
00100000
10000000
00100000
00000000
00010000
00000000
00001000
00000000
00000100
00000001
00000100
00000000
,
00001000
00100000
00010000
00000000
01000000
00010000
10000000
00000000
10000000
00010000
01000000
00000000
00000000
00000000
10010000
00000000
,
00000000
00000000
10000000
00000000
01000000
00000000
00010000
00000000
00001000
00000100
00000010
00000001
00000010
00000100
00001000
00000100
,
00000010
00000001
00000000
00000101
00000000
00001100
00000000
00011000
,
00000000
01010000
00000000
10100000
00000000
11000000
10010000
01010000
,
00000000
00110000
00000000
00011000
00000000
00001100
00000000
00000110
,
00000000
00000011
00000000
00000101
00000000
00001010
00000100
00001000
,
00020000
00100000
10030000
00000000
20000000
01000000
30010000
00000000
,
00002000
00000100
00003001
00000000
00000002
00000010
00001003
00000000
,
00001010
00010000
00011000
00000000
00110000
00001000
00011000
00000000
,
01001000
00010000
00011000
00000000
00010100
00001000
00011000
00000000
,
00010000
00001000
00010000
00001000
00010000
00001000
00010000
00001000
00010000
00000000
00000000
00000000
00001000
00000000
00010000
00000000
,
00100000
10000000
00000000
10000000
01000000
00100000
00010000
00000000
00010000
00000000
00001000
00000000
00000100
00000000
00000010
00000000
,
00000001
00000100
00000000
00000100
00000010
00001000
00000100
00000000
00010000
00000000
00001000
00000000
00100000
00000000
00010000
00000000
,
01000000
00100000
00000000
00100000
10000000
01000000
00100000
00000000
00010000
00000000
00001000
00000000
00000100
00000000
00000010
00000000
,
00000001
00000100
00000000
00000100
00000010
00001000
00000010
00000000
00000100
00000000
00001000
00000000
00010000
00000000
00100000
00000000
,
10000000
01000000
00000000
01000000
00010000
00001000
00000100
00000000
00000010
00000000
00000001
00000000
00000100
00000000
00000010
00000000
,
00001000
00000100
00000000
00000100
00010000
00100000
00010000
00000000
00001000
00000000
00000100
00000000
00000010
00000000
00000001
00000000
,
00000100
00000010
00000000
00000010
00001000
00010000
00001000
00000000
00000100
00000000
00000010
00000000
00000001
00000000
00000010
00000000
,
00000100
00001000
00000000
00001000
00010000
00001000
00010000
00000000
00100000
00000000
10000000
00010000
00000000
00000000
00000000
00000000
;

//---------------dance-double - ----------------
#NOTES:
     dance-double:
     :
     Medium:
     8:
     0.651,0.547,0.515,0.140,0.048:
00000000
00000000
00000000
00000000
,
00000000
00000000
00000000
00000000
,
00000000
00000000
00000000
00000000
,
00000000
00000000
00000000
00000000
,
00000000
00000000
00000000
00000000
10000000
00000000
00000000
01000000
00000000
00000000
00010000
00000000
00000000
00001000
00000000
00000000
,
00000100
00000000
00000010
00000000
00000001
00000000
00000000
00000100
00000000
00000000
00001000
00000000
00000000
00010000
00000000
00000000
,
00100000
00000000
10000000
00000000
01000000
00000000
00000000
00010000
00000000
00000000
00001000
00000000
00000000
00000010
00000000
00000000
,
00000001
00000000
00000100
00000000
00001000
00000000
00000000
00011000
00000000
00000000
00011000
00000000
00000000
00011000
00000000
00000000
,
00011000
00110000
00000000
11000000
00000000
10100000
00000000
01010000
,
00000000
00011000
00000000
00001100
00000000
00000010
00000001
00000100
,
00000000
00001010
00000000
00001100
00000000
00011000
00000000
00011000
,
00000000
00110000
00000000
01010000
00000000
00010000
00100000
10000000
,
20000000
01000000
30010000
00000000
00002000
00000100
00003001
00000000
,
00000002
00000010
00001003
00000000
00020000
00100000
10030000
00000000
,
20000000
01000000
30100000
00000000
00020000
01000000
00130000
00000000
,
00002000
00000100
00003010
00000000
00000002
00000100
00000013
00000000
,
00000001
00000100
00001000
00010000
01000000
10000000
00100000
00010000
,
00001000
00000100
00001000
00010000
00001000
00000010
00000000
00001001
,
00000000
00000001
00000100
00000010
00001000
00000100
00001000
00010000
,
00100000
10000000
00100000
00010000
01000000
10000000
00000000
10010000
,
00000000
10000000
01000000
00100000
00010000
00100000
01000000
00100000
,
00010000
00001000
00000100
00000010
00000100
00000001
00000000
00000011
,
00000000
00000001
00000010
00000100
00001000
00000100
00010000
00001000
,
00010000
00100000
00010000
00001000
00010000
01000000
00000000
01010000
,
00000000
00010000
01000000
10000000
00100000
00010000
00001000
00000010
,
00000001
00000010
00001000
00000010
00000001
00000010
00001000
00000010
,
00000001
00000100
00001000
00010000
00000000
00010000
00100000
10010000
,
00000000
10000000
01000000
00100000
00010000
00100000
01000000
00100000
,
00000000
00110000
00000000
00011000
00000000
00001100
00000000
00000000
,
00000010
00000001
00000010
00000100
00000010
00001000
00010000
00100000
,
10000000
00100000
00010000
00001000
00000000
00001000
00000100
00000001
,
00000000
00000010
00000000
00001001
00000000
00000001
00000010
00001000
,
00001000
00001000
00000000
00011000
00000000
00022000
00000000
00000000
,
00033000
00000000
00010000
01000000
10000000
01000000
00010000
01000000
,
10000000
01000000
00010000
01000000
00000000
00010000
00000000
00001001
,
00000000
00000000
00000001
00000100
00001000
00000100
00000001
00000100
,
00001000
00000100
00000001
00000100
00000000
00001000
00000000
10010000
,
00000000
00000000
10000000
00100000
00010000
00100000
10000000
00100000
,
00010000
00100000
10000000
00100000
00000000
00010000
00001000
00000010
,
00000001
00000010
00001000
00000010
00000001
00000010
00001000
00000010
,
00000000
00000001
00000000
00000110
00000000
00001001
00000000
00000000
,
00000001
00001000
00000100
00010000
00001000
00100000
00000000
10010000
,
00000000
10000000
00010000
01000000
00001000
00010000
00000100
00000010
,
00000001
00000100
00000010
00001000
00000100
00010000
00000000
00011000
,
00000000
00010000
00100000
10000000
00100000
00010000
00001000
00000100
,
00000001
00000010
00000100
00001000
00000100
00000010
00000000
00001001
,
00000000
00000001
00000100
00001000
00010000
01000000
10000000
01000000
,
00010000
00001000
00010000
00000100
00000010
00000001
00000000
00000101
,
00000000
00000000
00000001
00000000
00000010
00000000
00001000
00000000
00010000
00000000
01000000
00000000
10000000
00100000
10000000
00100000
,
00010000
00001000
00000100
00001000
00010000
00001000
00000000
00000011
,
00000000
00000001
00000100
00000010
00000100
00000001
00000100
00000010
,
00000100
00001000
00010000
00100000
10000000
00100000
00000000
00011000
,
00000000
00001000
00000100
00000010
00000100
00000001
00000100
00000010
,
00000100
00001000
00010000
00100000
00010000
00001000
00001000
00011000
,
00000000
00010000
00100000
01000000
10000000
01000000
00100000
00010000
,
00001000
00000100
00000010
00000001
00000100
00000010
00000010
00001010
,
00000000
00000010
00001000
00010000
00001000
00000010
00001000
00010000
,
00100000
10000000
00000000
11000000
00000000
01010000
00000000
10100000
,
00000000
00110000
00000000
10010000
00000000
11000000
01000000
01010000
,
00000000
00001100
00000000
00000101
00000000
00001010
00000000
00000011
,
00000000
00001100
00000000
00000101
00000000
00000011
00000010
00001000
,
00020000
00100000
10030000
00000000
20000000
01000000
30010000
00000000
,
00002000
00000100
00003001
00000000
00000002
00000010
00001003
00000000
,
00010000
00001000
00100000
00000000
00001000
00010000
00000100
00000000
,
00011000
00010000
00010010
00000000
00011000
00001000
01001000
00000000
,
00022000
00000000
00000000
00000000
00033000
00000000
00010000
00100000
,
10000000
00100000
00010000
00100000
10000000
00000000
00001000
00000010
,
00000001
00000010
00001000
00000010
00000001
00000000
00000001
00000100
,
00001000
00000100
00000001
00000100
00001000
00000000
00010000
01000000
,
10000000
01000000
00010000
01000000
10000000
00000000
10000000
00100000
,
01000000
00010000
00001000
00000100
00000001
00000100
00000001
00000010
,
00000100
00001000
00010000
01000000
10000000
00010000
10000000
00100000
,
00010000
00001000
00000010
00000001
00000100
00001000
00010000
01000000
,
10000000
00000000
01000000
00000000
00010000
00000000
00001000
00000000
00011000
00000000
00010000
00001000
00000000
00000000
00000000
00000000
;

//---------------dance-double - ----------------
#NOTES:
     dance-double:
     :
     Easy:
     5:
     0.438,0.578,0.550,0.175,0.000: // measure 1
00000000
00000000
00000000
00000000
,  // measure 2
00000000
00000000
00000000
00000000
,  // measure 3
00000000
00000000
00000000
00000000
,  // measure 4
00000000
00000000
00000000
00000000
,  // measure 5
00000000
10000000
01000000
00100000
,  // measure 6
10010000
00010000
00001000
00000100
,  // measure 7
00000011
00000001
00000100
00000010
,  // measure 8
00001001
00000010
00001000
00010000
,  // measure 9
00011000
00010000
00000000
00100000
00000000
10000000
00000000
01000000
,  // measure 10
00000000
00010000
00000000
00001000
00000000
00000100
00000001
00000100
,  // measure 11
00000000
00001000
00000000
00000100
00000000
00000001
00000000
00000010
,  // measure 12
00000000
00001000
00000000
00010000
00000000
01000000
10000000
01000000
,  // measure 13
00020000
00031000
00000200
00000310
,  // measure 14
00000002
00000103
00000020
00001030
,  // measure 15
00010200
00001300
00021000
00030100
,  // measure 16
00102000
00013000
00020010
00031000
,  // measure 17
00022000
00000000
00000000
00033000
,  // measure 18
00010000
00100000
10000000
00000000
,  // measure 19
00001000
00000010
00000001
00001000
,  // measure 20
00010000
01000000
10000000
00000000
,  // measure 21
00001000
00000100
00000001
00000100
,  // measure 22
00001000
00010000
00100000
00000000
,  // measure 23
00010000
00001000
00000010
00001000
,  // measure 24
00010000
00000000
10000000
00000000
00010000
00000000
00000000
00011000
,  // measure 25
00000000
00000001
00001000
00010000
,  // measure 26
10000000
01000000
00100000
00010000
,  // measure 27
00100000
00100000
00000000
10010000
00000000
10000000
00000000
01000000
,  // measure 28
00000000
00000000
00100000
00000000
00010000
00000000
00001000
00000100
,  // measure 29
00000000
00001010
00000000
00000001
00000000
00000011
00000000
00000000
,  // measure 30
00000001
00000010
00000100
00001000
,  // measure 31
00010000
00000000
00000000
00011000
00000000
00100000
00000000
10000000
,  // measure 32
00000000
00100000
00000000
00010000
00000000
00001000
00000000
00000100
,  // measure 33
00000100
00000100
00000000
00001001
00000000
00000110
00000000
00000000
,  // measure 34
00000001
00000101
00001000
00001100
,  // measure 35
00010000
00000000
00001000
00010000
00000000
00100000
00000000
00000000
,  // measure 36
10000000
11000000
00010000
01010000
,  // measure 37
00001000
00000000
00010000
00001000
00000000
00000100
00000000
00000010
,  // measure 38
00000000
00000011
00001000
00110000
,  // measure 39
00001000
00000000
00010000
00001000
00000000
00000100
00000010
00000000
,  // measure 40
00000001
00000000
00000100
00000000
00000010
00000000
00001000
00000100
,  // measure 41
00000000
00010000
00000000
00001000
00000000
00011000
00000000
00000000
,  // measure 42
10010000
00000000
01100000
00000000
10010000
00000000
00000000
00011000
,  // measure 43
00000000
00001100
00000011
00000101
,  // measure 44
00001001
00000000
00000110
00000000
00001001
00000000
00000000
00011000
,  // measure 45
00000000
01010000
10100000
11000000
,  // measure 46
00110000
00000000
11000000
00000000
01100000
00000000
00000000
00011000
,  // measure 47
00000000
00001100
00000011
00000101
,  // measure 48
00001010
00000000
00010100
00000000
00101000
00000000
00000000
00011000
,  // measure 49
00000000
10010000
00011000
00001001
,  // measure 50
00000001
00000000
00000100
00000000
00000010
00000000
00000000
00001001
,  // measure 51
00000000
00010000
00100000
01000000
,  // measure 52
10000000
00000000
01000000
00000000
00100000
00000000
00000000
10010000
,  // measure 53
00000000
00001000
00000100
00001000
,  // measure 54
00010000
00000000
00001000
00000000
00000010
00000000
00000000
00000110
,  // measure 55
00000000
00000001
00000100
00001000
,  // measure 56
00010000
00000000
01000000
00000000
10000000
00000000
00000000
01100000
,  // measure 57
00000000
10000000
00010000
00001000
,  // measure 58
00000000
00000100
00000000
00000010
00000000
00000001
00000000
00000010
,  // measure 59
00000000
00000100
00000000
00001000
00000000
00010000
00100000
10000000
,  // measure 60
00000000
10000000
00000000
01000000
00000000
00100000
00000000
00010000
,  // measure 61
00000000
00001000
00000000
00000100
00000000
00001000
00000100
00000001
,  // measure 62
00000200
00001300
00020000
00130000
,  // measure 63
00200000
00310000
00002000
00003100
,  // measure 64
00000020
00000031
00000200
00001300
,  // measure 65
00020000
00130000
02000000
13000000
,  // measure 66
20020000
00000000
30030000
10000000
,  // measure 67
01000000
00100000
10010000
01000000
,  // measure 68
00100000
00010000
00101000
00100000
,  // measure 69
00010000
00001000
00010100
00001000
,  // measure 70
00000100
00000010
00001010
00001000
,  // measure 71
00000010
00000100
00001001
00000001
,  // measure 72
00000010
00000100
00000101
00000010
,  // measure 73
00000100
00001000
00001010
00000100
,  // measure 74
00001000
00000000
00010000
00000000
01000000
10000000
00000000
00000000
;
