#VERSION:0.83;
#TITLE:Gun's N' Roses;
#SUBTITLE:;
#ARTIST:Paradise Lunch;
#TITLETRANSLIT:;
#SUBTITLETRANSLIT:;
#ARTISTTRANSLIT:;
#GENRE:;
#ORIGIN:;
#CREDIT:;
#BANNER:[ROUND B] - Gun's N' Roses-bn.png;
#BACKGROUND:[ROUND B] - Gun's N' Roses-bg.png;
#PREVIEWVID:;
#JACKET:[ROUND B] - Gun's N' Roses-jacket.png;
#CDIMAGE:;
#DISCIMAGE:;
#LYRICSPATH:;
#CDTITLE:;
#MUSIC:[ROUND B] - Gun's N' Roses.ogg;
#OFFSET:-1.125000;
#SAMPLESTART:10.020000;
#SAMPLELENGTH:12.000000;
#SELECTABLE:YES;
#DISPLAYBPM:132.000000:135.000000;
#BPMS:0.000=133.500,
4.000=134.500,
12.000=134.000,
16.000=133.500,
18.000=134.000,
20.000=132.000,
24.000=131.950,
28.000=132.400,
34.000=133.000,
36.000=133.400,
40.000=133.200,
44.000=133.500,
48.000=133.000,
50.500=132.500,
52.000=132.000,
60.000=133.000,
64.000=133.300,
72.000=133.400,
76.000=133.000,
80.000=132.000,
82.000=134.400,
84.000=132.950,
88.000=133.000,
92.000=133.200,
96.000=133.210,
98.000=133.500,
99.000=133.000,
104.000=133.200,
108.000=132.900,
112.000=132.800,
113.000=132.600,
116.000=132.000,
118.000=132.500,
120.000=132.700,
124.000=133.000,
132.000=133.200,
136.000=133.400,
140.000=133.300,
144.000=133.200,
148.000=132.500,
152.000=132.700,
156.000=133.000,
160.000=133.150,
164.000=133.250,
168.000=133.200,
172.000=133.500,
174.000=133.800,
176.000=129.000,
177.500=133.000,
178.500=134.500,
180.000=133.300,
184.000=133.800,
186.500=127.000,
188.000=130.200;
#STOPS:;
#DELAYS:;
#WARPS:;
#TIMESIGNATURES:0.000=4=4;
#TICKCOUNTS:0.000=4;
#COMBOS:0.000=1;
#SPEEDS:0.000=1.000=0.000=0;
#SCROLLS:0.000=1.000;
#FAKES:;
#LABELS:0.000=Song Start;
#BGCHANGES:;
#KEYSOUNDS:;
#ATTACKS:
;

//---------------dance-single - ----------------
#NOTEDATA:;
#CHARTNAME:;
#STEPSTYPE:dance-single;
#DESCRIPTION:;
#CHARTSTYLE:;
#DIFFICULTY:Easy;
#METER:4;
#RADARVALUES:0.291837,0.319751,0.222050,0.222050,0.000000,184.000000,164.000000,20.000000,20.000000,0.000000,0.000000,0.000000,0.000000,0.000000,0.291837,0.319751,0.222050,0.222050,0.000000,184.000000,164.000000,20.000000,20.000000,0.000000,0.000000,0.000000,0.000000,0.000000;
#CREDIT:;
#NOTES:
0000
0000
0000
0000
,
1000
1000
1000
1000
,
0001
0001
0001
0001
,
0020
0000
0000
0000
,
0130
0100
0100
1001
,
1000
0100
0010
0011
,
0001
0100
0010
1010
,
1000
0010
0100
0101
,
0001
0010
0100
1100
,
1000
1000
0001
0011
,
0001
0001
1000
1100
,
1000
1000
0001
1010
,
0001
0000
0001
0000
0000
0101
0000
0000
,
2002
3003
0100
0100
,
0020
0030
1000
1000
,
0002
0003
0001
0001
,
2000
3000
0010
0010
,
1000
0000
0010
0000
0002
0003
0002
0003
,
0010
0000
0100
0000
2000
3000
2000
3000
,
0100
1000
0020
0230
,
0302
0000
1003
1000
,
0000
0100
0000
0000
0100
0000
0000
0000
,
0010
0000
0000
0010
0000
0000
0000
0000
,
0000
0001
0000
0000
0001
0000
0000
0000
,
0010
1000
0001
0100
,
0000
0100
0000
0000
0010
0000
0000
0000
,
1000
0020
0230
0301
,
0010
0100
0000
0100
,
0010
0001
1000
0100
,
1000
0010
0100
1001
,
0001
0010
0100
1001
,
0010
0100
0001
0110
,
0100
0010
1000
0110
,
1000
0200
0010
0310
,
0001
0020
0100
0130
,
1000
0001
1000
0200
,
0310
0100
0001
0010
,
0100
0100
0001
1010
,
0010
0010
1000
0101
,
0001
0001
0010
1100
,
1000
1000
0100
0011
,
0001
0100
1000
0100
,
0001
0010
1000
0010
,
0100
1000
0001
0010
,
0100
0000
0000
1001
0000
0000
0000
0000
,
1000
0100
1000
0010
,
0001
0000
0100
0000
0000
0010
0000
0000
,
2002
0000
0000
0000
,
3003
0000
0000
0000
;

//---------------dance-single - ----------------
#NOTEDATA:;
#CHARTNAME:;
#STEPSTYPE:dance-single;
#DESCRIPTION:;
#CHARTSTYLE:;
#DIFFICULTY:Medium;
#METER:7;
#RADARVALUES:0.393345,0.399689,0.122127,0.310869,0.116576,248.000000,237.000000,11.000000,28.000000,0.000000,0.000000,0.000000,0.000000,0.000000,0.393345,0.399689,0.122127,0.310869,0.116576,248.000000,237.000000,11.000000,28.000000,0.000000,0.000000,0.000000,0.000000,0.000000;
#CREDIT:;
#NOTES:
0000
0000
0000
0000
,
1000
0100
1000
0000
0010
1000
0010
0000
,
0001
0100
0001
0000
0010
0001
0010
0000
,
0200
0000
0000
0000
,
0310
0100
0010
0001
1000
0100
0010
0001
,
1000
0000
1000
0100
1000
0001
0010
0000
,
0001
0100
1000
0100
0002
0000
0003
0000
,
0001
0010
0100
0000
1000
0100
0010
0000
,
1000
0001
0100
0001
0020
0000
0030
0000
,
0001
0000
0001
0010
0100
0010
0001
0000
,
1000
0010
0001
0010
0200
0000
0300
0000
,
1000
0100
0010
0000
0001
0010
1000
0000
,
0010
0000
1000
0000
0100
0000
0010
0000
0000
0000
0001
0000
0000
0001
0000
0000
,
2000
0001
0010
3001
,
0002
1000
0010
1003
,
0200
0001
0010
0301
,
0020
1000
0100
1030
,
1000
0100
0100
1000
0010
0000
0010
0000
,
0001
0100
0100
0001
0010
0000
0010
0000
,
0001
0000
0100
0001
0010
0000
1000
0010
,
0100
0010
1000
0001
0100
0010
1000
0000
,
0000
0000
0100
0000
0000
0000
1000
0000
0100
0000
0000
0010
0000
0000
0001
0000
,
1000
0000
0000
0000
0000
0000
0010
0000
0000
0100
0000
0000
0110
0000
0000
0000
,
0000
0000
0001
0000
0000
0000
0010
0000
0100
0000
0000
1000
0000
0000
0100
0000
,
0120
0030
0102
0003
2100
3000
0200
0000
,
0300
0000
1000
0000
0000
0000
0001
0000
0010
0000
0000
0100
0000
0000
0010
0000
,
0001
0000
2020
0000
0030
3001
0000
0100
,
0010
1000
0010
0000
0010
0001
0010
0000
,
0001
0100
1000
0100
0010
1000
0001
0000
,
0001
0000
0000
0001
0000
0000
0002
0000
0000
0000
0000
0000
0013
0000
0000
0000
,
1000
0000
0000
1000
0000
0000
2000
0000
0000
0000
0000
0000
3010
0000
0000
0000
,
0100
0000
0000
0100
0000
0000
0200
0000
0000
0000
0000
0000
0310
0000
0000
0000
,
0001
0000
0000
0010
0000
0000
2000
0000
0000
0000
0000
0000
3100
0000
0000
0000
,
1000
0000
0000
0100
0000
0000
1100
0000
0000
0000
0010
0000
0100
0000
0010
0000
,
0001
0000
0000
0010
0000
0000
0011
0000
0000
0000
0001
0000
1000
0000
0000
0000
,
0010
0000
0000
1000
0000
0000
1010
0000
0000
0000
0100
0000
0010
0000
1000
0000
,
0001
0000
0000
0010
0000
0000
0100
0000
1000
0000
0010
0000
0110
0000
0000
0000
,
0010
0000
0000
0010
0000
0000
2000
0000
0000
0000
0000
0000
3100
0000
0000
0000
,
0010
0000
0000
0010
0000
0000
0002
0000
0000
0000
0000
0000
0103
0000
0000
0000
,
0100
0000
0000
0100
0000
0000
0020
0000
0000
0000
0000
0000
1030
0000
0000
0000
,
0100
0000
0000
0100
0000
0000
0020
0000
0000
0000
0000
0000
0031
0000
0000
0000
,
0100
0000
0000
0001
0000
0000
2000
0000
0000
0000
0000
0000
3010
0000
1000
0000
,
0100
0000
0000
1000
0000
0000
0002
0000
0000
0000
0000
0000
0013
0000
0000
0000
,
0001
0010
0100
1000
0000
1000
0010
0100
,
0001
0000
0000
1000
0000
0000
0220
0000
0000
0000
0030
0000
0301
0000
0000
0000
,
0001
1000
0010
0100
0010
1000
0001
0000
,
1000
0000
0100
0000
0010
0000
0001
0000
0000
0000
0010
0000
0000
0100
0000
0000
,
2002
0000
0000
0000
0000
0000
0000
3000
,
0103
0000
0000
0000
;

//---------------dance-single - ----------------
#NOTEDATA:;
#CHARTNAME:;
#STEPSTYPE:dance-single;
#DESCRIPTION:;
#CHARTSTYLE:;
#DIFFICULTY:Beginner;
#METER:1;
#RADARVALUES:0.137988,0.186522,0.022205,0.099922,0.000000,87.000000,85.000000,2.000000,9.000000,0.000000,0.000000,0.000000,0.000000,0.000000,0.137988,0.186522,0.022205,0.099922,0.000000,87.000000,85.000000,2.000000,9.000000,0.000000,0.000000,0.000000,0.000000,0.000000;
#CREDIT:;
#NOTES:
// measure 0
0000
0000
0000
0000
,  // measure 1
1001
0000
0000
0000
,  // measure 2
0000
0000
0000
0000
,  // measure 3
0020
0000
0000
0000
,  // measure 4
0000
0000
0000
0030
,  // measure 5
1000
0000
0100
0000
,  // measure 6
0010
0000
0001
0000
,  // measure 7
0001
0000
0010
0000
,  // measure 8
0100
0000
1000
0000
,  // measure 9
0001
0000
0100
0000
,  // measure 10
0010
0000
1000
0000
,  // measure 11
1000
0000
0010
0000
,  // measure 12
0100
0000
0000
0001
,  // measure 13
0002
0000
0003
0000
,  // measure 14
2000
0000
3000
0000
,  // measure 15
0002
0000
0003
0000
,  // measure 16
0020
0000
0030
0000
,  // measure 17
0200
0000
0300
0000
,  // measure 18
2000
0000
3000
0000
,  // measure 19
0100
0000
0010
0000
,  // measure 20
0000
0001
0001
0000
,  // measure 21
0000
0000
1000
0000
,  // measure 22
0010
0000
0110
0000
,  // measure 23
0000
0000
0001
0000
,  // measure 24
0010
0010
0010
0000
,  // measure 25
0000
0000
0100
0000
,  // measure 26
1000
0000
0010
0000
,  // measure 27
0000
0001
0000
1000
,  // measure 28
0200
0000
0000
0300
,  // measure 29
0000
0010
0000
0010
,  // measure 30
0000
0001
0000
0010
,  // measure 31
0000
0100
0000
0100
,  // measure 32
0000
1000
0000
0100
,  // measure 33
0000
1000
0000
1000
,  // measure 34
0000
0010
0000
1000
,  // measure 35
0000
0001
0000
0001
,  // measure 36
0000
0100
0100
0000
,  // measure 37
0010
0010
0010
0000
,  // measure 38
0100
0100
0100
0000
,  // measure 39
1000
1000
1000
0000
,  // measure 40
0001
0001
0001
0000
,  // measure 41
1000
1000
1000
0000
,  // measure 42
0010
0010
0010
0000
,  // measure 43
0100
0100
0100
0000
,  // measure 44
0001
0000
0000
1000
,  // measure 45
1000
0000
0010
0000
,  // measure 46
0100
0000
0000
0001
,  // measure 47
0002
0000
0000
0000
,  // measure 48
0003
0000
0000
0000
;

//---------------dance-single - ----------------
#NOTEDATA:;
#CHARTNAME:;
#STEPSTYPE:dance-single;
#DESCRIPTION:;
#CHARTSTYLE:;
#DIFFICULTY:Challenge;
#METER:9;
#RADARVALUES:0.634427,0.719440,0.210947,0.410792,0.760520,400.000000,381.000000,19.000000,37.000000,0.000000,0.000000,0.000000,0.000000,0.000000,0.634427,0.719440,0.210947,0.410792,0.760520,400.000000,381.000000,19.000000,37.000000,0.000000,0.000000,0.000000,0.000000,0.000000;
#CREDIT:;
#NOTES:
0000
0000
0000
0000
,
1000
0000
0000
0010
0100
0000
0001
0000
1000
0000
0000
0100
0010
0000
0001
0000
,
1000
0000
0000
0001
0100
0000
0010
0000
1000
0000
0000
0010
0100
0000
0001
0000
,
2002
0000
0000
0003
,
3100
0010
0001
1000
0100
0010
0001
0100
0010
1000
0001
0100
0010
1000
0001
0000
,
1000
0010
0100
0010
1000
0100
0000
1000
0000
0011
0000
0000
0101
0000
0000
0000
,
0001
0100
0010
0000
1000
0100
0010
0002
0000
0000
0000
0000
0013
0000
0000
0000
,
0100
1000
0001
0010
0100
1000
0000
0001
0000
0200
0000
0000
1300
0000
0000
0000
,
0100
0001
0010
0000
0100
1000
0001
0020
0000
0000
0000
0000
0031
0000
0000
0000
,
0100
0010
1000
0001
0010
0001
0000
0100
0000
1010
0000
0000
1100
0000
0000
0000
,
1000
0100
0010
0000
0001
0100
0010
2000
0000
0000
0000
0000
3001
0000
0000
0000
,
0100
0001
1000
0010
1000
0100
0000
0001
0000
0200
0000
0000
0310
0000
0000
0000
,
0001
0010
0100
1000
0010
1000
0100
0010
0001
0000
0101
0000
0000
1100
0000
0000
,
1000
0000
0000
1000
0100
0000
0010
0000
0001
0000
0010
0000
0100
1000
0000
1000
,
0000
0000
0000
0001
0100
0000
0010
0000
1000
0000
0010
0000
0100
0001
0000
0001
,
0000
0010
0100
0000
1000
0000
0001
0000
0010
0000
0001
0000
1000
0100
0000
0010
,
0000
0020
0000
0001
0000
1000
0000
0130
,
1000
0000
0001
0000
0010
0000
0100
0000
0010
0000
0001
1000
0000
0001
0010
0000
,
0001
0000
1000
0000
0010
0000
0100
0000
0010
0000
1000
0001
0000
0100
0010
0000
,
2000
0000
0000
3200
0000
0000
1300
0000
0020
0000
0000
0000
0230
0000
0000
0000
,
0300
0000
0001
0000
0001
0020
0000
0000
1030
0000
1000
0020
0000
0000
0030
0001
,
0100
0000
0010
0000
1000
0010
0100
0000
0010
0000
1000
0100
0000
1000
0010
0000
,
0100
0000
0000
0001
0000
0000
0010
0000
0000
0100
0000
0000
1000
0000
0100
0000
,
0000
0000
0010
0000
0001
0010
0100
0000
0010
0000
0001
0100
0000
0001
1000
0000
,
0020
0000
0000
1030
0002
0000
0000
0103
2000
0000
0000
3100
0010
0000
1000
0000
,
0001
0000
0100
0000
0001
0100
0010
0000
1000
0000
0010
0100
0000
0001
1000
0000
,
0100
0000
1000
0001
0020
0000
0000
0000
0000
0000
0031
0000
0010
0000
0100
0000
,
1000
0000
0100
1000
0001
0010
0000
0000
0001
0000
0100
0001
1000
0010
0000
0000
,
2000
0000
0000
0000
3001
0100
0000
0010
1000
0001
0000
0020
0000
0000
0000
0000
,
0031
0000
1000
0010
0000
1000
0002
0000
0000
0000
0013
0000
0110
0000
0000
0000
,
1000
0000
0001
0010
0000
0001
2000
0000
0000
0000
3100
0000
0110
0000
0000
0000
,
0001
0000
1000
0100
0000
1000
0002
0000
0000
0000
0103
0000
0010
0000
1000
0000
,
1000
0000
0001
0100
0000
0001
1000
0000
0010
0100
0000
0110
0000
0000
1001
0000
,
0001
0000
0010
0100
0000
0010
0002
0000
0000
0000
1003
0000
0100
0000
1000
0000
,
1000
0000
0010
0100
0000
0010
2000
0000
0000
0000
3001
0000
1001
0000
0000
0000
,
0001
0000
1000
0100
0000
0010
0001
0000
0000
1000
0100
0000
1000
0100
1000
0001
,
0010
0000
0001
1000
0000
0010
0200
0000
0020
0000
0000
0000
0000
0000
0330
0000
,
1000
0000
0001
0100
0000
0001
0020
0000
0000
0000
0130
0000
0100
0000
1000
0000
,
0001
0000
1000
0100
0000
1000
0020
0000
0000
0000
0130
0000
1001
0000
0000
0000
,
0010
0000
1000
0100
0000
1000
0002
0000
0000
0000
1003
0000
1000
0000
0010
0000
,
0100
0000
0001
0010
0000
0001
1000
0000
0100
0010
0000
0110
0000
0000
1001
0000
,
0001
0000
0100
0010
0000
1000
0020
0000
0000
0000
1000
0000
1030
0000
0100
0000
,
1000
0000
0100
0010
0000
0001
0020
0000
0000
0000
0001
0000
0031
0000
1000
0000
,
0100
0000
0010
0001
0000
0010
2000
0000
0000
0000
3010
0000
0001
0100
0010
1000
,
0010
0000
1000
0100
0000
0010
0002
0000
0000
0000
1003
0000
1001
0000
0000
0000
,
1000
0010
0100
0001
0010
0100
0000
0010
0000
0002
0000
0000
1003
0000
0000
0000
,
1000
0100
1000
0001
0100
0001
1000
0010
0000
0000
0110
0000
0000
1001
0000
0000
,
0220
0000
0000
0000
0000
0000
0000
0000
0000
0000
0000
0000
0330
0000
1000
0001
,
0100
0000
0000
0000
;

//---------------dance-single - ----------------
#NOTEDATA:;
#CHARTNAME:;
#STEPSTYPE:dance-single;
#DESCRIPTION:;
#CHARTSTYLE:;
#DIFFICULTY:Hard;
#METER:8;
#RADARVALUES:0.499611,0.559565,0.222050,0.521816,0.377484,315.000000,295.000000,20.000000,47.000000,0.000000,0.000000,0.000000,0.000000,0.000000,0.499611,0.559565,0.222050,0.521816,0.377484,315.000000,295.000000,20.000000,47.000000,0.000000,0.000000,0.000000,0.000000,0.000000;
#CREDIT:;
#NOTES:
0000
0000
0000
0000
,
1000
0000
0000
1000
0100
0000
0010
0000
0001
0000
0000
0001
0010
0000
0100
0000
,
1000
0000
0000
1000
0010
0000
0100
0000
0001
0000
0000
0001
0100
0000
0010
0000
,
2002
0000
0000
0000
0000
0000
0000
3003
,
0010
0100
1000
0100
0001
0100
1001
0000
,
0001
0000
0010
0000
0100
0010
0000
0001
0000
0200
0000
0000
1300
0000
0000
0000
,
0100
0000
0001
0000
1000
0000
0010
2000
0000
0000
0000
0000
3100
0000
0000
0000
,
1000
0000
0010
0000
0100
0001
0000
0010
0000
0002
0000
0000
0010
0000
0000
0000
,
0103
0000
0010
0000
1000
0000
0001
0020
0000
0000
0000
0000
0031
0000
0000
0000
,
0100
0000
0010
0000
1000
0001
0000
0010
0000
0002
0000
0000
1003
0000
0000
0000
,
0100
0000
0010
0000
0001
0000
1000
0020
0000
0000
0100
0000
0000
0130
0000
0000
,
0100
0000
0010
0000
1000
0100
0000
1000
0000
0002
0000
0000
0013
0000
0000
0000
,
0100
0000
1000
0000
0001
0000
0010
0000
0000
0000
1100
0000
0000
0101
0000
0000
,
1001
0000
0100
1000
0010
1000
0100
1000
,
0020
0000
0130
0001
0010
0001
0100
0001
,
0020
0000
0000
0000
0130
0000
1000
0000
0001
0000
0010
0000
0100
1000
0000
0001
,
0000
0002
0000
2003
0000
3020
0000
0130
,
0000
0000
0001
0000
0100
0000
0001
0000
0020
0000
0030
0020
0000
0030
0020
0000
,
0030
0000
0000
0100
1000
0000
0001
0000
0010
0000
0001
1000
0000
0000
0010
0000
,
0200
0000
0000
0302
0000
0000
2003
0000
3020
0000
0000
0000
2030
0000
0000
0000
,
3000
0000
0100
0000
0010
0200
0000
0000
1300
0000
0001
1000
0000
0000
0110
0000
,
0000
0000
0001
0000
0000
0000
0001
0000
1000
0000
0000
0010
0000
0000
0100
0000
,
0002
0000
0000
0000
0000
0000
0023
0000
0000
0100
0030
0000
0010
0000
0001
0000
,
0000
0000
1000
0000
0000
0000
1000
0000
0100
0000
0000
1000
0000
0000
0001
0000
,
0020
0000
0000
0001
0230
0000
0000
0310
2000
0000
0000
3100
0001
0000
0100
0000
,
0000
0000
0010
0000
0001
0000
1000
0000
0010
0000
0000
0100
0000
0000
0001
0000
,
1000
0000
0000
0000
0020
0000
0000
0000
0000
0000
1000
0000
0000
0130
0000
0000
,
0000
0000
0010
1000
0010
1000
0000
0000
0000
0000
0001
0100
0001
0100
0000
0000
,
0001
1000
0001
0010
0100
0010
0001
1000
,
0100
0000
0000
0100
0010
0000
0002
0000
0000
0000
1003
0000
0010
0000
0100
0000
,
0001
0000
0000
0001
1000
0000
0020
0000
0000
0000
0130
0000
0010
0000
0000
0000
,
1000
0000
0000
1000
0010
0000
0200
0000
0000
0000
0301
0000
0010
0000
0001
0000
,
0100
0000
0000
0100
0001
0000
0020
0000
0000
0000
0130
0000
1001
0000
0000
0000
,
1000
0000
0000
0001
0010
0000
0200
0000
0000
0000
0310
0000
0001
0000
1000
0000
,
0001
0000
0000
1000
0010
0000
0200
0000
0000
0000
0301
0000
0010
0000
0000
0000
,
0001
0000
0000
0100
0010
0000
2000
0000
0000
0000
3000
0000
0100
0010
0100
0010
,
0001
0000
0001
1000
0000
1000
0200
0000
0020
0000
0300
0000
0000
0000
0000
0000
,
0031
0000
0000
0011
0000
0000
1200
0000
0000
0000
1300
0000
0001
0000
0100
0000
,
0010
0000
0000
1010
0000
0000
0201
0000
0000
0000
0301
0000
0010
0000
0000
0000
,
0100
0000
0000
1100
0000
0000
0021
0000
0000
0000
0031
0000
1000
0000
0010
0000
,
0100
0000
0000
0101
0000
0000
1020
0000
0000
0000
1030
0000
0100
0000
0000
0000
,
1000
0000
0000
0010
0000
0000
0200
0000
0000
0000
0301
0000
0101
0000
0000
0000
,
0001
0000
0000
0010
0000
0000
0200
0000
0000
0000
1300
0000
1100
0000
0000
0000
,
1000
0000
0000
0010
0000
0000
0100
0000
0000
0000
0001
0000
1000
0001
1000
0001
,
0010
0000
0010
0100
0000
0100
2000
0000
0000
0000
0000
0000
3001
0000
0000
0000
,
0001
0010
1000
0010
0001
0100
1000
0000
,
0100
0001
0100
0001
1000
0010
1000
0010
0000
0000
1010
0000
0000
0011
0000
0000
,
2002
0000
0000
0000
0000
0000
0000
0003
,
3100
0000
0000
0000
;
