#TITLE:Electroman Adventures;
#SUBTITLE:;
#ARTIST:Waterflame;
#TITLETRANSLIT:;
#SUBTITLETRANSLIT:;
#ARTISTTRANSLIT:;
#GENRE:;
#CREDIT:;
#BANNER:banner.png;
#BACKGROUND:bg.png;
#LYRICSPATH:;
#CDTITLE:;
#MUSIC:Waterflame - Electroman Adventures (HD).ogg;
#OFFSET:-0.185000;
#SAMPLESTART:107.483345;
#SAMPLELENGTH:15.529411;
#SELECTABLE:YES;
#BPMS:0.000000=170.000000
;
#STOPS:
;
#BGCHANGES:;
#KEYSOUNDS:;
#ATTACKS:;

//---------------dance-single - ----------------
#NOTES:
     dance-single:
     :
     Hard:
     8:
     0.651622,0.780892,0.309995,0.191902,0.029523,550.000000,42.000000,26.000000,0.000000,0.000000,0.000000,0.651622,0.780892,0.309995,0.191902,0.029523,550.000000,42.000000,26.000000,0.000000,0.000000,0.000000:
// measure 0
0000
0000
0000
0000
,  // measure 1
0000
0000
0000
0000
,  // measure 2
0000
0000
0000
0000
,  // measure 3
0000
0000
0000
0000
,  // measure 4
0000
0000
0000
0000
,  // measure 5
0000
0000
0000
0000
,  // measure 6
0000
0000
0000
0000
,  // measure 7
0000
0000
0000
0000
,  // measure 8
2000
0000
3001
1000
0010
0100
0001
1000
,  // measure 9
0000
0011
1000
1010
,  // measure 10
0101
0000
1000
0001
0010
0100
1000
0010
,  // measure 11
0000
0100
0001
0010
1000
0010
0000
0001
,  // measure 12
1000
0000
0001
1000
0010
0100
0001
0010
,  // measure 13
0000
0100
1000
1000
1000
0001
0001
0001
,  // measure 14
0100
0000
0010
1000
0100
0010
0001
1000
,  // measure 15
0000
0001
1000
0010
0100
0001
0100
0010
,  // measure 16
1000
1000
0100
0010
0010
0100
1000
0010
,  // measure 17
0000
0000
0010
0000
0100
0000
0001
0000
0020
0000
0000
0000
0030
0000
0100
1000
,  // measure 18
0100
0000
0010
0001
0010
0000
0001
0010
0001
0000
0001
0100
0001
0000
1000
0010
,  // measure 19
1000
0000
0100
1000
0100
0000
0010
0100
0010
0000
0001
0010
0001
0000
1000
0000
,  // measure 20
0010
0000
0100
0001
0100
1000
0100
0001
,  // measure 21
0000
0000
1000
0100
0001
0100
1000
0010
,  // measure 22
0000
0000
0100
0001
0100
1000
0100
0001
,  // measure 23
0000
0010
0100
1000
0010
0100
0001
0010
,  // measure 24
0100
0000
1000
0100
0001
0100
1000
0010
,  // measure 25
0000
0000
0100
0001
0100
1000
0100
0010
,  // measure 26
0000
0000
1000
0100
0010
0001
1000
0010
,  // measure 27
0200
0301
0002
1003
,  // measure 28
1000
0000
0100
0001
0100
1000
0010
0100
,  // measure 29
0001
0000
1000
0010
0100
0001
0010
0100
,  // measure 30
1000
0000
0001
0010
1000
0010
0001
0100
,  // measure 31
0000
0100
0010
1000
0100
0010
0001
0100
,  // measure 32
0010
0000
1000
0010
0001
0010
1000
0100
,  // measure 33
0010
0000
0001
0010
1000
0010
0001
0100
,  // measure 34
0010
0000
1000
0010
0100
0001
1000
0100
,  // measure 35
0000
0100
0010
0001
1000
0020
0001
0000
,  // measure 36
1030
0000
0011
0010
0100
1000
0010
0100
,  // measure 37
0100
0000
0101
0010
0100
1000
0100
0010
,  // measure 38
0010
0000
1001
0001
0100
1000
0100
0002
,  // measure 39
0000
0013
0100
1000
0010
0100
0001
0001
,  // measure 40
1000
0000
0011
0010
0100
1000
0010
0100
,  // measure 41
0001
0000
0101
0010
0100
1000
0100
0010
,  // measure 42
0010
0000
1001
1000
0100
0001
0100
2000
,  // measure 43
0000
3010
0100
0001
0010
0100
2000
0000
,  // measure 44
3001
0100
1000
0100
0001
0100
1000
0100
,  // measure 45
0002
0013
2000
3010
,  // measure 46
0001
0010
1000
0010
0001
0010
0001
0010
,  // measure 47
2000
3020
0032
2003
,  // measure 48
3010
0100
1000
0100
0001
0100
1000
0100
,  // measure 49
0002
0010
1000
0103
,  // measure 50
0010
1000
0100
1000
0010
1000
0100
0010
,  // measure 51
0001
0011
2010
0100
,  // measure 52
3001
0100
0100
0010
1000
1000
0100
0002
,  // measure 53
0000
0000
0103
1000
0010
0100
0001
1000
,  // measure 54
0001
0010
0010
0100
0100
0100
1000
0020
,  // measure 55
0000
0130
0001
0100
0010
1000
0100
0010
,  // measure 56
0001
0000
0101
0000
1010
0000
1000
0200
,  // measure 57
0000
0000
0310
0001
0010
0100
1000
0010
,  // measure 58
0200
0000
0301
0100
0020
0000
1030
0100
,  // measure 59
0220
0000
0000
0330
,  // measure 60
1001
0000
0000
0101
0001
0000
0100
0000
,  // measure 61
0110
0000
0000
1010
1000
0000
0010
0000
,  // measure 62
1001
0000
0000
0011
0001
0000
0010
0000
,  // measure 63
0110
0000
1000
0000
0010
0100
0001
0100
,  // measure 64
0010
0000
1001
1000
0100
0000
0100
0000
,  // measure 65
0010
0000
1001
0100
0010
0000
0010
0000
,  // measure 66
0110
0000
1010
1000
0100
0000
0100
0000
,  // measure 67
0011
0000
1100
0000
0001
1000
0001
1000
,  // measure 68
0010
0100
0001
0100
0010
0010
1000
0000
,  // measure 69
0001
0010
0100
0010
0001
0001
1000
0000
,  // measure 70
0001
0100
1000
0100
0010
0010
1000
0000
,  // measure 71
0001
0010
0100
0000
1000
0100
1000
0100
,  // measure 72
0010
0001
0100
0010
0100
0001
0010
0100
,  // measure 73
1000
0100
0010
0001
0100
0010
0001
0010
,  // measure 74
1000
0100
0010
0001
0100
0010
1000
0100
,  // measure 75
0110
0000
1001
0000
0001
0100
0010
1000
,  // measure 76
0001
0000
0101
0001
0100
0010
1000
0100
,  // measure 77
0010
0000
0011
0010
0100
1000
0010
0100
,  // measure 78
0001
0000
0101
0100
1000
0100
0001
0020
,  // measure 79
0000
0100
0130
1000
0010
0100
0001
0010
,  // measure 80
0100
0000
1001
0001
0100
0010
1000
0100
,  // measure 81
0100
0000
1100
0100
0010
0001
0100
0010
,  // measure 82
0010
0000
0110
0010
1000
0100
0001
0200
,  // measure 83
0000
1000
1300
0010
0100
0001
2000
0000
,  // measure 84
3100
0000
0011
0010
0100
1000
0010
0100
,  // measure 85
0001
0000
0101
0001
0100
0010
1000
0100
,  // measure 86
0010
0000
0011
0010
1000
0010
0001
0100
,  // measure 87
0000
0100
0010
1000
0100
0010
0001
0001
,  // measure 88
1000
0000
0101
0001
0100
0010
0100
0001
,  // measure 89
0010
0000
0011
0010
0100
0010
0001
0100
,  // measure 90
0010
0000
0110
0100
1000
0100
0001
0010
,  // measure 91
0000
0010
0100
1000
0001
0100
0010
0000
,  // measure 92
1001
0000
0000
0000
;

//---------------dance-single - ----------------
#NOTES:
     dance-single:
     :
     Medium:
     6:
     0.469210,0.509278,0.376423,0.125474,0.000000,377.000000,51.000000,17.000000,0.000000,0.000000,0.000000,0.469210,0.509278,0.376423,0.125474,0.000000,377.000000,51.000000,17.000000,0.000000,0.000000,0.000000:
0000
0000
0000
0000
,
0000
0000
0000
0000
,
0000
0000
0000
0000
,
0000
0000
0000
0000
,
0000
0000
0000
0000
,
0000
0000
0000
0000
,
0000
0000
0000
0000
,
0000
0000
0000
0000
,
1000
1000
0001
0001
,
1000
0110
0001
0110
,
1000
0010
0100
0001
,
0010
0200
1000
0001
,
1300
0010
0100
0001
,
1000
0010
0010
0100
,
0001
0010
0100
1000
,
0001
0001
1000
1000
,
0010
0000
0100
0001
0100
0001
0100
0010
,
0000
1000
0100
0000
0020
0000
0030
0000
,
0011
1010
1100
0101
,
0021
1000
0031
0001
,
1000
0000
0010
0000
0010
0000
0100
0001
,
0000
0000
0010
0000
0010
0000
0100
1000
,
0000
0000
0010
0000
0010
0000
0100
0001
,
0000
0001
1000
0000
0100
0000
0010
0001
,
0010
0000
0100
0000
1000
0000
0010
0100
,
0000
0000
0001
0000
0010
0000
0100
1000
,
0000
0000
0010
0000
0100
0000
0001
0010
,
0200
1000
0000
1300
,
0001
0000
0101
0000
0010
0000
1000
0100
,
0010
0000
0011
0000
0010
0000
0100
1000
,
0010
0000
0110
0000
0100
0000
0001
0010
,
0100
1000
0001
0100
,
0010
0000
1010
0000
0001
0000
0010
0100
,
1000
0000
0011
0000
1000
0000
0010
0100
,
0001
0000
1010
0000
1000
0000
0100
0010
,
0001
0100
0010
1000
,
0001
0000
1100
0000
0101
0000
0001
0010
,
0001
0000
0011
0000
1010
0000
1000
0100
,
1000
0000
0101
0000
1010
0000
1000
0100
,
0010
0001
0010
0100
,
1000
0000
0110
0000
0011
0000
0010
0100
,
1000
0000
1010
0000
0101
0000
0001
0010
,
0100
0000
0110
0000
1100
0000
1000
0010
,
0100
0001
1000
0100
,
0010
0010
0001
0001
,
2000
0010
0010
0010
,
3001
0001
0100
0100
,
0020
0001
1000
0001
,
1030
0100
0010
0001
,
1000
1010
0001
0011
,
1000
0100
0010
0001
,
2000
0010
0002
3003
,
0001
0100
0001
0000
1000
0100
1000
0000
,
0020
0000
0001
1030
,
0001
0100
0001
0000
1000
0010
1000
0000
,
0100
0000
0010
0000
0001
1000
0001
0000
,
1000
0000
0010
0000
0100
0000
0001
2000
,
0000
0100
0001
3100
,
0022
0033
2020
3030
,
2002
0000
0000
3003
,
0001
0000
0000
1000
0100
0000
0000
0000
,
1000
0000
0000
0001
0100
0000
0000
0000
,
0001
0000
0000
1000
0100
0000
0000
0000
,
0010
0000
0000
0000
0001
1000
0001
0000
,
1000
0000
0000
1000
0010
0000
0100
0000
,
0001
0000
0000
0001
0010
0000
0100
0000
,
1000
0000
0000
1000
0010
0000
0100
0000
,
0001
0001
0020
0130
,
1000
0000
0010
0100
0001
0000
0001
0000
,
1000
0000
0100
0010
0001
0000
0001
0000
,
1000
0000
0010
0100
0001
0000
0001
0000
,
1000
0000
0100
0000
0010
0001
0010
0000
,
0100
0000
1000
0010
0100
0000
0100
0000
,
0001
0000
0100
0010
1000
0000
1000
0000
,
0100
0000
0010
0001
1000
0000
1000
0000
,
0110
0000
0000
0000
0001
1000
0001
1000
,
0001
0000
0110
0000
0100
0000
1000
0010
,
0100
0000
0110
0000
0100
0000
0001
0010
,
0100
0000
0110
0000
1001
0000
0001
0100
,
0010
0000
1000
0010
1000
0000
0001
0010
,
0001
0000
0011
0000
1100
0000
1000
0010
,
1000
0000
1010
0000
0101
0000
0001
0010
,
0001
0000
0010
0100
1000
0000
0010
0100
,
0001
0000
1000
0001
1000
0000
0100
0000
,
0110
0000
0011
0000
1100
0000
1000
0010
,
1000
0000
1010
0000
0101
0000
0001
0100
,
0001
0000
0110
0000
1001
0000
1000
0100
,
0010
0000
0010
0001
0100
0000
0100
0010
,
1000
0000
0101
0000
1010
0000
0001
0010
,
0001
0000
0011
0000
1100
0000
1000
0010
,
1000
0000
0001
0100
0010
0000
1000
0100
,
0010
0000
0001
0100
0010
0100
0001
0000
,
0011
0000
0000
0000
;

//---------------dance-single - ----------------
#NOTES:
     dance-single:
     :
     Easy:
     4:
     0.308941,0.407422,0.199283,0.088570,0.000000,254.000000,27.000000,12.000000,0.000000,0.000000,0.000000,0.308941,0.407422,0.199283,0.088570,0.000000,254.000000,27.000000,12.000000,0.000000,0.000000,0.000000:
0000
0000
0000
0000
,
0000
0000
0000
0000
,
0000
0000
0000
0000
,
0000
0000
0000
0000
,
0000
0000
0000
0000
,
0000
0000
0000
0000
,
0000
0000
0000
0000
,
0000
0000
0000
0000
,
1000
0000
0001
0000
,
0100
0010
0100
0000
,
0001
0000
1000
0000
,
0100
0010
0001
1000
,
0010
0000
1000
0000
,
0001
0100
0010
0000
,
1000
0000
0100
0000
,
0010
0001
0010
0100
,
1000
0010
0000
0010
,
0100
0001
1000
0000
,
1001
0000
0110
0000
,
1001
0110
0011
1010
,
1100
0001
0000
0001
,
0000
1000
0000
1000
,
0000
0010
0000
0010
,
0100
0001
0010
0100
,
1000
0001
0000
0001
,
0000
1000
0000
1000
,
0000
0010
0000
0010
,
0100
0000
0000
0000
,
1000
0001
0000
0001
,
0010
0100
0000
0100
,
1000
0010
0000
0010
,
0100
0001
0100
0010
,
1000
0100
0000
0010
,
0001
0100
0000
0010
,
1000
0100
0000
0010
,
0001
0100
0010
1000
,
0010
0100
0000
0001
,
0100
0010
0000
0100
,
0001
0010
0000
0100
,
1000
0001
1000
0010
,
0100
0001
0000
0100
,
0010
1000
0000
0100
,
0010
0001
0000
0100
,
0010
1000
0100
0010
,
0002
0003
2000
3000
,
0010
0010
0010
0000
,
0200
0300
0020
0030
,
1000
1000
1000
0000
,
0002
0003
0020
0030
,
0100
1000
0100
0000
,
0020
0030
0002
0003
,
1000
0010
1000
0000
,
0001
0001
0100
0100
,
0010
0000
0110
1001
,
1000
0100
0010
0001
,
0000
0001
1001
0110
,
0010
1000
0100
0010
,
0001
1000
0110
1001
,
0002
0003
0200
0300
,
2200
0000
0000
3300
,
0100
0000
0000
0000
,
0010
0000
0000
0000
,
0001
0000
0000
0000
,
1000
0000
0000
0000
,
0010
0000
0010
0000
,
0100
0000
0100
0000
,
0001
0000
0001
0000
,
1000
0000
0000
0000
,
1000
0100
0010
0000
,
0001
0100
0010
0000
,
1000
0100
0010
0000
,
0001
0000
0001
1000
,
0001
0100
0010
1000
,
0100
1000
0100
0010
,
0001
0100
0010
1000
,
0001
0000
1000
1000
,
0001
0110
1000
0100
,
0010
1001
0001
0100
,
0010
1001
0001
0100
,
0010
0010
0100
0100
,
0001
0110
1000
0100
,
0010
1001
0001
0100
,
0010
1001
1000
0100
,
0010
0010
0100
0100
,
1000
0110
0001
0010
,
0100
1001
0100
0010
,
1000
0110
1000
0100
,
0010
0001
1000
0010
,
0100
0101
0001
0010
,
0100
1100
0100
0010
,
0001
1001
1000
0010
,
0100
0000
0001
1000
0001
0000
0010
0000
,
1100
0000
0000
0000
;

//---------------dance-single - ----------------
#NOTES:
     dance-single:
     :
     Beginner:
     2:
     0.136018,0.169759,0.007381,0.000000,0.000000,128.000000,1.000000,0.000000,0.000000,0.000000,0.000000,0.136018,0.169759,0.007381,0.000000,0.000000,128.000000,1.000000,0.000000,0.000000,0.000000,0.000000:
0000
0000
0000
0000
,
0000
0000
0000
0000
,
0000
0000
0000
0000
,
0000
0000
0000
0000
,
0000
0000
0000
0000
,
0000
0000
0000
0000
,
0000
0000
0000
0000
,
0000
0000
0000
0000
,
1000
0000
0000
0000
,
0001
0000
0000
0000
,
1000
0000
0000
0000
,
0001
0000
0000
0000
,
0100
0000
0000
0000
,
0010
0000
0000
0000
,
0100
0000
0000
0000
,
0010
0000
0000
0000
,
1000
0000
0000
0000
,
0100
0000
0000
0000
,
0010
0000
0000
0000
,
0001
0000
0000
0000
,
1000
0000
0000
0000
,
0010
0000
0000
0000
,
0100
0000
0000
0000
,
0001
0000
0000
0000
,
1000
0000
0000
0000
,
0010
0000
0000
0000
,
0100
0000
0000
0000
,
0010
0000
0000
0000
,
1000
0000
1000
0000
,
0001
0000
0001
0000
,
1000
0000
1000
0000
,
0100
0000
0100
0000
,
0010
0000
0010
0000
,
0100
0000
0100
0000
,
0010
0000
0010
0000
,
0001
0000
0001
0000
,
1000
0000
1000
0000
,
0010
0000
0010
0000
,
1000
0000
1000
0000
,
0100
0000
0100
0000
,
0010
0000
0010
0000
,
0001
0000
0001
0000
,
0010
0000
0010
0000
,
0100
0000
0100
0000
,
1000
0000
0010
0000
,
0100
0000
0001
0000
,
1000
0000
0100
0000
,
0010
0000
0001
0000
,
1000
0000
0010
0000
,
1000
0000
0010
0000
,
0100
0000
0001
0000
,
0100
0000
0001
0000
,
1000
0000
0001
0000
,
0010
0010
0010
0000
,
0001
0000
1000
0000
,
0010
0010
0010
0000
,
1000
0000
0100
0000
,
0010
0000
0001
0000
,
1000
0000
0000
0000
,
0110
0000
0000
0000
,
0001
0000
0000
0000
,
0000
0000
0000
0000
,
0000
0000
0000
0000
,
0000
0000
0000
0000
,
1000
0000
0000
0000
,
0000
0000
0000
0000
,
0000
0000
0000
0000
,
0000
0000
0000
0000
,
0001
0000
0000
0000
,
1000
0000
0000
0000
,
0001
0000
0000
0000
,
1000
0000
0000
0000
,
0010
0000
0000
0000
,
0100
0000
0000
0000
,
0001
0000
0001
0000
,
1000
0000
0000
0000
,
1000
0000
0100
0000
,
0010
0000
0001
0000
,
1000
0000
0010
0000
,
0100
0000
0001
0000
,
1000
0000
0100
0000
,
1000
0000
0100
0000
,
0010
0000
0001
0000
,
0010
0000
0001
0000
,
1000
0000
0010
0000
,
0100
0000
0001
0000
,
1000
0000
0100
0000
,
0010
0000
0001
0000
,
1000
0000
0010
0000
,
0001
0000
0010
0000
,
1000
0000
0100
0000
,
0001
0000
0100
0000
,
1000
0000
0000
0000
;
