#TITLE:DATA SUPER HIGHWAY;
#SUBTITLE:;
#ARTIST:MACHO ROBOT;
#TITLETRANSLIT:;
#SUBTITLETRANSLIT:;
#ARTISTTRANSLIT:;
#GENRE:TECHNO;
#CREDIT:Telperion+;
#BANNER:[ROUND B] - DATA SUPER HIGHWAY.png;
#BACKGROUND:[ROUND B] - DATA SUPER HIGHWAY-bg.png;
#JACKET:[ROUND B] - DATA SUPER HIGHWAY-jacket.png;
#LYRICSPATH:;
#CDTITLE:cdtitle.png;
#MUSIC:[ROUND B] - DATA SUPER HIGHWAY.ogg;
#OFFSET:-0.061000;
#SAMPLESTART:13.113000;
#SAMPLELENGTH:13.913000;
#SELECTABLE:YES;
#DISPLAYBPM:138.000000;
#BPMS:0.000000=138.000000
;
#STOPS:
;
#BGCHANGES:;
#KEYSOUNDS:;
#ATTACKS:;

//---------------dance-single - Telperion----------------
#NOTES:
     dance-single:
     Telperion:
     Hard:
     9:
     0.575096,0.693449,0.175029,0.200033,0.537590,483.000000,462.000000,21.000000,24.000000,0.000000,0.000000,0.575096,0.693449,0.175029,0.200033,0.537590,483.000000,462.000000,21.000000,24.000000,0.000000,0.000000:
0000
0000
0000
0000
,
0000
0000
0000
0000
,
0000
0000
0000
0000
,
0000
0000
0000
0000
,
1000
0001
1000
0001
0100
0000
0000
0000
0001
0000
0000
0000
0001
0000
0000
0000
,
1000
0000
0000
0000
1000
0000
0000
0000
0100
0000
1000
0000
0001
1000
0100
0000
,
0010
0000
0000
0000
0000
0000
0000
0000
0000
0000
0000
0000
0000
0000
0000
0000
0000
0000
0000
0000
0000
0000
0000
0000
0000
0000
0000
0000
0000
0000
0000
0000
0000
0000
0000
0000
0000
0000
0000
0000
0000
0000
0000
0000
0000
0000
0000
0000
0010
0000
0000
0000
0000
0000
0000
0000
0000
0000
0000
0000
0000
0000
0000
0000
0000
0000
0000
0000
0000
0000
0000
0000
0000
0000
0000
0000
0000
0000
0000
0000
0000
0000
0000
0000
0000
0000
0000
0000
0000
0000
0000
0000
0000
0000
0000
0000
0001
0000
0000
0000
0000
0000
0000
0000
0000
0000
0000
0000
0000
0000
0000
0000
1000
0000
0000
0000
0000
0000
0000
0000
0000
0000
0000
0000
0000
0000
0000
0000
0001
0000
0000
0000
0000
0000
0000
0000
0000
0000
0000
0000
0000
0000
0000
0000
0010
0000
0000
0000
0000
0000
0000
0000
0000
0000
0000
0000
0000
0000
0000
0000
0100
0000
0000
0000
0000
0000
0000
0000
0000
0000
0000
0000
0000
0000
1000
0000
0000
0000
0000
0000
0000
0000
0000
0000
0000
0000
0000
0000
0001
0000
0000
0000
,
0000
0000
0000
0000
0000
0000
0000
0000
0100
0000
0000
0000
0000
0000
0000
0000
0000
0000
0000
0000
0010
0000
0000
0000
0000
0000
0000
0000
0000
0000
0000
0000
1000
0000
0000
0000
0000
0000
0000
0000
0000
0000
0000
0000
0001
0000
0000
0000
0000
0000
0000
0000
0000
0000
0010
0000
0000
0000
0000
0000
0000
0000
0000
0000
0100
0000
0000
0000
0000
0000
0000
0000
0000
0000
1000
0000
0000
0000
0000
0000
0000
0000
0000
0000
0001
0000
0000
0000
0000
0000
0100
0000
0000
0000
0000
0000
0010
0000
0000
0000
0000
0000
0000
0000
0000
0000
0000
0000
1000
0000
0000
0000
0000
0000
0000
0000
0000
0000
0000
0000
0000
0000
0000
0000
0000
0000
0000
0000
0000
0000
0000
0000
0000
0000
0000
0000
0000
0000
0000
0000
0000
0000
0000
0000
0010
0000
0000
0000
0000
0000
0000
0000
0000
0000
0000
0000
1000
0000
0000
0000
0000
0000
0000
0000
0000
0000
0000
0000
0000
0000
0000
0000
0000
0000
0000
0000
0000
0000
0000
0000
0000
0000
0000
0000
0000
0000
0000
0000
0000
0000
0000
0000
,
0001
0000
0001
0000
0000
0000
0010
0000
0001
0000
0100
0010
0100
0002
0000
0000
,
1003
0000
0000
1000
0000
0000
0010
0000
0000
0000
0010
0000
0000
0200
0000
0000
,
0301
0000
0001
0000
0000
0000
1000
0000
0100
0000
0010
0100
0010
0002
0000
0000
,
1003
0000
0000
0010
0000
0000
1000
0000
0000
0000
0001
0000
0011
0000
0001
0000
,
1000
0000
1000
0000
0000
0000
0010
0000
1000
0000
0100
0010
0100
2000
0000
0000
,
3001
0000
0000
0100
0000
0000
0001
0000
0000
0000
0100
0000
0000
0020
0000
0000
,
1030
0000
0001
0010
0000
0000
1000
0010
0000
0000
0001
0010
0000
0000
1000
0010
,
0100
0000
0000
0100
0001
0000
0000
0001
1000
0000
1000
0000
0000
0001
0000
1000
,
0100
0000
0010
0000
0100
0000
1000
0000
0001
0000
0010
0001
0010
0200
0000
0000
,
1300
0001
1000
0001
0100
0001
0100
0001
0010
0000
0100
0000
0000
2000
0000
0000
,
3001
0000
0100
0000
0010
0000
0100
0000
0001
0000
1000
0100
1000
0001
0000
0001
,
0100
0000
0000
0000
0100
0010
0100
0000
0010
1000
0010
0000
0010
0100
0001
0000
,
1000
0000
1000
0000
0000
0000
0100
0000
1000
0000
0010
0100
0010
1000
0000
0000
,
0001
0000
0000
0010
0000
0000
0100
0000
0000
0000
1000
0000
0000
0002
0000
0000
,
0103
0000
0010
0000
0110
0000
1000
0000
1001
0000
0001
0000
0010
0100
1000
0000
,
0001
0000
0000
0001
0100
0000
0000
0100
0010
0000
1000
0010
0000
0100
0000
0001
,
0020
0000
0000
0000
,
0000
0000
0000
0000
,
0031
0001
1000
1000
,
0010
0000
1000
0000
0010
0100
0001
1000
,
0100
1000
0100
0010
,
0001
1000
0001
0010
,
0100
0100
0100
0100
,
0000
0000
2002
0000
0000
0000
0000
0003
,
3001
0000
0001
0000
1000
0010
1000
0010
0100
0000
0001
0000
0000
0100
0000
0001
,
1000
0000
0100
0000
0000
1000
0000
0100
0010
0000
0010
0000
0000
0001
0000
0010
,
0001
0000
1000
0000
0001
0010
0001
0010
0100
0000
1000
0000
0000
0010
0000
1000
,
0010
0000
0100
0000
0000
0001
0000
1000
0001
0000
0010
0000
0110
0000
0001
0000
,
1000
0000
1000
0000
0010
0100
0010
0100
0001
0000
0001
0000
1000
0100
1000
0100
,
0010
0000
0010
0000
0001
0010
0001
0010
0100
0000
0100
0000
1000
0001
1000
0001
,
0100
0000
0100
0000
0010
1000
0010
1000
0001
0000
0001
0000
0010
0100
0010
0100
,
0001
0000
0100
0000
1000
0000
0000
0002
0000
0000
0000
0000
0000
0000
0000
0000
,
1003
0000
0100
0000
1100
0000
0000
0002
0000
0000
0103
0000
0101
0000
0000
2000
,
0000
0000
3010
0000
1010
0000
0000
0002
0000
0000
0013
0000
0110
0000
0000
0000
,
1000
0000
0001
0000
0101
0000
0000
2000
0000
0000
3100
0000
1100
0000
0000
0002
,
0000
0000
0013
0000
0011
0000
0000
2000
0000
0000
3100
0000
0110
0000
0010
0000
,
0001
0000
1000
0000
1010
0000
0000
0020
0000
0000
0130
0000
0101
0000
0000
0002
,
0000
0000
1003
0000
0100
1000
0100
0000
0010
0001
0010
0000
0200
0000
0300
2000
,
0000
0000
3001
0000
0011
0000
0000
0020
0000
0000
0130
0000
1100
0000
0000
0000
,
1000
0001
1000
0010
0000
0100
0010
0100
0001
0100
0001
1000
0100
0010
0001
1000
,
0100
0000
1000
0000
0001
0000
1000
0010
1000
0000
0010
0000
0100
0000
0001
1000
,
0001
0000
0010
0000
0100
0000
1000
0001
1000
0000
0001
0000
0100
0000
0000
0000
,
0001
0000
1000
0000
0001
0000
0100
0010
0100
0000
0010
0000
1000
0000
0001
0010
,
0001
0000
1000
0000
0010
0000
0100
0001
0100
0000
0001
0000
1000
0000
1000
0000
,
0000
0000
0001
0000
1000
0000
0100
1000
0100
0000
0010
0000
0001
0000
1000
0001
,
1000
0000
0010
0000
0100
0000
0001
0100
0001
0000
1000
0000
0100
0000
0000
0000
,
1000
0000
0001
0000
1000
0000
0010
1000
0010
0000
0100
0000
0001
0000
0010
0001
,
0010
0000
0000
0000
0100
0000
0000
0000
1000
0001
1000
0001
1000
0001
0100
0000
,
0010
0000
1000
0000
0010
0000
0000
0010
0100
0000
0001
0000
1000
0000
0001
1000
,
0001
0000
0010
0000
0100
0000
0000
0100
1000
0000
0001
0000
1000
0000
0000
1000
,
0100
0000
1000
0000
0001
0000
0000
0100
0010
0000
1000
0000
0010
0000
0000
0010
,
0100
0000
0001
0000
1000
0000
0000
1000
0100
0000
1000
0000
0001
0000
0001
0000
,
1000
0010
1000
0001
1000
0010
0100
0001
,
1000
0100
1000
0001
1000
0100
0010
0001
,
1000
0010
0110
1000
0001
0010
0110
0001
,
1000
0100
1100
0001
0100
0001
0201
0000
,
0300
0000
0000
0000
;

//---------------dance-single - ----------------
#NOTES:
     dance-single:
     :
     Medium:
     6:
     0.390541,0.533422,0.191699,0.075012,0.137523,328.000000,305.000000,23.000000,9.000000,0.000000,0.000000,0.390541,0.533422,0.191699,0.075012,0.137523,328.000000,305.000000,23.000000,9.000000,0.000000,0.000000:
0000
0000
0000
0000
,
0000
0000
0000
0000
,
0000
0000
0000
0000
,
0000
0000
0000
0000
,
1000
0001
0000
0100
0000
0001
0000
0001
,
1000
0000
0000
0001
0000
0000
0100
0000
0000
0000
0010
0000
0000
1000
0000
0000
,
0001
1000
0000
0100
0020
0000
0000
0000
,
0000
0000
0000
0030
0110
0000
1001
0000
,
1000
0010
0000
0100
0000
0001
0000
1000
,
0001
0000
0000
0010
0000
0000
0100
0000
0000
0000
0100
0000
0000
1000
0000
0000
,
0001
0010
0000
0100
0000
1000
0000
0001
,
1000
0000
0000
0010
0000
0000
0100
0000
0000
0000
0100
0000
0000
0001
0000
0000
,
1000
0100
0000
0100
0000
0010
0000
0010
,
0001
0000
0000
1000
0000
0000
0010
0000
0000
0000
0010
0000
0000
1000
0000
0000
,
0001
0100
0000
0100
0000
0010
0000
0010
,
1000
0101
1100
0011
,
1000
0001
1000
0100
1000
0001
0001
0000
,
1000
0001
1000
0001
1000
0001
1000
0001
0100
0000
0001
0000
0100
0000
0000
0000
,
0001
1000
0001
0100
0001
1000
1000
0000
,
0100
0000
0100
0000
0010
0000
0000
0000
0001
0000
0001
0000
1000
0001
0000
0000
,
1000
0100
1000
0001
1000
0010
0010
0000
,
0100
0000
0001
0000
0010
0000
0001
0000
0000
0000
1000
0000
0000
0010
0000
0000
,
0100
0100
0001
0000
1010
0000
0011
0000
,
1100
0000
0000
1000
0001
0000
0000
0001
0100
0000
0100
0000
0000
0010
0000
1000
,
0002
0000
0000
0000
,
0000
0000
0000
0000
,
1003
0001
1000
0001
,
0100
0001
0100
0010
,
2000
0000
0000
0000
,
0000
0000
0000
0000
,
3001
0001
1000
1000
,
0000
0220
0000
0330
,
0001
0000
0001
1000
0100
0000
0010
0001
,
1000
0000
0010
0100
0001
0000
0100
0010
,
1000
0000
1000
0001
0100
0000
0010
1000
,
0001
0000
0010
0100
1000
0000
0001
0001
,
1000
0000
1000
0001
0100
0000
0010
1000
,
0001
0000
0010
0100
1000
0000
0100
0010
,
0001
0000
0001
1000
0100
0000
0010
0001
,
1000
0000
0000
0000
0010
0000
0000
0200
0000
0000
0000
0000
0000
0000
0000
0000
,
0301
0000
0001
0000
0000
0000
0000
1000
0000
0000
1000
0000
0000
0000
0000
0100
,
0000
0000
0100
0000
0000
0000
0000
0010
0000
0000
0010
0000
0001
0000
0000
0000
,
1000
0000
1000
0000
0000
0000
0000
0010
0000
0000
0010
0000
0000
0000
0000
0100
,
0000
0000
0100
0000
0000
0000
0000
0001
0000
0000
0001
0000
0010
0000
0100
0000
,
1000
0000
0001
0000
0000
0000
0000
0001
0000
0000
0010
0000
0000
0000
0000
0010
,
0000
0000
0100
0000
1000
0000
1000
0000
0001
0000
0001
0000
0200
0000
0300
0010
,
0000
0000
1000
0000
0000
0000
0000
1000
0000
0000
0001
0000
0000
0000
0000
0000
,
0010
0001
0010
0000
0001
1000
0001
0000
1000
0010
1000
0000
0010
0100
0010
0000
,
0100
0101
0001
0101
,
1000
1100
0100
0110
,
1000
1100
1000
1100
,
0001
0000
0101
0000
0100
0000
0110
0010
,
0000
1000
1010
0001
,
0011
0010
0110
1000
,
1100
1000
1010
0001
,
0101
0100
0200
0000
,
0310
0000
1000
0010
1000
0000
0001
0010
,
0001
0000
1000
0100
1000
0000
0001
0100
,
0010
0000
1000
0010
0100
0000
0001
1000
,
0100
0000
0010
0001
1000
0000
0100
0100
,
1000
0001
0010
0001
1000
0001
0010
0100
,
1000
0010
0100
0001
1000
0010
0100
0010
,
1000
1000
0010
1000
0001
0001
0010
0001
,
1000
1000
0100
1000
0001
0001
0200
0000
,
0300
0000
0000
0000
;

//---------------dance-single - ----------------
#NOTES:
     dance-single:
     :
     Easy:
     4:
     0.269092,0.426738,0.275046,0.075012,0.020837,226.000000,193.000000,33.000000,9.000000,0.000000,0.000000,0.269092,0.426738,0.275046,0.075012,0.020837,226.000000,193.000000,33.000000,9.000000,0.000000,0.000000:
0000
0000
0000
0000
,
0000
0000
0000
0000
,
0000
0000
0000
0000
,
0000
0000
0000
0000
,
1000
0001
0000
0100
0000
0000
0000
0000
,
0001
0000
0000
0001
0000
0000
0010
0000
0000
0000
0000
0000
0000
0000
0000
0000
,
0001
1000
0000
0200
0000
0000
0000
0000
,
0000
0000
0000
0300
1000
0000
1000
0000
,
0001
1000
0000
0010
0000
0000
0000
0000
,
1000
0000
0000
1000
0000
0000
0100
0000
0000
0000
0000
0000
0000
0000
0000
0000
,
1000
0001
0000
0010
0000
0000
0000
0000
,
0001
0000
0000
0001
0000
0000
0100
0000
0000
0000
0000
0000
0110
0000
0000
0000
,
1000
0010
0000
0100
0000
0000
0000
0000
,
0001
0000
0000
1000
0000
0000
1000
0000
0000
0000
0000
0000
0000
0000
0000
0000
,
0001
0010
0000
0100
0000
0000
0000
0000
,
1000
1000
0010
0100
,
0001
0100
0000
0010
0000
0000
0000
0000
,
1000
0001
1000
0001
1000
0000
0000
0000
,
1000
0100
0000
0010
0000
0000
0000
0000
,
0001
1000
0001
0000
1000
0001
1000
0000
,
0001
0100
0000
0010
0000
0000
0000
0000
,
1000
0000
0000
0001
0000
0000
0001
0000
0000
0000
0000
0000
0000
0000
0000
0000
,
1000
0100
1000
0000
0100
0000
0010
0000
,
0001
0001
1000
1000
,
0020
0000
0000
0000
,
0000
0000
0000
0000
,
0130
0000
0100
0000
,
0100
0001
1000
0100
,
0020
0000
0000
0000
,
0000
0000
0000
0000
,
0000
0000
0000
0000
,
0030
2002
0000
0000
,
3003
0011
0000
1100
,
0000
0011
0000
1100
,
0000
0101
0000
1010
,
0000
0101
0000
1010
,
0001
1001
0000
1010
,
0000
1001
0000
0011
,
1000
1001
0000
1010
,
0000
1001
0002
0000
,
1003
1100
0000
0101
,
0000
1100
0000
0101
,
0000
1010
0000
0011
,
0000
1010
0000
0011
,
0001
0101
0000
1100
,
0000
0000
1000
0010
1000
0001
0010
0000
,
0000
0011
0000
0101
,
1000
0100
1000
0000
0001
0100
0001
1000
,
0001
0010
0001
0010
,
0100
1000
0100
1000
,
0010
1000
0010
1000
,
0001
0000
0100
0000
0001
0000
0100
0100
,
0000
0110
0100
0001
,
1000
0100
1000
0100
,
0010
0001
0010
0001
,
1100
1100
2200
0300
,
3001
0001
0100
0100
,
0010
0010
1000
1000
,
0001
0001
0010
0010
,
0100
0000
0100
0000
1000
0000
0001
0001
,
0100
0010
1000
0001
,
0100
0010
1000
0001
,
1000
0010
1000
0010
0100
0001
0100
0001
,
1000
0100
1000
0100
0010
0001
2000
0000
,
3000
0000
0000
0000
;

//---------------dance-single - ----------------
#NOTES:
     dance-single:
     :
     Beginner:
     1:
     0.080966,0.133356,0.000000,0.041674,0.000000,68.000000,68.000000,0.000000,5.000000,0.000000,0.000000,0.080966,0.133356,0.000000,0.041674,0.000000,68.000000,68.000000,0.000000,5.000000,0.000000,0.000000:
// measure 0
0000
0000
0000
0000
,  // measure 1
0000
0000
0000
0000
,  // measure 2
0000
0000
0000
0000
,  // measure 3
0000
0000
0000
0000
,  // measure 4
0001
0000
0000
0000
,  // measure 5
1000
0000
0000
0000
,  // measure 6
0001
0000
0000
0000
,  // measure 7
0000
0000
0000
0000
,  // measure 8
1000
0000
1000
0000
,  // measure 9
1000
0000
0000
0000
,  // measure 10
0001
0000
0001
0000
,  // measure 11
0001
0000
0000
0000
,  // measure 12
0100
0000
0100
0000
,  // measure 13
0100
0000
0000
0000
,  // measure 14
0010
0000
0010
0000
,  // measure 15
0010
0000
0000
0000
,  // measure 16
1000
0000
0000
0000
,  // measure 17
0001
0000
0001
0000
,  // measure 18
0001
0000
0000
0000
,  // measure 19
1000
0000
1000
0000
,  // measure 20
1000
0000
0000
0000
,  // measure 21
0100
0000
0100
0000
,  // measure 22
0100
0000
0000
0000
,  // measure 23
0010
0000
0010
0000
,  // measure 24
0020
0000
0000
0000
,  // measure 25
0030
0000
0000
0000
,  // measure 26
0020
0000
0000
0000
,  // measure 27
0030
0000
0000
0000
,  // measure 28
0002
0000
0000
0000
,  // measure 29
0000
0000
0000
0000
,  // measure 30
0000
0000
0000
0000
,  // measure 31
0000
2000
0000
3003
,  // measure 32
0001
0000
0000
0000
,  // measure 33
1000
0000
0000
0000
,  // measure 34
0100
0000
0000
0000
,  // measure 35
0010
0000
0000
0000
,  // measure 36
1000
0000
0000
0000
,  // measure 37
0001
0000
0000
0000
,  // measure 38
0100
0000
0000
0000
,  // measure 39
0010
0000
0000
0000
,  // measure 40
1000
0000
1000
0000
,  // measure 41
1000
0000
1000
0000
,  // measure 42
0001
0000
0001
0000
,  // measure 43
0001
0000
0001
0000
,  // measure 44
1000
0000
1000
0000
,  // measure 45
1000
0000
1000
0000
,  // measure 46
0001
0000
0001
0000
,  // measure 47
0001
0000
0001
0000
,  // measure 48
0010
0000
0000
0000
,  // measure 49
0000
0000
0000
0000
,  // measure 50
0100
0000
0000
0000
,  // measure 51
0000
0000
0000
0000
,  // measure 52
1000
0000
0000
0000
,  // measure 53
0000
0000
0000
0000
,  // measure 54
0001
0000
0000
0000
,  // measure 55
0000
0000
0000
0000
,  // measure 56
0100
0000
0000
0000
,  // measure 57
0001
0000
0000
0000
,  // measure 58
1000
0000
0000
0000
,  // measure 59
0010
0000
0000
0000
,  // measure 60
0100
0000
0000
0000
,  // measure 61
0001
0000
0000
0000
,  // measure 62
1000
0000
0000
0000
,  // measure 63
0100
0000
0000
0020
,  // measure 64
0030
0000
0000
0000
;
