#TITLE:quaver;
#SUBTITLE:(from TRUE BLUE);
#ARTIST:dj TAKA;
#TITLETRANSLIT:;
#SUBTITLETRANSLIT:;
#ARTISTTRANSLIT:;
#GENRE:;
#CREDIT:;
#BANNER:quaver-banner.png;
#BACKGROUND:quaver-bg.png;
#LYRICSPATH:;
#CDTITLE:;
#MUSIC:[ROUND A] - quaver (from TRUE BLUE).ogg;
#OFFSET:0.000000;
#SAMPLESTART:56.682991;
#SAMPLELENGTH:13.043480;
#SELECTABLE:YES;
#BPMS:0.000000=182.000000
,172.000000=184.000000
,248.000000=186.000000
;
#STOPS:
;
#BGCHANGES:;
#KEYSOUNDS:;
#ATTACKS:;

//---------------dance-single - ----------------
#NOTES:
     dance-single:
     :
     Medium:
     7:
     0.552341,0.611876,0.588560,0.099602,0.000000,427.000000,362.000000,65.000000,11.000000,0.000000,0.000000,0.552341,0.611876,0.588560,0.099602,0.000000,427.000000,362.000000,65.000000,11.000000,0.000000,0.000000:
0000
0000
0000
0000
,
0000
0000
0000
0000
,
0000
0000
0000
0000
,
0000
0000
0000
0000
,
1000
0100
1000
0000
0001
0010
0001
0000
,
1000
0100
1000
0100
0010
0001
0010
0000
,
0100
1000
0100
0000
0010
0100
0010
0000
,
0001
0100
0010
1000
,
0200
0000
0000
0000
0000
0000
0000
0300
,
1100
1010
0110
0101
,
0011
0101
0110
1010
,
1000
0100
1000
0000
0001
0100
0001
0000
,
0010
0100
0010
0000
1000
0100
1000
0000
,
0001
0100
0010
0100
,
0001
0010
0001
0010
0100
1000
0100
0000
,
1000
0010
0100
0010
,
1000
0100
1000
0100
0010
0001
0010
0000
,
1100
1010
1100
1001
,
0101
0011
1001
0101
,
0001
0010
0001
0000
1000
0100
1000
0000
,
0010
0100
0010
0000
0100
0001
0100
0000
,
0010
1000
0100
0010
,
0001
0010
0001
0100
0010
1000
0010
0000
,
0100
0010
1000
0100
,
0010
0001
0010
0100
1000
0100
1000
0000
,
0020
0000
0000
0000
,
2030
0000
3001
0100
,
0020
0000
0000
0000
1030
0100
1000
0000
,
0200
0000
0000
0000
1300
0010
1000
0000
,
0002
0000
0000
0000
0100
0000
0100
0003
,
0010
0001
0010
0000
0100
1000
0100
0000
,
2000
0000
0000
0000
0010
0000
0010
3000
,
0200
0000
0000
0300
0001
0000
1000
0000
,
0020
0000
0000
0000
1000
0000
1000
0030
,
0100
0010
1000
0100
,
0010
0010
0001
0001
,
1000
0100
1000
0000
0001
0010
0001
0000
,
0100
0100
0001
0001
,
1100
0000
1000
1000
,
1001
0000
0010
0010
,
1010
0000
0100
0100
,
1001
0000
0000
1001
0000
0000
1001
0000
,
0010
0010
0000
0100
0100
0000
0001
0000
,
1001
0101
1001
0011
,
1001
1100
1010
1001
,
1000
0100
1000
0000
0001
0100
0001
0000
,
0010
0010
0010
0010
,
0001
0010
0001
0010
0100
1000
0100
0000
,
1000
0100
1000
0010
0100
0001
0100
0000
,
0001
0001
1000
1000
,
0010
0010
0100
0010
,
1010
1100
0110
0011
,
0101
0011
1001
1100
,
0010
0001
0010
0000
0100
1000
0100
0000
,
0010
0001
0010
0100
1000
0100
1000
0000
,
0010
1000
0010
0100
,
0001
0010
0001
0010
0100
1000
0100
0000
,
0010
0001
0100
0010
,
1000
0100
1000
0010
0100
0001
0100
0000
,
0010
1000
0010
1000
0001
0100
0010
0000
,
1000
0100
0010
0100
1000
0100
1000
0000
,
0010
1000
0010
1000
0010
1000
0010
0000
,
1000
1010
0010
1010
,
0001
0101
0100
0101
,
0010
1000
0010
0000
0100
0001
0100
0000
,
0010
1000
0010
0100
0001
0100
0001
0000
,
1000
0010
0100
0001
,
1000
0010
1000
0010
1000
0010
1000
0000
,
0001
0100
0010
1000
,
0001
0010
0100
0010
,
1100
1010
1100
1001
,
0101
0011
0101
1001
,
0010
0100
0010
0100
0010
0100
0010
0000
,
1000
0100
1000
0000
0001
0100
0001
0000
,
1001
1001
0110
1001
,
1000
0100
1000
0100
0010
0001
0010
0000
,
0110
0110
1001
1001
,
0101
1010
1100
1001
,
1000
1010
0001
0101
,
2002
0000
3003
0000
;

//---------------dance-single - ----------------
#NOTES:
     dance-single:
     :
     Hard:
     9:
     0.694630,0.643794,0.162986,0.090548,0.000000,537.000000,519.000000,18.000000,10.000000,0.000000,0.000000,0.694630,0.643794,0.162986,0.090548,0.000000,537.000000,519.000000,18.000000,10.000000,0.000000,0.000000:
// measure 0
0000
0000
0000
0000
,  // measure 1
0000
0000
0000
0000
,  // measure 2
0000
0000
0000
0000
,  // measure 3
0000
0000
0000
0000
,  // measure 4
1000
0100
0010
0010
0001
0010
0100
0100
,  // measure 5
1000
0010
0100
0001
0010
0100
1000
0010
,  // measure 6
2000
0000
3002
0000
,  // measure 7
0023
0000
0000
0000
0200
0000
0000
0330
,  // measure 8
2002
0000
0000
0000
0000
0000
0000
3003
,  // measure 9
1000
1000
0001
0001
0010
0010
0100
0100
,  // measure 10
1000
1000
0010
0010
0100
0100
0001
0001
,  // measure 11
1000
0100
1000
0100
0010
0001
0010
0001
,  // measure 12
0100
0001
0010
0001
0100
1000
0100
0010
,  // measure 13
1000
0100
0010
0010
0001
0100
0010
0010
,  // measure 14
1000
0010
0100
0001
0010
0100
1000
0100
,  // measure 15
1000
0100
0010
0010
0001
0100
0010
0010
,  // measure 16
1000
0100
0010
0100
1000
0100
0001
0100
,  // measure 17
1000
1000
0001
0001
0100
0100
0010
0010
,  // measure 18
1000
1000
0100
0100
0010
0010
0100
0100
,  // measure 19
1000
0010
0001
0010
1000
0100
0001
0100
,  // measure 20
1000
0010
0100
0100
0001
0010
0100
0100
,  // measure 21
1000
0010
1000
0010
0100
0001
0100
0001
,  // measure 22
0010
1000
0010
0001
0100
1000
0100
0001
,  // measure 23
0010
0001
0100
0100
0010
1000
0010
0010
,  // measure 24
0100
0001
0010
0001
1000
0001
0010
0100
,  // measure 25
2000
0000
0100
0100
0100
0100
0100
3100
,  // measure 26
0200
0000
1300
0100
,  // measure 27
1000
0100
1000
0000
0001
0100
0001
0000
,  // measure 28
0200
0000
0000
0000
0310
0100
0010
0000
,  // measure 29
1001
0000
0100
0000
0100
0010
0100
0000
,  // measure 30
1001
0000
0100
0000
0100
1000
0100
1000
,  // measure 31
0010
0000
0100
0000
0001
0100
0001
0000
,  // measure 32
0100
1000
0100
0010
1000
0000
1000
0000
,  // measure 33
2000
0000
0000
0000
0100
0000
0100
3000
,  // measure 34
0010
0001
0100
0010
,  // measure 35
0100
0001
0100
0001
0100
0000
0010
0000
,  // measure 36
1000
0100
0001
0100
1000
0100
0001
0100
,  // measure 37
1000
1000
0001
0001
,  // measure 38
0100
0010
1000
0010
,  // measure 39
1000
0100
1000
0100
0010
0000
0001
0000
,  // measure 40
0100
1000
0100
0001
0100
1000
0100
0010
,  // measure 41
1001
0000
0100
0100
0000
1000
1000
0000
,  // measure 42
1000
1100
0000
0100
0110
0000
0110
0000
,  // measure 43
0001
0001
0100
0100
0010
0010
1000
1000
,  // measure 44
0001
0001
0100
0100
0010
0010
1000
1000
,  // measure 45
0100
0001
0100
1000
0010
0001
1000
0100
,  // measure 46
0010
0100
0001
0001
1000
0100
0010
0010
,  // measure 47
0001
0100
1000
0001
0010
1000
0010
0001
,  // measure 48
0010
1000
0100
1000
0010
1000
0100
1000
,  // measure 49
0001
0010
0001
0001
0100
0010
1000
1000
,  // measure 50
0001
0010
0001
0001
1000
0010
0100
0100
,  // measure 51
0001
0001
0010
0010
0001
0001
0100
0100
,  // measure 52
0010
0010
1000
1000
0100
0100
0010
0010
,  // measure 53
0001
0010
0001
0100
0010
1000
0100
0010
,  // measure 54
0001
0010
0001
0100
0010
1000
0100
1000
,  // measure 55
0010
0100
0001
0001
1000
0100
0010
0010
,  // measure 56
0001
0100
1000
0100
0001
0100
1000
0100
,  // measure 57
0001
0010
0100
0100
1000
0010
0100
0100
,  // measure 58
0001
0010
0001
0001
1000
0010
0100
0100
,  // measure 59
0101
0011
1100
1010
,  // measure 60
1100
0110
0011
1001
,  // measure 61
0001
0010
0001
0010
0100
1000
0100
1000
,  // measure 62
0010
0001
0010
0100
0010
0001
0010
0100
,  // measure 63
0001
1000
0100
0010
0100
1000
0100
0010
,  // measure 64
0001
0010
0100
1000
0001
0010
0100
1000
,  // measure 65
0010
0001
0010
1000
0100
0001
0100
1000
,  // measure 66
0001
0100
0001
0100
0010
1000
0010
1000
,  // measure 67
0001
0010
0100
1000
0001
0010
0100
1000
,  // measure 68
0100
1000
0010
0100
0001
0100
0010
0100
,  // measure 69
0001
0100
0001
0100
0010
1000
0010
1000
,  // measure 70
0100
0100
1000
1000
0010
0010
0100
0100
,  // measure 71
0001
0001
0010
0010
0001
0001
0100
0100
,  // measure 72
0010
1000
0010
0001
1000
0100
0001
0100
,  // measure 73
0010
1000
0100
0100
0010
0001
0100
0100
,  // measure 74
0001
0100
0010
0100
0001
1000
0010
0100
,  // measure 75
0001
0010
0001
0010
0100
1000
0100
1000
,  // measure 76
0010
0100
0101
1010
,  // measure 77
0001
0100
1000
0100
0001
0010
0001
0010
,  // measure 78
0001
0100
0001
0100
0001
0000
0100
0000
,  // measure 79
1010
0000
0000
0000
;

//---------------dance-single - ----------------
#NOTES:
     dance-single:
     :
     Easy:
     6:
     0.421694,0.647869,0.226369,0.126767,0.000000,326.000000,301.000000,25.000000,14.000000,0.000000,0.000000,0.421694,0.647869,0.226369,0.126767,0.000000,326.000000,301.000000,25.000000,14.000000,0.000000,0.000000:
0000
0000
0000
0000
,
0000
0000
0000
0000
,
0000
0000
0000
0000
,
0000
0000
0000
0000
,
1000
0100
1000
0000
0010
0100
0010
0000
,
1000
1000
0001
0001
,
0100
0001
0100
0000
0010
1000
0010
0000
,
1000
1000
0010
0010
,
0200
0000
0000
0000
0000
0000
0000
0300
,
0001
0001
0100
0100
,
0010
0010
1000
1000
,
0100
1000
0100
0000
0010
0001
0010
0000
,
0100
0100
1000
1000
,
0110
0000
0110
0000
,
0001
0010
0001
0000
1000
0100
1000
0000
,
1001
0000
1001
0000
,
1000
0100
1000
0000
0001
0100
0001
0000
,
0100
0100
0010
0010
,
1000
1000
0100
0100
,
0010
0001
0010
0000
0100
1000
0100
0000
,
0010
0001
0010
0000
0100
0010
0100
0000
,
1000
0001
0100
0010
,
1000
1000
0010
0010
,
0100
0001
0100
0010
,
1000
1000
0001
0001
,
0200
0000
0000
0000
0000
0000
0000
0300
,
0020
0000
0000
0000
0000
0000
0000
0030
,
2000
0000
0000
0000
0000
0000
0000
3000
,
0002
0000
2003
0000
,
3020
0000
0130
0100
,
0200
0000
0000
0000
0000
0000
0000
0300
,
0001
0001
1000
1000
,
0010
0010
0010
0010
,
0200
0000
0000
0000
0000
0000
0000
0300
,
0000
0001
0010
0001
,
1000
1000
0100
0100
,
0010
0001
1000
0100
,
2000
0000
3010
0100
,
0000
0001
0100
0001
,
1000
1000
0010
0010
,
0110
0000
0000
0000
,
1000
0000
0000
1000
0000
0000
1000
0000
,
0000
0010
0000
0000
0010
0000
0010
0000
,
0100
0100
0001
0001
,
0010
0010
0100
0100
,
1000
0100
1000
0000
0010
1000
0010
0000
,
0100
0001
0100
0000
0001
0010
0001
0000
,
0100
0100
0010
0010
,
1000
0100
1000
0000
0010
0100
0010
0000
,
1000
1001
0001
1001
,
0100
0110
0010
0110
,
1000
1000
0100
0100
,
0010
0010
0100
0100
,
0010
0001
0010
0000
0100
0010
0100
0000
,
1000
0100
1000
0000
0001
0010
0001
0000
,
1000
1100
0001
0011
,
0001
0010
0001
0000
1000
0010
1000
0000
,
0001
0001
0100
0100
,
0010
0010
0100
0100
,
0001
0001
1000
1000
,
0010
0100
0001
1000
,
2002
0000
0000
0000
0000
0000
0000
3003
,
1000
0010
0100
0001
,
0100
1000
0100
0001
,
0010
0100
0010
0000
0100
1000
0100
0000
,
0010
0001
0010
0000
0100
0010
0100
0000
,
0010
0001
0010
0000
0100
1000
0100
0000
,
0010
0010
0100
0100
,
0010
0001
0010
0000
0001
0100
0001
0000
,
0100
0010
1000
0100
,
1000
1000
0010
0010
,
0100
0100
0001
0001
,
1000
0100
1000
0000
0001
1000
0001
0000
,
0100
0010
0100
0000
0001
0100
0001
0000
,
1100
1100
1010
1010
,
1000
0100
1000
0000
0010
0100
0010
0000
,
1100
1100
1001
1001
,
0101
0101
1001
1001
,
2002
0000
0000
0000
,
0000
0000
3003
0000
;

//---------------dance-single - ----------------
#NOTES:
     dance-single:
     :
     Beginner:
     3:
     0.183683,0.250364,0.289753,0.289753,0.000000,142.000000,110.000000,32.000000,32.000000,0.000000,0.000000,0.183683,0.250364,0.289753,0.289753,0.000000,142.000000,110.000000,32.000000,32.000000,0.000000,0.000000:
0000
0000
0000
0000
,
0000
0000
0000
0000
,
0000
0000
0000
0000
,
0000
0000
0000
0000
,
1000
0000
0100
0000
,
1000
0000
0010
0000
,
0100
0000
0010
0000
,
1001
0000
1001
0000
,
2000
0000
0000
0000
0000
0000
0000
3000
,
1001
0000
0000
0000
,
1001
0000
0000
0000
,
0100
0000
0010
0000
,
1000
0000
0100
0000
,
1100
0000
1000
0000
,
0001
0000
0001
0000
,
0101
0000
0001
0000
,
0100
0000
0010
0000
,
1010
0000
0000
0000
,
1100
0000
0000
0000
,
0001
0000
0100
0000
,
0010
0000
1000
0000
,
0200
0000
0000
0000
0000
0000
0000
0300
,
1100
0000
0000
0000
,
0002
0000
0000
0000
0000
0000
0000
0003
,
0101
0000
0000
0000
,
0200
0000
0000
0000
0000
0000
0000
0300
,
0020
0000
0000
0000
0000
0000
0000
0030
,
2000
0000
0000
0000
0000
0000
0000
3000
,
0002
0000
0203
0000
,
0320
0000
1030
0000
,
0200
0000
0000
0000
0000
0000
0000
0300
,
1100
0000
0000
0000
,
1100
0000
0000
0000
,
2000
0000
0000
0000
0000
0000
0000
3000
,
0000
0001
0000
0000
,
0101
0000
0000
0000
,
0010
0000
0010
0000
,
0020
0000
0000
0000
0000
0000
0000
0030
,
0000
1000
0000
0000
,
1100
0000
0000
0000
,
1001
0000
0000
0000
,
1000
0000
0000
1000
0000
0000
1000
0000
,
0000
0001
0000
0000
0001
0000
0000
0000
,
0101
0000
0000
0000
,
1001
0000
0000
0000
,
1000
0000
1000
0000
,
0001
0000
0001
0000
,
0101
0000
0000
0000
,
0100
0000
0100
0000
,
1010
0000
0000
0000
,
1010
0000
0000
0000
,
0101
0000
0000
0000
,
0101
0000
0000
0000
,
0010
0000
1000
0000
,
0100
0000
1000
0000
,
2002
0000
0000
0000
0000
0000
0000
3003
,
0001
0000
0100
0000
,
0220
0000
0000
0000
0000
0000
0000
0330
,
0220
0000
0000
0000
0000
0000
0000
0330
,
2002
0000
0000
0000
0000
0000
0000
3003
,
0100
0000
0100
0000
,
2000
0000
0000
0000
0000
0000
0000
3000
,
1100
0000
0000
0000
,
1001
0000
0000
0000
,
1000
0000
0100
0000
,
1000
0000
0010
0000
,
0100
0000
0001
0000
,
0202
0000
0000
0000
0000
0000
0000
0303
,
0001
0000
1000
0000
,
0100
0000
0100
0000
,
2200
0000
0000
0000
0000
0000
0000
3300
,
2002
0000
0000
0000
0000
0000
0000
3003
,
0100
0000
0010
0000
,
0100
0000
0010
0000
,
0010
0000
0010
0000
,
2000
0000
0000
0000
0000
0000
0000
3000
,
0002
0000
0000
0000
0000
0000
0000
0003
,
0200
0000
0320
0000
,
2030
0000
0000
0000
0000
0000
0000
3000
,
1001
0000
0000
0000
;
