#TITLE:Ultra Thizz;
#SUBTITLE:;
#ARTIST:Rustie;
#TITLETRANSLIT:;
#SUBTITLETRANSLIT:;
#ARTISTTRANSLIT:;
#GENRE:;
#CREDIT:;
#BANNER:[ROUND A] -Ultra Thizz.png;
#BACKGROUND:[ROUND A] - Ultra Thizz-bg.png;
#LYRICSPATH:;
#CDTITLE:cdtitle.png;
#MUSIC:[ROUND A] - Ultra Thizz.ogg;
#OFFSET:-0.000000;
#SAMPLESTART:15.104591;
#SAMPLELENGTH:13.426573;
#SELECTABLE:YES;
#BPMS:0.000000=143.000000
;
#STOPS:
;
#BGCHANGES:;
#KEYSOUNDS:;
#ATTACKS:;

//---------------dance-single - xRGTMx-SH----------------
#NOTES:
     dance-single:
     xRGTMx-SH:
     Hard:
     8:
     0.536783,0.692978,0.624780,0.079197,0.532383,347.000000,71.000000,9.000000,0.000000,0.000000,0.000000,0.536783,0.692978,0.624780,0.079197,0.532383,347.000000,71.000000,9.000000,0.000000,0.000000,0.000000:
0000
0000
0000
0000
,
0000
0000
0000
0000
,
0000
0000
0000
0000
,
0000
0000
0000
0000
,
0000
0000
0000
0000
,
0010
0010
0010
0010
,
0100
0100
0100
0100
,
0001
0001
1000
1000
,
0001
0010
0001
1000
0100
1000
0001
0100
0010
1000
0000
0000
,
1010
0000
0000
0101
0000
0000
0011
0000
0000
1100
0000
0000
1001
0000
0000
1000
,
0001
0000
0000
0001
0000
0000
0100
0000
0000
0010
0000
0000
1000
0000
0001
0000
,
0011
0000
0000
1100
0000
0000
1010
0000
0000
0101
0000
0000
1001
0000
0000
0001
,
1000
0000
0000
1000
0000
0000
0010
0000
0000
0100
0000
0000
1001
0000
0000
0000
,
1100
0000
0000
0011
0000
0000
0101
0000
0000
1010
0000
0000
1001
0000
0000
1000
,
0001
0000
0000
0001
0000
0000
0100
0000
0000
0010
0000
0000
1000
0000
0001
0000
,
0101
0000
0000
1010
0000
0000
1100
0000
0000
0011
0000
0000
2001
0000
0000
0000
,
0010
0000
0000
0010
0000
0000
0010
0000
0000
0010
0000
3000
0010
0000
1000
0000
,
0100
0000
0000
0010
0000
0000
0001
0000
1001
0000
0000
0000
1000
0000
0001
0100
,
0000
0010
1000
0010
1000
0000
0001
0000
1000
0000
0100
0000
0010
0000
0000
0010
,
0100
0000
0000
1000
0000
0000
0010
0000
1001
0000
0000
0000
1000
0001
1000
0000
,
0001
0100
0100
0100
0110
0000
1001
0000
,
0000
0000
0000
0100
0000
0000
1000
0000
0000
0010
0000
0000
1001
0000
0000
1000
,
0100
0000
0010
0001
0000
0010
0100
1000
0001
0000
0100
0000
0010
0000
0000
0010
,
0100
0000
0000
0001
0000
0000
0010
0000
0000
0100
0000
0000
1001
0000
0000
0000
,
1100
0000
0000
0101
0000
0000
2002
0000
0000
0000
0000
0000
0000
0000
0000
0000
,
0000
0000
0000
0000
,
0000
0000
0000
0000
,
3003
0000
0000
0001
1000
0000
1000
0000
0010
0000
0100
0000
0101
0000
0000
0001
,
1000
0100
0001
0100
1000
0001
0200
0000
,
0310
0000
0000
0010
0000
0000
0010
0000
0000
1010
0000
0000
0011
0000
1001
0000
,
1000
0000
0000
0001
0100
0000
0010
0000
1000
0001
0000
0000
0010
0000
0000
0000
,
0100
0000
0000
0010
0001
0000
1000
0000
0001
0100
0000
0000
0010
0000
0000
0010
,
1000
0000
0000
0001
0010
0000
0001
0000
1000
0010
0000
0010
0100
0000
0000
0000
,
0001
0000
0000
0001
0000
0000
1000
0100
0010
0000
0010
0000
1001
0000
0000
0000
,
0001
0000
0100
0000
1000
0000
0100
0000
0001
1000
0000
0000
1100
0000
0000
0000
,
0100
0000
0000
0010
0001
0000
0010
0000
0100
1000
0000
0000
0001
0000
0000
0001
,
0100
0000
0000
0010
1000
0000
0001
0000
0010
0100
0000
0100
1000
0000
0001
1000
,
0010
0000
0000
0010
0000
0000
0010
0000
0000
0010
0000
0000
0010
0000
0000
0010
,
0000
0000
0010
0000
0000
0010
0000
0000
0000
0000
0000
0000
1001
0000
0000
0000
,
1000
0000
0000
1000
0000
0000
1000
0000
0000
1000
0000
0000
1000
0000
0000
1000
,
0001
0000
0000
0001
0000
0000
0001
0000
0000
0001
0000
0000
0001
0000
0000
0001
,
0100
0000
0000
0100
0000
0000
0100
0000
0000
0100
0000
0000
0100
0000
0000
0100
,
0010
0000
0000
0010
0000
0000
0010
0000
0000
0010
0000
0000
0010
0000
0000
0010
,
1000
0001
1000
0001
,
0010
0100
0010
0100
,
1000
0001
0100
0010
,
1000
0010
1000
0001
0100
0001
1000
0100
0010
0001
0000
0000
,
0011
0000
0000
1100
0000
0000
1010
0000
0000
0101
0000
0000
1001
0000
0000
1000
,
0001
0000
0000
0001
0000
0000
0100
0000
0000
0010
0000
0000
1001
0000
1000
0000
,
1010
0000
0000
0101
0000
0000
0011
0000
0000
1100
0000
0000
1001
0000
0000
0001
,
1000
0000
0000
1000
0000
0000
0100
0000
0000
0010
0000
0000
1001
0000
0000
0000
,
0101
0000
0000
1010
0000
0000
1100
0000
0000
0011
0000
0000
1001
0000
0000
1000
,
0001
0000
0000
0001
0000
0000
0010
0000
0000
0100
0000
0000
1001
0000
1000
0000
,
1010
0000
0000
0101
0000
0000
0011
0000
0000
1100
0000
0000
1002
0000
0000
0000
,
0010
0000
0000
0010
0000
0000
0010
0000
0000
0010
0000
0000
0013
0000
0001
0000
,
0100
0000
0000
0010
0000
0000
1000
0000
1001
0000
0000
0001
0010
0000
0010
0001
,
0000
1000
0010
1000
0010
0000
0100
0000
0010
0000
1001
0000
0000
0001
1000
0000
,
0100
0000
0000
0010
0000
0000
0001
0000
1001
0000
0000
1000
0010
0000
0010
0000
,
0000
0100
0001
0100
0010
0000
0010
0000
0110
0000
0000
0000
1001
0000
0000
0000
,
0010
0000
0000
0001
0000
0000
0100
0000
1001
0000
0000
0000
1000
0000
0100
0000
,
0000
0010
0001
0000
0100
0001
0100
0001
1000
0000
1100
0000
0101
0000
0000
0000
,
0012
0000
0000
1003
0000
0000
2010
0000
0000
3001
0000
0000
0220
0000
0000
0000
,
0000
0000
0000
0000
,
0330
0000
0000
0000
;

//---------------dance-single - xRGTMx-SM----------------
#NOTES:
     dance-single:
     xRGTMx-SM:
     Medium:
     7:
     0.358274,0.443506,0.105597,0.008800,0.167195,272.000000,12.000000,1.000000,0.000000,0.000000,0.000000,0.358274,0.443506,0.105597,0.008800,0.167195,272.000000,12.000000,1.000000,0.000000,0.000000,0.000000:
0000
0000
0000
0000
,
0000
0000
0000
0000
,
0000
0000
0000
0000
,
0000
0000
0000
0000
,
0000
0000
0000
0000
,
0010
0010
0010
0010
,
0100
0100
0100
0100
,
0001
0001
1000
1000
,
0001
0000
0001
0010
0000
0010
0100
0000
0100
1000
0000
0000
,
0010
0000
0000
1000
0000
0000
0010
0000
0000
1000
0000
0000
0100
0000
0000
0000
,
0010
0000
0001
0000
1000
0000
0001
0001
,
0010
0000
0000
0001
0000
0000
0010
0000
0000
0001
0000
0000
0100
0000
0000
0000
,
0010
1000
0001
1001
,
0100
0000
0000
1000
0000
0000
0001
0000
0000
1000
0000
0000
0010
0000
0000
0000
,
0100
0000
0010
0000
1000
0000
0001
0001
,
0100
0000
0000
0001
0000
0000
1000
0000
0000
0001
0000
0000
0010
0000
0000
0000
,
0100
0000
0000
0100
0000
0000
0010
0001
,
1000
0000
0000
0010
0000
0000
0100
0000
0001
0000
0000
0000
1000
0000
0000
0100
,
0000
0010
0010
0000
0001
1000
0000
0000
,
0001
0000
0000
0010
0000
0000
0100
0000
1000
0000
0000
0000
0001
0000
0000
0100
,
0000
0010
0010
0000
0110
0000
1001
0000
,
0000
0000
0000
1000
0000
0000
0100
0000
0000
0010
0000
0000
0001
0000
0000
0000
,
1000
0000
0000
1000
0000
0000
0010
0000
0010
0000
1000
0000
0100
0000
0000
0000
,
0011
0000
0000
1010
0000
0000
1001
0000
,
0100
0000
0000
0100
0000
0000
0100
0000
0000
0000
0000
0000
0000
0000
0000
0000
,
0000
0000
0000
0000
,
0000
0000
0000
0000
,
0000
0000
0010
1000
0100
0000
1001
0000
,
0001
0100
1000
0100
0001
0100
0010
0000
,
1000
0000
0000
0001
0000
0000
1000
0000
0000
0001
0000
0000
0110
0000
0000
0000
,
1000
0010
0100
0001
1000
0001
0010
0000
,
0100
0010
0100
0010
0001
1000
0010
0000
,
0100
1000
0100
0001
1000
0001
0010
0000
,
0100
0000
0000
0100
0000
0000
0010
0000
0010
0000
0000
0000
1001
0000
0000
0000
,
1000
0010
1000
0010
0100
0001
1000
0000
,
0001
0010
1000
0010
0001
0100
0010
0000
,
0100
0001
0100
0001
1000
0100
0010
0010
,
0100
0000
0000
0100
0000
0000
0100
0000
,
0000
0100
0000
0000
0000
0000
0010
0000
,
0001
0000
0000
0001
0000
0000
0001
0000
,
1000
0000
0000
1000
0000
0000
1000
0000
,
0010
0000
0000
0010
0000
0000
0010
0000
,
0100
0000
0000
0100
0000
0000
0100
0000
,
0010
0010
1000
1000
,
0100
0100
0010
0010
,
0001
0001
1000
1000
,
0001
0000
0001
0100
0000
0100
0010
0000
0010
1000
0000
0000
,
0001
0000
0000
0010
0000
0000
0001
0000
0000
0010
0000
0000
0100
0000
0000
0000
,
0010
0000
0001
0000
1000
0000
1000
0001
,
1000
0000
0000
0010
0000
0000
1000
0000
0000
0010
0000
0000
0100
0000
0000
0000
,
0010
0000
1000
0000
0001
0000
1000
0001
,
1000
0000
0000
0100
0000
0000
0010
0000
0000
0001
0000
0000
0100
0000
0000
0000
,
0010
0000
0010
0000
0100
0000
0001
1000
,
0001
0000
0000
0010
0000
0000
0100
0000
0000
1000
0000
0000
0010
0000
0000
0000
,
0100
0000
0000
0100
0000
0000
0010
1000
,
0001
0000
0000
0010
0000
0000
0100
0000
0010
0000
0000
0000
0001
0000
1000
0000
,
0000
0010
0010
0100
0001
1001
0000
1000
,
0100
0000
0000
0010
0000
0000
0001
0000
1000
0000
0000
0000
0010
0000
0010
0000
,
0000
0100
0100
0001
1000
0000
0110
0000
,
0001
0000
0000
0010
0000
0000
0100
0000
1000
0000
0000
0000
0001
0000
0001
0000
,
0000
0010
0100
0100
0010
0100
0110
0000
,
0010
0000
0000
0001
0000
0000
1000
0000
0000
0010
0000
0000
0200
0000
0000
0000
,
0000
0000
0000
0000
,
0300
0000
0000
0000
;

//---------------dance-single - xRGTMx-SE----------------
#NOTES:
     dance-single:
     xRGTMx-SE:
     Easy:
     4:
     0.169709,0.221753,0.043999,0.008800,0.000000,129.000000,5.000000,1.000000,0.000000,0.000000,0.000000,0.169709,0.221753,0.043999,0.008800,0.000000,129.000000,5.000000,1.000000,0.000000,0.000000,0.000000:
0000
0000
0000
0000
,
0000
0000
0000
0000
,
0000
0000
0000
0000
,
0000
0000
0000
0000
,
0000
0000
0000
0000
,
0001
0000
0001
0000
,
1000
0000
1000
0000
,
0001
0000
1000
0000
,
0010
1000
0100
0010
,
0001
0000
0000
0001
0000
0000
0001
0000
,
0000
0000
0100
0100
,
1000
0000
0000
1000
0000
0000
1000
0000
,
0000
0010
0000
0010
,
0001
0000
0000
0001
0000
0000
0001
0000
,
0000
0000
0010
0010
,
1000
0000
0000
1000
0000
0000
1000
0000
,
0100
0000
0000
0010
,
0001
0000
0010
0100
,
1000
0000
0010
0000
,
1000
0010
0100
0000
,
0001
0000
0010
0010
,
0001
1000
0010
0010
,
0000
0100
0010
0000
,
1000
0000
0000
0001
0000
0000
0010
0000
,
0000
0000
0000
0000
,
0000
0000
0000
0000
,
0000
0000
0000
0000
,
0000
1001
0000
1000
,
0010
0010
0000
0100
,
0010
0000
0000
1001
,
0000
0001
1000
0100
,
0000
0010
0000
1001
,
0000
1000
0001
0100
,
0100
0000
0000
0010
0000
0000
0010
0000
,
0000
0010
0000
1001
,
0000
1000
0001
0010
,
0000
0100
0000
1001
,
0000
0000
0000
0000
,
0000
0000
0000
0000
,
0100
0000
0000
0000
,
0100
0000
0000
0000
,
0010
0000
0000
0000
,
0010
0000
0000
0000
,
1000
0000
1000
0000
,
0001
0000
0001
0000
,
1000
0000
0001
0000
,
0010
0001
0100
0010
,
1000
0000
0000
1000
0000
0000
1000
0000
,
0000
0000
0100
0100
,
0001
0000
0000
0001
0000
0000
0001
0000
,
0000
0010
0000
0010
,
1000
0000
0000
1000
0000
0000
1000
0000
,
0000
0000
0010
0010
,
0001
0000
0000
0001
0000
0000
0001
0000
,
0100
0000
0000
0010
,
1000
0000
0010
0100
,
0001
0000
0010
0000
,
0001
0010
0100
0000
,
1000
0000
0010
0010
,
1000
0001
0010
0010
,
0000
0100
0010
0000
,
0001
0000
0000
1000
0000
0000
0020
0000
,
0000
0000
0000
0000
,
0030
0000
0000
0000
;

//---------------dance-single - xRGTMx-SN----------------
#NOTES:
     dance-single:
     xRGTMx-SN:
     Beginner:
     2:
     0.090511,0.135846,0.000000,0.000000,0.000000,72.000000,0.000000,0.000000,0.000000,0.000000,0.000000,0.090511,0.135846,0.000000,0.000000,0.000000,72.000000,0.000000,0.000000,0.000000,0.000000,0.000000:
// measure 0
0000
0000
0000
0000
,  // measure 1
0000
0000
0000
0000
,  // measure 2
0000
0000
0000
0000
,  // measure 3
0000
0000
0000
0000
,  // measure 4
0000
0000
0000
0000
,  // measure 5
1000
0000
0000
0000
,  // measure 6
0001
0000
0000
0000
,  // measure 7
1000
0000
0001
0000
,  // measure 8
0010
0000
0000
0000
,  // measure 9
0100
0000
0000
0000
,  // measure 10
0010
0000
0010
0000
,  // measure 11
0100
0000
0000
0000
,  // measure 12
0010
0000
0010
0000
,  // measure 13
0001
0000
0000
0000
,  // measure 14
1000
0000
1000
0000
,  // measure 15
0001
0000
0000
0000
,  // measure 16
1000
0000
0000
0000
,  // measure 17
0010
0000
0100
0000
,  // measure 18
0010
0000
0000
0000
,  // measure 19
1000
0000
0001
0000
,  // measure 20
1000
0000
0000
0000
,  // measure 21
0000
0100
0000
0010
,  // measure 22
0000
0100
0000
0000
,  // measure 23
0001
0000
0000
0000
,  // measure 24
1000
0000
0000
0000
,  // measure 25
0000
0000
0000
0000
,  // measure 26
0000
0000
0000
0000
,  // measure 27
0000
0010
0000
0010
,  // measure 28
0000
0000
1000
0000
,  // measure 29
0100
0000
0000
0000
,  // measure 30
0000
0010
0000
0010
,  // measure 31
0000
0000
0001
0000
,  // measure 32
0000
0100
0000
0100
,  // measure 33
0000
0000
0000
0010
,  // measure 34
0000
1000
0000
1000
,  // measure 35
0000
0100
0000
0100
,  // measure 36
0000
0001
0000
0001
,  // measure 37
0000
0000
0000
0000
,  // measure 38
0000
0000
0000
0000
,  // measure 39
0010
0000
0000
0000
,  // measure 40
0000
0000
0000
0000
,  // measure 41
0100
0000
0000
0000
,  // measure 42
0000
0000
0000
0000
,  // measure 43
1000
0000
0000
0000
,  // measure 44
1000
0000
0000
0000
,  // measure 45
0001
0000
1000
0000
,  // measure 46
0010
0000
0000
0000
,  // measure 47
0100
0000
0000
0000
,  // measure 48
0010
0000
0010
0000
,  // measure 49
0100
0000
0000
0000
,  // measure 50
0010
0000
0010
0000
,  // measure 51
1000
0000
0000
0000
,  // measure 52
0001
0000
0001
0000
,  // measure 53
1000
0000
0000
0000
,  // measure 54
0001
0000
0000
0000
,  // measure 55
0010
0000
0100
0000
,  // measure 56
0010
0000
0000
0000
,  // measure 57
0001
0000
1000
0000
,  // measure 58
0001
0000
0000
0000
,  // measure 59
0000
0100
0000
0010
,  // measure 60
0000
0100
0000
0000
,  // measure 61
1000
0000
0000
0001
;
