#TITLE:Tamagotchi;
#SUBTITLE:;
#ARTIST:Grynpyret;
#TITLETRANSLIT:;
#SUBTITLETRANSLIT:;
#ARTISTTRANSLIT:;
#CREDIT:;
#BANNER:[ROUND A] - Tamagotchi.jpg;
#BACKGROUND:[ROUND A] - Tamagotchi-bg.jpg;
#LYRICSPATH:;
#CDTITLE:;
#MUSIC:[ROUND A] - Tamagotchi.ogg;
#OFFSET:0.002;
#SAMPLESTART:33.100;
#SAMPLELENGTH:12.000;
#SELECTABLE:YES;
#BPMS:0.000=116.000;
#STOPS:;
#BGCHANGES:;

//---------------dance-single - ----------------
#NOTES:
     dance-single:
     :
     Hard:
     9:
     0.709,0.795,0.355,0.068,0.805:
0000
0000
0000
0000
,
0000
0000
0000
0000
,
0000
0000
0000
0000
,
0000
0000
0000
0000
,
2100
0001
3001
0000
0000
0001
0010
0100
,
1000
1000
0202
0000
0000
0000
0000
0000
,
0000
0000
0000
0000
0000
0000
0000
0000
0000
0000
0303
0000
0000
0100
0001
0000
,
0000
0000
0000
0000
0000
0000
0000
0001
,
1000
0100
1000
0001
1000
0000
0100
0000
0001
1000
0001
0010
0001
0000
1000
0000
,
0010
1000
0001
1000
0010
0000
0100
0000
0001
0100
0001
1000
0001
0000
0010
0000
,
0100
1000
0100
0010
0100
0000
0001
0000
0100
0010
1000
0010
0100
0000
0100
1000
,
0100
0000
1000
0010
1000
0000
0001
0010
0001
0000
0001
0100
0001
0000
0001
1000
,
0001
0000
0010
0100
0010
0000
0010
0001
0010
0000
0001
0100
0010
0000
0010
1000
,
0100
0000
0100
1000
0001
0000
0100
0001
1000
0000
0010
1000
0001
0000
0010
0001
,
1000
0000
0001
0100
1000
0000
1000
0100
0001
0000
0001
0010
1000
0000
1000
0010
,
0001
0000
0000
1000
0001
1000
0000
0010
0100
0000
0000
0000
1001
0000
0001
0100
,
0010
0000
1000
0000
0100
0000
0010
0001
0010
0000
0100
0000
1000
0000
1000
0001
,
1000
0000
0000
0000
0001
0000
0000
0000
0100
0010
0000
0000
1000
0000
0000
0000
1000
0000
0001
0000
0000
0000
0000
0000
0100
0001
0100
0001
0100
0001
0100
0001
,
0100
0000
0000
0000
0000
0000
0000
0000
0101
0000
0000
0000
0010
0000
0000
0000
1100
0000
0000
0000
0000
0000
0000
1000
0100
0000
0000
0000
0000
0000
0000
0000
,
0001
0100
0010
0000
1000
0000
1100
0000
1000
0100
1000
0000
0100
1000
0000
0001
,
0100
0000
0000
0000
0110
0000
0100
0010
1000
0010
0100
0001
0100
0010
1000
0100
,
0010
0001
0100
0001
0000
0000
0101
0000
0000
1000
0000
0000
1000
0000
0000
0000
,
1100
0100
0010
0011
0001
0101
0010
1010
,
1000
0000
0100
0010
0000
0010
0100
0000
1000
0000
0001
1000
0001
0000
0100
0000
,
0010
0000
0000
0000
1001
0000
1000
0001
1000
0000
0100
0000
0010
0000
0010
0000
,
0001
0000
0000
0000
0000
0000
0000
0001
0010
0000
0000
0000
0100
0000
0000
0000
0100
0000
1000
0000
0000
0000
0000
0000
1000
0001
1000
0001
1000
0001
1000
0001
,
1000
0000
1100
0001
0011
0000
0101
0010
,
1010
0000
0000
1000
0000
0000
1000
0000
0100
0000
0010
0000
0001
0000
0100
0000
0010
0000
1000
0000
0000
1000
0000
0000
,
1001
0000
0000
0001
0100
0000
0010
1000
0010
0001
0010
0000
0100
0000
0001
0000
,
1000
0000
0100
0000
0001
0000
0010
0000
0001
0000
0100
0000
1000
0000
0100
0000
0001
0000
0010
0000
0001
0000
0000
0000
1000
0100
1000
0100
1000
0100
1000
0100
,
1000
0000
0001
1000
0001
0000
1000
0001
1000
0000
1000
0010
1000
0000
0100
0001
,
0100
0000
0001
0010
0000
0011
0000
0000
1001
0000
0001
0100
0020
0000
0000
0000
,
1030
0000
0100
0000
1100
0000
0000
0100
0001
0000
0010
0000
0001
0000
0100
0000
,
0010
0000
0000
0000
1000
0000
0000
0100
0010
0000
0000
0000
0001
0000
0000
0000
0100
0000
0010
0000
0000
0000
0000
0000
0100
0010
0100
0010
0100
0010
0100
0010
,
0100
0000
1001
0100
1001
0000
1001
1000
,
1100
0000
0000
0000
0000
0000
0001
0000
0000
0000
0000
0000
0001
0000
0000
0000
0010
0000
0000
0000
0100
0000
0000
0000
1000
0000
0000
0000
0000
0000
1001
0000
0000
0000
0000
0000
0000
0000
0000
0001
0000
0000
0000
0000
0000
0001
0000
0000
,
1000
0000
0100
0000
0010
0000
0001
0100
0001
0100
0010
0000
1000
0000
1000
0001
,
0100
0001
1000
0001
0000
0000
0010
0000
0000
0100
0000
0000
1000
0000
0001
0000
,
1001
0000
1000
0000
1100
0000
1000
0001
1000
0000
1000
0000
1010
0000
0001
1000
,
0001
0000
0001
0100
0000
0100
0010
0000
1001
0000
1000
0000
0100
0001
1000
0000
,
1100
0000
0001
0000
0001
1000
0001
0000
1000
0001
1000
0000
0010
0000
0100
0000
,
0001
0000
0000
0000
0100
0000
0000
0010
1000
0000
0000
0000
0100
0000
0000
0000
0000
0000
0010
0000
0000
0000
0000
0000
0001
0100
0001
0100
0001
0100
0001
0100
,
0001
0000
0101
0010
1010
0000
1100
1000
,
0100
0000
0000
0000
0100
0000
0001
0000
0101
0000
0000
0000
1001
0000
1000
0100
,
1000
0000
0010
0000
1000
0000
0001
1000
0100
1000
0001
0000
0100
0000
0100
0010
,
1000
0000
0000
0100
0000
0000
0010
0000
0000
0001
0000
0000
0000
0000
0000
0000
0000
0000
0100
0000
0000
0000
0000
0000
0000
0000
0000
0010
0000
0000
0000
0000
0000
0000
0000
0000
1000
0000
0001
0000
1000
0000
0100
0000
1000
0000
0001
0000
,
1000
0100
0101
0001
1001
1000
1010
1000
,
0100
0000
0100
0010
0000
0010
0001
0000
0202
0000
0000
0000
0000
0000
0303
0000
,
0001
0100
1000
0000
1000
0100
0001
0001
,
0100
0000
0000
0000
0000
0000
0000
1000
0100
0000
0000
0000
0010
0000
0000
0000
0000
0000
0001
0000
0000
0000
0000
0000
0001
0010
0001
0010
0001
0010
0001
0010
,
0001
0000
0110
0001
0110
0000
0110
0000
,
1001
0000
0000
0100
0000
0000
0100
0000
0010
0000
1000
0000
0001
0000
0100
0000
0010
0000
1000
0000
0001
0000
0100
0000
,
0010
0000
1000
0000
0100
0000
0010
0001
0000
0000
0001
0000
0100
0000
0010
0000
,
1000
0000
0100
0000
0010
0000
0100
0000
0000
0000
0000
0000
0100
0000
0000
0000
0000
0000
0001
0000
0000
0000
0000
0000
0010
0001
1000
0001
1000
0001
1000
0001
,
0100
0000
0001
1000
0001
0000
0100
0010
0100
0000
1000
0001
1000
0000
0010
0100
,
0010
0000
0001
1000
0000
1000
0001
0000
0200
0000
0010
0000
0310
0000
1000
0000
,
0100
0000
0010
0000
1001
0000
1000
0100
1000
0000
0001
0100
0001
0000
1000
0010
,
1000
0000
0001
0010
0001
0000
0001
1000
0100
0000
1000
0001
0100
0000
0001
1000
,
0010
1000
0001
0100
0010
1000
0001
0100
0010
1000
0001
0100
0010
1000
0001
0100
,
0010
1000
0100
0010
0001
1000
0100
0010
0001
1000
0100
0010
0001
1000
0100
0010
,
0001
0000
0100
0000
0010
0000
1000
0100
0000
0000
0010
0001
0010
0000
0011
0000
,
0001
0100
0010
0100
0001
0100
0010
0100
0001
0100
0010
0100
0001
0100
0010
0000
,
1000
0100
0010
0100
1000
0100
0010
0100
1000
0100
0010
0100
1000
0100
0010
0100
,
1000
0000
0000
0001
0000
0001
0000
0000
2002
0000
0000
0000
3003
0000
0000
0000
;

//---------------dance-single - ----------------
#NOTES:
     dance-single:
     :
     Medium:
     6:
     0.393,0.409,0.280,0.106,0.098: // measure 1
0000
0000
0000
0000
,  // measure 2
0000
0000
0000
0000
,  // measure 3
0000
0000
0000
0000
,  // measure 4
0000
0000
0000
0000
,  // measure 5
1000
0001
0100
0000
0000
0100
0010
0100
,  // measure 6
0001
1000
0200
0000
0000
0000
0000
0000
,  // measure 7
0000
0000
0000
0000
0000
0000
0000
0300
,  // measure 8
0000
0000
0000
0000
0000
0000
0000
1000
,  // measure 9
0001
0100
0101
0000
1000
0100
1100
0000
,  // measure 10
1000
0010
1010
0000
0001
0010
0011
0000
,  // measure 11
0001
0101
1000
1100
,  // measure 12
1000
0000
1010
0000
0100
1000
0100
0010
,  // measure 13
0001
0101
0001
1001
,  // measure 14
0001
0011
0001
1001
,  // measure 15
1000
1100
1000
1001
,  // measure 16
1000
0000
0000
0000
1000
0000
0000
1000
0000
0000
0000
0000
0001
0000
0000
0000
,  // measure 17
0100
0000
0010
0000
1000
0010
0100
0001
,  // measure 18
0100
0000
0000
0000
1001
0000
0001
0000
0000
1000
0000
0000
0000
0000
0000
0000
,  // measure 19
1001
0000
0100
0001
0100
0000
0100
0000
,  // measure 20
1000
0000
0001
0010
0100
0000
0100
0000
,  // measure 21
0100
0000
0010
1000
0100
0100
0100
0000
,  // measure 22
0010
0000
0000
0010
0000
0000
0010
0000
0000
0001
0000
0000
0100
0000
0000
0000
,  // measure 23
0010
0000
0001
1000
0100
0000
1000
0001
,  // measure 24
0100
0000
0000
0010
0000
0010
0000
0000
1000
0000
0002
0000
1000
0000
0003
0000
,  // measure 25
1000
0100
0010
0000
0001
0100
0010
0100
,  // measure 26
0001
0000
0000
0000
1000
0000
0100
0000
0000
0100
0000
0000
0010
0000
0001
0000
,  // measure 27
0010
0000
0100
1000
0100
0000
0010
1000
,  // measure 28
0010
0010
0100
0100
0001
0001
1000
1000
,  // measure 29
0100
0000
0010
0100
0001
0100
0010
1000
,  // measure 30
0100
0000
0100
0000
0000
0000
0010
0000
0000
0010
0000
0000
0001
0000
0000
0000
,  // measure 31
0100
1001
0010
1001
,  // measure 32
0100
0000
0000
1000
0000
0001
0000
0000
0200
0000
0000
0000
0010
0000
0000
0000
,  // measure 33
0310
1000
1000
0000
0000
0001
0100
0001
,  // measure 34
1000
0000
0100
0000
0100
0000
0010
0000
0000
0010
0000
0000
0010
0000
0001
0000
,  // measure 35
0010
0000
1000
0010
0001
0000
0001
0000
,  // measure 36
1000
0100
0001
0100
1000
1000
0000
0000
,  // measure 37
0001
0100
0010
0100
0001
1001
1000
0100
,  // measure 38
0010
0000
0010
0000
0100
0000
1000
0000
0000
1000
0000
0000
1000
0000
0000
0000
,  // measure 39
0001
0101
0100
1100
,  // measure 40
1000
0000
0000
0100
0000
0100
0000
0000
0002
0000
0000
0000
1000
0000
0000
0000
,  // measure 41
1003
0100
2000
0000
3000
0001
0100
0001
,  // measure 42
1000
0000
0100
0000
2000
0000
0100
0000
0000
0100
3000
0000
0100
0000
1000
0000
,  // measure 43
0010
0000
0001
0010
0001
0000
0100
0010
,  // measure 44
0010
0000
0000
1000
0010
0000
0001
0000
,  // measure 45
0100
0010
0001
1000
0001
0100
0010
0100
,  // measure 46
0001
0000
0001
0000
2000
0000
0001
0000
0000
0001
0000
0000
3000
0000
0000
0000
,  // measure 47
0001
0000
0100
0010
1000
0000
1000
0000
,  // measure 48
0100
0000
0000
0010
0000
0010
0000
0000
0002
0000
0000
0000
1000
0000
0000
0000
,  // measure 49
1003
0100
0010
0000
0000
0010
0001
0100
,  // measure 50
0010
0000
0000
0000
2000
0000
0100
0000
0000
0100
3000
0000
0100
0000
1000
0000
,  // measure 51
0101
0000
0001
1000
0100
0000
1000
0001
,  // measure 52
0010
0000
0000
0010
0000
0000
0100
0000
0000
0100
0000
0000
1000
0000
0001
0000
1000
0000
0001
0000
0000
0001
0000
0000
,  // measure 53
0100
0000
0010
0000
2000
0000
0200
3300
0000
0000
0100
0000
0001
0000
0100
0000
,  // measure 54
0010
0000
1000
0000
0100
0000
0010
0000
0000
0010
0000
0000
0010
0000
0000
0000
,  // measure 55
0001
0100
0001
0000
1000
0100
1000
0000
,  // measure 56
0001
0000
0000
0010
0000
0010
0000
0000
2002
0000
0000
0000
0000
0000
0000
0000
,  // measure 57
3003
1100
1000
0101
,  // measure 58
0001
1010
1000
0011
,  // measure 59
0001
1100
1000
0101
,  // measure 60
0001
1001
0100
1001
,  // measure 61
0010
0011
0100
1100
,  // measure 62
0100
1010
0100
0011
,  // measure 63
0001
0101
0010
1100
,  // measure 64
0010
0000
0000
0001
0000
0001
0000
0000
0210
0000
0000
0000
0300
0000
0000
0000
;

//---------------dance-single - ----------------
#NOTES:
     dance-single:
     :
     Easy:
     3:
     0.243,0.313,0.106,0.098,0.000:
0000
0000
0000
0000
,
0000
0000
0000
0000
,
0000
0000
0000
0000
,
0000
0000
0000
0000
,
1001
0001
0000
1000
,
0200
0020
0000
0000
,
0000
0000
0000
0000
,
0330
0000
0000
0000
,
0100
1010
1000
1010
,
1000
0101
0001
0101
,
0001
1000
0100
1000
,
0001
0100
0001
1000
,
0100
1000
0001
0100
,
0001
1000
0010
1000
,
0001
0010
0001
1000
,
0100
0010
1001
1001
,
0000
0001
0000
1000
,
0000
0110
0000
0001
,
1000
0100
1000
0010
,
0000
0000
0001
0100
,
0000
0000
0010
1000
0010
0000
0001
0000
,
0010
0000
0000
0100
0000
0000
0010
0000
,
0100
0001
1000
1001
,
0000
0000
2000
0000
,
3100
0100
1000
1000
,
0001
0001
0010
0010
,
0001
0100
0010
1000
,
1000
0100
2000
0000
0000
0000
0000
0000
,
3001
0000
0100
0000
0010
0010
0000
0000
,
0200
0000
0000
0010
0300
0000
0100
0000
,
1000
0100
0010
0100
,
1000
0100
0002
0000
,
1003
0010
0001
0010
,
0001
0100
0001
0010
,
1000
0100
0100
0010
,
0001
0000
0100
0000
0010
0010
0000
0000
,
1001
0000
1000
0000
0001
1000
0000
0000
,
0110
0000
0000
1001
0000
0000
0110
0000
,
0100
1000
0000
0100
,
0010
0001
0020
0000
,
0031
1000
0000
1000
,
0010
1000
0100
1000
,
0001
0100
0100
0100
,
0000
0000
0000
0001
0001
0000
1000
0000
,
0100
0100
0000
0010
,
0002
0000
0000
0013
0000
0000
0000
0000
,
1000
0010
0100
0001
,
0010
0100
1000
0010
,
0100
0001
0000
0010
,
0100
1000
0000
1000
,
0001
0100
0001
1000
,
0200
0000
0000
0000
,
0310
1000
0001
0100
,
0002
0000
0000
0103
0000
0000
1000
0000
,
1000
0100
0010
0100
,
0001
1000
0002
0000
,
0103
0010
1000
0010
,
0100
0001
0100
0010
,
1000
0010
0001
0100
,
1000
0100
0001
0010
,
1000
0010
0001
0100
,
1000
0100
0001
0010
,
1000
0000
0100
0000
,
0100
0100
2002
3003
;

//---------------dance-double - ----------------
#NOTES:
     dance-double:
     :
     Hard:
     9:
     0.721,0.795,0.438,0.106,0.801:
00000000
00000000
00000000
00000000
,
00000000
00000000
00000000
00000000
,
00000000
00000000
00000000
00000000
,
00000000
00000000
00000000
00000000
,
10010000
00010000
00002000
00000000
00000000
00003100
00000001
00000100
,
00001000
00010000
00022000
00000000
00000000
00000000
00000000
00000000
,
00000000
00000000
00000000
00000000
00000000
00000000
00000000
00000000
00000000
00000000
00000000
00000000
00033000
00010000
00001000
00000000
,
00000000
00000000
00000000
00000000
00000000
00000000
00000000
00010000
,
11000000
00000000
10000000
01000000
00100000
00010000
00100000
00000000
00101000
00000000
00010000
00000100
00001000
00000010
00000100
00000000
,
00000101
00000000
00000001
00000100
00000010
00001000
00000100
00000000
00001100
00000000
00000100
00001000
00000010
00001000
00000001
00000000
,
00000101
00000000
00000001
00000010
00000100
00001000
00000010
00000000
00010010
00000000
00000010
00001000
00010000
00000000
00010000
00001000
,
00000010
00000000
00001000
00010000
00100000
00000000
00100000
00010000
00001000
00000000
00001000
00010000
01000000
00000000
01000000
00010000
,
00001000
00000000
00000100
00001000
00010000
00000000
00010000
00001000
00000100
00000000
00000100
00000001
00000010
00000000
00000010
00000100
,
00001000
00000000
00000100
00001000
00010000
00000000
00001000
00010000
00100000
00000000
00010000
00100000
10000000
00000000
00100000
10000000
,
01000000
00000000
01000000
00010000
00001000
00000000
00001000
00000100
00000010
00000000
00000010
00000100
00001000
00000000
00001000
00010000
,
00001000
00000000
00000000
00010000
00001000
00010000
00000000
00010000
00001000
00000000
00000000
00000000
00011000
00000000
00001000
00000100
,
00000010
00000000
00000001
00000000
00000101
00000000
00000100
00000000
00000010
00001000
00000100
00000000
00000100
00000000
00001000
00000000
,
00011000
00000000
00000000
00000000
00100000
00000000
00000000
00010000
00100000
00000000
00000000
00000000
01000000
00000000
00000000
00000000
00000000
00000000
10010000
00000000
00000000
00000000
00000000
00000000
10000000
01000000
10000000
01000000
10000000
01000000
10000000
01000000
,
10000000
00000000
10010000
01100000
10010000
00000000
00110000
00000000
,
00010000
00000000
01000000
00000000
00100000
00000000
10000000
00000000
10000000
00010000
10000000
00000000
10000000
01000000
00000000
00100000
,
00010000
00000000
00010000
00000000
00011000
00000000
00001000
00000100
00000010
00000100
00001000
00000000
00000101
00000000
00000100
00000000
,
00000001
00000100
00000010
00001000
00000000
00000000
00011000
00000000
00000000
00010000
00000000
00000000
00100000
01000000
00000000
01000000
,
10000000
01000000
00010000
00110000
00010000
00001000
00001100
00000000
,
00000001
00000000
00000100
00000010
00000000
00000010
00001000
00000000
00000200
00000000
00000000
00000000
00000000
00000000
00000310
00000001
,
00000010
00000100
00001100
00001000
00010000
00100000
10000000
01000000
,
00010000
00000000
00000000
00000000
00001000
00000000
00000000
00000100
00000010
00000000
00000000
00000000
00000001
00000000
00000000
00000000
00000000
00000000
00001001
00000000
00000000
00000000
00000000
00000000
00000001
00000100
00000001
00000100
00000001
00000100
00000001
00000100
,
00000001
00000000
00001100
00010100
00011000
00000000
00101000
00000000
,
01010000
00000000
00000000
10010000
00000000
00000000
10000000
00000000
01000000
00000000
00100000
00000000
01000000
00000000
10000000
00000000
01000000
00000000
00010000
00000000
00000000
00001000
00000000
00000000
,
00000100
00000000
00000010
00000000
00000001
00000000
00000100
00000001
00000100
00000000
00000100
00000000
00000010
00000000
00001000
00000000
,
00001000
00010000
00001000
00010000
00000000
00000000
00011000
00000000
00000000
10010000
00000000
00000000
10000000
00010000
00000000
00010000
,
01000000
00000000
01000000
00010000
00100000
00000000
00100000
00001000
00010000
00000000
00010000
00000100
00001000
00000000
00001000
00000010
,
00000100
00000000
00000100
00000001
00000000
00000100
00000010
00000000
00002002
00000000
00000000
00000000
00000000
00000000
00003003
00000000
,
00000001
00000000
00000100
00000000
00001000
00000000
00010000
00001000
00010000
00000000
00100000
00000000
10000000
00000000
01000000
00000000
,
00010000
00000000
00000000
00000000
00001000
00000000
00000000
00000100
00000001
00000000
00000000
00000000
00000010
00000000
00000000
00000000
00000000
00000000
00001010
00000000
00000000
00000000
00000000
00000000
00000010
00001000
00000010
00001000
00000010
00001000
00000010
00001000
,
00000010
00000000
00001100
00010100
00011000
00000000
01001000
00000000
,
01000000
00000000
00000000
00000000
00000000
00000000
00010000
00000000
00000000
00000000
00000000
00000000
10000000
00000000
00000000
00000000
00100000
00000000
00000000
00000000
01000000
00000000
00000000
00000000
00100000
00000000
00000000
00000000
00000000
00000000
00100000
00000000
00000000
00000000
00000000
00000000
00100000
00000000
00000000
00010000
00000000
00000000
00000000
00000000
00000000
00010000
00000000
00000000
,
00001000
00000000
00000100
00000000
00000001
00000000
00000010
00000001
00000010
00000000
00000011
00000000
00000010
00000000
00001000
00000000
,
00000100
00000000
00010000
00000000
00001000
00000000
00010000
00000000
00000000
00000000
00000000
00000000
00110000
00000000
00000000
00000000
00000000
00000000
11000000
00000000
00000000
00000000
00000000
00000000
00100000
01000000
00100000
01000000
00100000
01000000
00100000
01000000
,
00100000
00000000
00000000
00000000
00011000
00000000
00001000
00000100
00001000
00000000
00001000
00000001
00001000
00000000
00001000
00000010
,
00001000
00000000
00000100
00000010
00000000
00000010
00000001
00000000
00002002
00000000
00000000
00000000
00000000
00000000
00003003
00000000
,
00000001
00000000
00000010
00000000
00001000
00000000
00010000
00100000
00010000
00000000
00100000
00000000
10000000
00000000
01000000
00000000
,
00010000
00000000
00000000
00000000
00001000
00000000
00000000
00000100
00000001
00000000
00000000
00000000
00000100
00000000
00000000
00000000
00001000
00000000
00000100
00000000
00000000
00000000
00000000
00000000
00001000
00000100
00001000
00000100
00001000
00000100
00001000
00000100
,
00001000
00000000
00011000
00010000
00110000
00010000
10010000
01000000
,
00010000
00000000
00001000
00000000
00000100
00000000
00000010
00000000
00000001
00000100
00000010
00000000
00001000
00000100
00000000
00000100
,
00010000
00000000
00001000
00000000
00100000
00000000
00010000
01000000
00010000
10000000
00010000
00000000
00100000
00000000
00001000
00000000
,
00010000
00000000
00000000
00000100
00000000
00000000
00001000
00000000
00000000
00000010
00000000
00000000
00000000
00000000
00000000
00000000
00000000
00000000
00000101
00000000
00000000
00000000
00000000
00000000
00000000
00000000
00000000
00001001
00000000
00000000
00000000
00000000
00000000
00000000
00000000
00000000
00000001
00000000
00000000
00000000
00000010
00000000
00000001
00000000
00000100
00000000
00000010
00000000
,
00001000
00011000
00010000
00100000
10000000
01000000
00010000
00001000
,
00000100
00000000
00000010
00000001
00000000
00000001
00000100
00000000
00002020
00000000
00000000
00000000
00000000
00000000
00003030
00000000
,
00000010
00000000
00001000
00000000
00010000
00000000
00100000
00010000
00100000
00000000
10000000
00000000
01000000
00000000
00010000
00000000
,
00001000
00000000
00000000
00000000
00000100
00000000
00000000
00000001
00000100
00000000
00000000
00000000
00001000
00000000
00000000
00000000
00001000
00000000
00010000
00000000
00000000
00000000
00000000
00000000
00100000
00010000
00100000
00010000
00100000
00010000
00100000
00010000
,
00100000
00000000
11000000
00100000
01010000
00100000
00011000
00000000
,
00010000
00000000
00000000
00001000
00000000
00000000
00000010
00000000
00000001
00000000
00000100
00000000
00001000
00000000
00010000
00000000
01000000
00000000
10000000
00000000
00100000
00000000
00010000
00000000
,
00001000
00000000
00000100
00000000
00000001
00000000
00000010
00000100
00000000
00000000
00001000
00000000
00010000
00000000
00100000
00000000
,
00010000
00000000
00001000
00000000
00100000
00000000
00001000
00000000
00010000
00000000
00000000
00000000
00011000
00000000
00000000
00000000
00000000
00000000
00011000
00000000
00000000
00000000
00000000
00000000
00001000
00010000
00001000
00010000
00001000
00010000
00001000
00010000
,
00001000
00000000
00000000
00000000
00011000
00000000
00010000
00100000
01000000
00000000
10000000
01000000
00100000
00000000
01000000
00100000
,
00001000
00000000
00010000
00001000
00000000
00001000
00000100
00000000
00002002
00000000
00000000
00000000
00000000
00000000
00003003
00000000
,
00001001
00000000
00000100
00001000
00000001
00000000
00000100
00000001
00001000
00000000
00000100
00001000
00010000
00000000
00001000
00010000
,
00100000
10000000
01000000
00010000
01000000
00100000
01000000
00010000
00001000
00000100
00001000
00010000
00001000
00000100
00000010
00000001
,
00000010
00000100
00000010
00001000
00000010
00000100
00000010
00001000
00010000
00001000
00010000
00100000
01000000
10000000
01000000
00100000
,
00010000
00100000
00001000
00010000
00000100
00001000
00000010
00000100
00000001
00000010
00000100
00001000
00000100
00000010
00000001
00000100
,
00000010
00001000
00000100
00010000
00001000
00010000
00000100
00010000
00001000
00010000
00100000
10000000
00100000
00010000
00100000
10000000
,
01000000
00010000
01000000
10000000
01000000
00010000
00001000
00000100
00000001
00000100
00001000
00000100
00000001
00000010
00001000
00000010
,
00000001
00000100
00000010
00001000
00000100
00010000
00001000
00100000
00010000
01000000
00100000
10000000
00100000
01000000
00010000
00000000
,
00010000
00000000
00000100
00010000
00000000
00010000
00001000
00000000
00022000
00000000
00000000
00000000
00033000
00000000
00000000
00000000
;

//---------------dance-double - ----------------
#NOTES:
     dance-double:
     :
     Medium:
     7:
     0.483,0.482,0.393,0.151,0.238:
00000000
00000000
00000000
00000000
,
00000000
00000000
00000000
00000000
,
00000000
00000000
00000000
00000000
,
00000000
00000000
00000000
00000000
,
10100000
00100000
01000000
00000000
00000000
00001000
00010000
00001000
,
00000100
00000100
00000002
00000000
00000000
00000000
00000000
00000000
,
00000000
00000000
00000000
00000000
00000000
00000000
00000000
00000003
,
00000000
00000000
00000000
00000000
00000000
00000000
00000000
00000001
,
00000010
00000100
00001100
00000000
00000100
00010000
00011000
00000000
,
00001000
00100000
00101000
00000000
00010000
01000000
01010000
00000000
,
10000000
00000000
00100000
00000000
10100000
00000000
00000000
01000000
00010000
00000000
00000000
00001000
00000100
00000000
00000000
00000100
,
00000010
00000000
00000000
00000010
00000001
00000000
00000000
00000001
00000100
00000000
00000000
00000010
00001000
00000000
00000000
00001000
,
00010000
00000000
00000000
00100000
10000000
00000000
00000000
10000000
00010000
00000000
00000000
00010000
01000000
00000000
00000000
01000000
,
00100000
00000000
00000000
00100000
00010000
00000000
00000000
00010000
00000100
00000000
00000000
00000100
00000010
00000000
00000000
00000010
,
00000001
00000000
00000000
00000001
00000100
00000000
00000000
00000100
00001000
00000000
00000000
00001000
00010000
00000000
00000000
00000000
,
00011000
00000000
00000000
00001000
00010000
00001000
00000000
00010000
01000000
00000000
00000000
00000000
11000000
00000000
00000000
00000000
,
10000000
00100000
01010000
00000000
00100000
00101000
00010000
00001000
,
00000100
00000000
00000010
00000000
00000002
00000000
00000100
00000000
00000000
00000100
00000003
00000000
00000001
00000000
00000010
00000000
,
00000101
00000000
00000100
00001000
00011000
00000000
00011000
00000000
,
00110000
00000000
11000000
10000000
10010000
00000000
01010000
00000000
,
01000000
00100000
00010000
00100000
01000000
01000000
00100000
00010000
,
00001000
00000000
00000000
00000100
00000000
00000000
00000010
00000000
00000000
00000001
00000000
00000000
00000010
00000000
00000100
00000000
,
00001000
00000000
00001000
00010000
00100000
00010000
00001000
00000000
,
00001000
00000000
00000000
01000000
00000000
01000000
00000000
00000000
20020000
00000000
00000000
00000000
00000000
00000000
30030000
00000000
,
10000000
01000000
11000000
00000000
00000000
00100000
00010000
00100000
,
00001000
00000000
00000000
00000000
00011000
00000000
00001000
00000000
00000000
00000100
00000000
00000000
00000010
00000000
00000000
00000000
,
00001001
00000000
00000010
00001000
00000100
00001000
00000010
00000000
,
00000010
00000000
00000000
00001000
00000000
00000000
00010000
00000000
00001000
00000000
00000100
00000000
00001000
00000000
00010000
00000000
00001000
00000000
00010000
00000000
00000000
00010000
00000000
00000000
,
01000000
00000000
10010000
10000000
00100000
00100000
01000000
00010000
,
00200000
00000000
00000000
00010000
00000000
00000000
00301000
00000000
00000000
00010000
00000000
00000000
00000100
00000000
00000000
00000000
,
00000001
00000010
00000001
00001000
00000100
00001000
00000010
00001000
,
00000001
00000000
00000000
00000100
00000000
00000100
00000000
00000000
00002200
00000000
00000000
00000000
00000000
00000000
00003300
00000000
,
00001100
00000100
00020000
00000000
00000000
00031000
00000010
00001000
,
00010000
00000000
01000000
00000000
01000000
00000000
10000000
00000000
00000000
00100000
00000000
00000000
10010000
00000000
00000000
00000000
,
00011000
00000000
00001100
00000010
00000101
00000000
00001001
00000000
,
00000001
00000000
00000000
00000000
00000000
00000000
00000100
00000000
00000000
00000000
00000000
00000000
00000010
00000000
00000000
00000000
00001000
00000000
00000000
00000000
00000010
00000000
00000000
00000000
00001000
00000000
00000000
00000000
00000000
00000000
00001000
00000000
00000000
00000000
00000000
00000000
00000000
00000000
00000000
00010000
00000000
00000000
00000000
00000000
00000000
00010000
00000000
00000000
,
00100000
01000000
10000000
01000000
00100000
00100000
00010000
00001000
,
00000100
00000000
00000000
00000010
00000000
00000000
00000001
00000000
00000000
00000100
00000000
00000000
00000010
00000000
00001000
00000000
,
00010000
00000000
00001000
00010000
00100000
10000000
00100000
01000000
,
00010000
00000000
00000000
10000000
00000000
00010000
00000000
00000000
20020000
00000000
00000000
00000000
00000000
00000000
30030000
00000000
,
10000000
01000000
00200000
00000000
00000000
00301000
00010000
00001000
,
00000100
00000000
00000001
00000000
00000002
00000000
00000000
00000003
00000000
00000000
00000001
00000000
00000100
00000000
00000010
00000000
,
00001010
00000000
00000010
00010000
00011000
00000000
00110000
00000000
,
10000000
00000000
01000000
00000000
00100000
00000000
00010000
00000000
00001000
00000000
00000100
00000000
00000010
00000001
00000000
00001000
,
00000001
00000000
00000100
00000000
00000020
00000000
00000100
00000030
00000100
00000000
00001000
00000000
00010000
00000000
00100000
00000000
,
10000000
00000000
00000000
01100000
00000000
00000000
00010000
00000000
00000000
00011000
00000000
00000000
00000100
00000000
00000000
00000000
,
00001001
00000000
00000011
00000100
00001000
00000100
00010000
00001000
,
00010000
00000000
00000000
00001000
00000000
00000001
00000000
00000000
00002002
00000000
00000000
00000000
00000000
00000000
00003003
00000000
,
00000001
00000010
00002000
00000000
00000000
00013000
00100000
10000000
,
10000000
00000000
01000000
00000000
00010000
00000000
00001000
00000000
00000000
00000100
00000000
00000000
00000011
00000000
00000000
00000000
,
00000101
00000000
00001010
00000100
00011000
00000000
00110000
00000000
,
10000000
00000000
00000000
01000000
00000000
00000000
00100000
00000000
00010000
00000000
10000000
00000000
01000000
00000000
00100000
00000000
00010000
00000000
10000000
00000000
00000000
00000000
01000000
00000000
,
00100000
00010000
10000000
00000000
01000000
10000000
00010000
00100000
,
00001000
00000000
00000000
00010000
00000000
00000000
00001000
00000000
00000000
00000100
00000000
00000000
00000010
00000000
00000100
00000000
,
00000110
00000000
00000101
00000100
00001001
00000000
00001100
00001000
,
00011000
00000000
00000000
00100000
00000000
01000000
00000000
00000000
20020000
00000000
00000000
00000000
00000000
00000000
30030000
00000000
,
10000000
01000000
11000000
00000000
01000000
00010000
01010000
00000000
,
00010000
00001000
00000100
00000010
00000100
00000001
00000010
00001000
,
00000010
00000001
00000100
00000010
00001000
00000100
00001000
00010000
,
00100000
00000000
00010000
00000000
00001000
00000000
00010000
00000000
01000000
00000000
10000000
00000000
00000000
01000000
00000000
00000000
,
10000000
01000000
00100000
01000000
00010000
00100000
00001000
00010000
,
00000100
00001000
00000010
00000001
00000010
00001000
00000100
00000010
,
00000100
00001000
00000100
00010000
00001000
00100000
00001000
00010000
,
00001000
00000000
00001000
00010000
00000000
00001000
00000000
00000000
00022000
00000000
00000000
00000000
00033000
00000000
00000000
00000000
;

//---------------dance-double - ----------------
#NOTES:
     dance-double:
     :
     Easy:
     4:
     0.292,0.313,0.212,0.098,0.000:
00000000
00000000
00000000
00000000
,
00000000
00000000
00000000
00000000
,
00000000
00000000
00000000
00000000
,
00000000
00000000
00000000
00000000
,
11000000
01010000
00000000
00010000
,
00001000
00022000
00000000
00000000
,
00000000
00000000
00000000
00000000
00000000
00000000
00000000
00033000
,
00000000
00000000
00000000
00000000
,
00001000
00001100
00000001
00000101
,
00000001
00000011
00000010
00001010
,
00001000
00010000
00100000
10000000
,
00100000
00010000
00001000
00000100
,
00000001
00000010
00001000
00010000
,
01000000
10000000
00100000
00010000
,
00001000
00010000
00000100
00000010
,
00000001
00001000
00010000
00000000
,
00100000
10010000
10000000
01000000
,
00100000
00010000
00001000
00000001
,
00000001
00000000
00001000
00000100
00001000
00000000
00000001
00000000
,
00000010
00000000
00000000
00001000
00010000
00000000
00100000
00000000
,
01000000
00000000
10000000
01000000
00010000
00000000
00001000
00000000
,
00000002
00000000
00000000
00001000
00000003
00000000
00000010
00000000
,
00000100
00000010
00000001
00000010
,
00001000
00000000
00000000
00000000
00000010
00000000
00000000
00000000
00020000
00000000
00000000
00000000
00000000
00030000
00000000
00000000
,
00001000
01000000
00000000
01000000
,
00010000
00100000
10000000
00100000
,
00010000
00000000
10000000
01000000
10000000
00000000
00010000
00000000
,
01000000
00001000
00000100
00000001
,
00000100
00001000
00010000
00010000
,
20100000
00000000
00000000
00010000
30000000
00000000
00000000
00000000
,
00001000
00010100
00010000
01001000
,
00010000
00000000
00010010
00000000
00002000
00000000
00000000
00003000
,
00001000
00100000
00010000
00000000
10000000
00000000
01000000
00000000
,
00100000
00010000
00100000
00000000
00010000
00000000
00000100
00001000
,
00000100
00000000
00000010
00000001
00000010
00000000
00000010
00000000
,
00001000
00000000
00010000
00000000
00100000
00100000
00000000
00000000
,
10000000
00000000
01000000
00000000
10000000
10000000
00010000
00000000
,
01010000
00000000
00000000
00011000
00000000
00000000
00001100
00000000
,
00000010
00000011
00000001
00000101
,
00000010
00000000
00001000
00000000
00022000
00000000
00000000
00033000
,
00001000
00010000
00001000
00000000
00000000
00000000
10000000
00000000
,
10000000
00100000
10000000
00000000
01000000
00000000
00010000
00000000
,
00010000
00000000
00001000
00000100
00001000
00000000
00010000
00000000
,
00001000
00000000
00000000
00000010
00000001
00000000
00000010
00000000
,
00001000
00000000
00001000
00010000
00010000
00010000
00000000
00000000
,
01020000
00000000
00000000
10000000
00000000
00000000
00130000
00000000
,
10000000
01000000
00010000
00001000
,
00000100
00000000
00000001
00000000
00000020
00000000
00000000
00000030
,
00000010
00000001
00001000
00000000
00000000
00000000
00010000
00001000
,
00010000
00100000
01000000
20000000
,
31000000
00000000
01000000
10000000
00010000
00000000
01000000
00000000
,
00010000
00000000
00100000
00000000
00001000
00000000
00010000
00010000
,
00001000
00000100
00000000
00000010
,
00000001
00000100
00001000
00010000
,
00100000
10000000
01000000
00010000
,
00001000
00000010
00000001
00000100
,
00001000
00011000
00010000
00110000
,
00100000
10100000
10000000
11000000
,
01000000
01010000
00010000
00011000
,
00001000
00001100
00000100
00000101
,
00000001
00000010
00001000
00000100
,
00000001
00000010
00001000
00010000
,
01000000
10000000
00100000
00010000
,
00001000
00010000
00022000
00033000
;

//---------------dance-single - ----------------
#NOTES:
     dance-single:
     :
     Beginner:
     1:
     0.137,0.216,0.060,0.008,0.000:
0000
0000
0000
0000
,
0000
0000
0000
0000
,
0000
0000
0000
0000
,
0000
0000
0000
0000
,
1000
1000
0000
0000
,
0001
0001
0000
0000
,
0000
0000
0000
0000
,
0000
0000
0000
0000
,
0000
0100
0000
0010
,
0000
1000
0000
0001
,
0000
0100
0000
0001
,
0000
0010
0000
2000
,
0000
0000
0000
0000
,
0000
0000
0000
0000
,
3000
0000
0000
0000
,
0100
0000
0010
0000
,
0000
1001
0000
0001
,
0000
1000
0000
0000
,
0100
0100
0100
0100
,
0000
0000
0010
0010
,
0000
0001
0001
0000
,
0000
0000
0000
0000
,
1000
0001
1000
0001
,
0000
0000
1000
0000
,
0000
0100
0000
0001
,
0000
1000
0000
0000
,
0010
0010
0010
0010
,
0000
0001
0001
0000
,
1001
0000
0100
0000
,
0010
0000
0000
0000
,
0100
0100
0000
1000
,
0000
0001
0000
0000
,
0010
0010
0000
0000
,
0001
0001
0000
0000
,
1000
1000
1000
1000
,
0000
0000
1001
0000
,
0010
0010
0000
0000
,
0001
0001
0000
0000
,
0000
1000
0000
0100
,
0000
0010
0000
0001
,
0001
0001
0000
0000
,
0100
0100
0000
0000
,
0010
0010
0000
0000
,
0000
0000
1000
1000
,
0000
0100
0000
0000
,
0010
0010
0000
0000
,
0001
1000
0001
1000
,
0000
0000
1000
0000
,
0100
0100
0000
0010
,
0010
0010
0000
0000
,
1000
0100
1000
0100
,
0010
0001
0010
0001
,
0100
0100
0000
0010
,
0010
0010
0000
0100
,
0000
1001
0000
1001
,
0000
1001
0000
1001
,
0000
1000
0000
0001
,
0000
0100
0000
0010
,
0000
1000
0000
0001
,
0000
0100
0000
0010
,
0010
0000
0100
0000
,
1000
0000
0100
0000
,
0001
0000
0010
0000
,
0001
0000
1001
0000
;
