#TITLE:Starlight Tracer;
#SUBTITLE:;
#ARTIST:Ryazan;
#TITLETRANSLIT:;
#SUBTITLETRANSLIT:;
#ARTISTTRANSLIT:;
#GENRE:;
#CREDIT:Loodee;
#BANNER:starlight tracer-bn.png;
#BACKGROUND:starlight tracer-bg.png;
#LYRICSPATH:;
#CDTITLE:loodeecdtitle.png;
#MUSIC:Starlight Tracer.ogg;
#OFFSET:0.005;
#SAMPLESTART:89.143;
#SAMPLELENGTH:21.943;
#SELECTABLE:YES;
#BPMS:0.000=175.000;
#STOPS:;
#BGCHANGES:;
#KEYSOUNDS:;

//---------------dance-single - Loodee----------------
#NOTES:
     dance-single:
     Loodee:
     Challenge:
     12:
     0.965,1.000,0.112,0.506,1.000:
0000
0000
0000
0000
,
0000
0000
0000
0000
,
0000
0000
0000
0000
,
0000
0000
0000
0000
,
0000
0000
0000
0000
,
0000
0000
0000
0000
,
0000
0000
0000
0000
,
0000
0000
0000
0000
,
1000
0020
0230
0302
1003
0002
0013
0200
,
1300
0200
0320
0032
0103
0010
0100
0001
,
1000
0100
0010
0100
1000
0001
1000
0010
,
0100
0001
0010
0100
0010
0001
1000
0010
,
0100
0020
2030
3200
0310
0200
0310
0002
,
0103
0002
2003
3020
1030
0100
0010
0001
,
0100
0010
1000
0001
0100
0010
1000
0100
,
0010
0001
0010
0001
0100
0010
1000
0001
,
1000
0100
1000
0000
0001
0000
0100
0000
0010
0000
0100
0000
0010
0000
1000
0000
,
0001
0000
1000
0100
0010
0000
0001
0000
0100
0000
0010
0000
1000
0000
0001
0100
,
0001
1000
0001
0000
0010
0000
0100
0000
1000
0000
0100
0000
0010
0000
0001
0000
,
0100
0000
0001
0010
0100
0000
1000
0100
1000
0000
0001
0000
0100
0000
0010
0000
,
1000
0001
0010
0000
0100
0000
0010
0000
0001
0000
0100
0000
0010
0000
1000
0001
,
1000
0001
0100
0000
0010
0000
1000
0000
0100
0000
0010
0000
0100
0000
1000
0010
,
0100
0001
0100
0010
1000
0100
0010
0001
0100
0010
1000
0001
0100
0010
0100
0001
,
1000
0100
1000
0010
1000
0001
1000
0100
0010
0001
1000
0001
1000
0001
1000
0001
,
0020
0000
0000
0230
0000
0000
2300
0000
,
0000
3020
0000
0000
0230
0000
0302
0000
,
0023
0000
0000
0230
0000
0000
0320
0000
,
0000
0032
0000
0000
2003
0000
3020
0000
,
0230
0000
0000
0302
0000
0000
0023
0000
,
0000
0230
0000
0000
0320
0000
0032
0000
,
2003
0000
0000
3020
0000
0000
0230
0000
,
0000
0302
0000
0000
2003
0000
3002
0000
,
0023
0000
0000
0032
0000
0000
0203
0000
,
0000
0320
0000
0000
2030
0000
3020
0000
,
2030
0000
0000
3200
0000
0000
0320
0000
,
0000
0230
0000
0000
0320
0000
0032
0000
,
0203
0000
0000
0320
0000
0000
2030
0000
,
0000
3002
0000
0000
2003
0000
3200
0000
,
0320
0000
0000
0230
0000
0000
2300
0000
,
0000
3020
0000
0000
0230
0000
0302
0000
,
1003
0100
0010
0100
0010
0001
1000
0100
,
0010
0100
0010
0001
1000
0010
0100
0010
,
0100
0001
1000
0010
0100
0010
0100
0001
,
1000
0100
0010
0100
1000
0010
0100
0001
,
1000
0100
0010
0100
0010
0001
0100
0010
,
0100
0000
0100
0001
0000
0001
1000
0000
0100
0010
0001
0100
0010
1000
0001
0010
,
0100
0000
0100
1000
0000
1000
0001
0000
0100
0010
1000
0100
0010
0001
0100
0010
,
1000
0000
1000
0010
0000
0010
0100
0000
0001
0010
0100
0010
0001
1000
0001
0100
,
0001
0000
0001
1000
0000
1000
0001
0000
1000
0100
0010
0001
1000
0100
0010
0001
,
0100
0000
0100
0010
0000
0010
0100
0000
0001
0010
0100
1000
0001
0010
0100
1000
,
0001
0000
0001
1000
0000
1000
0001
0000
1000
0010
0100
0001
1000
0010
0100
0001
,
1000
0000
1000
0001
0000
0001
1000
0000
0001
0100
0010
1000
0001
0100
0010
1000
,
0001
0000
0001
0010
0000
0010
0001
0000
1000
0010
1000
0001
1000
0100
0010
0001
,
1000
0000
1000
0010
0000
0010
1000
0000
0001
0100
0001
0100
0010
1000
0001
1000
,
0100
0000
0100
0010
0000
0010
0100
0000
1000
0100
0010
0001
0100
0010
1000
0100
,
0010
0000
0010
0001
0000
0001
0010
0000
0001
0100
0010
1000
0010
0100
0001
1000
,
0100
0000
0000
0110
0000
0000
0011
0000
0000
1000
0100
1000
0010
1000
0001
0100
,
0001
0000
0000
0110
0000
0000
1001
0000
0000
0001
1000
0001
0010
0001
0100
0001
,
1000
0000
0000
0011
0000
0000
1100
0000
0000
0100
1000
0010
1000
0001
1000
0010
,
0100
0000
0000
1001
0000
0000
0101
0000
0000
0100
0001
1000
0010
1000
0100
1000
,
0001
1000
0100
1000
0001
0010
0100
0010
0001
1000
0100
1000
0001
0010
0100
0010
,
0001
1000
0010
1000
0001
0100
0010
1000
0001
1000
0010
1000
0001
0100
0010
1000
,
0001
0010
0100
0010
0001
0100
0010
1000
0001
1000
0100
1000
0100
1000
0100
1000
,
0001
0000
0000
0000
0000
0000
0000
0000
0000
0000
0000
0000
0000
0000
0000
0000
0000
0000
0000
0000
0000
0000
0000
0000
0M00
0000
0000
0000
0000
0000
0000
0000
0000
0000
0000
0000
0000
0000
0000
0000
0000
0000
00M0
0000
0000
0000
0000
0000
0000
0000
0000
0000
0M00
0000
0000
0000
0000
0000
0000
0000
0M00
0000
0000
0000
000M
0000
M000
0000
0000
0000
0000
0000
0000
0000
0000
0000
0000
0000
0000
0000
0000
0000
0000
0000
0M00
0000
0000
0000
M0M0
0000
0000
0000
0000
0000
0000
0000
0000
0000
0000
0000
0M00
0000
000M
0000
0000
0000
0000
0000
0000
0000
0000
0000
0000
0000
0000
0000
M000
0000
0000
0000
0000
0000
0000
0000
0000
0000
00M0
0000
0000
0000
0000
0000
0M00
0000
0000
0000
0000
0000
0000
0000
0000
0000
0000
0000
0000
0000
0000
0000
0M00
0000
000M
0000
0000
0000
0000
0000
M000
0000
0000
0000
0000
0000
0000
0000
0000
0000
0000
0000
00M0
0000
0000
0000
0000
0000
0000
0000
000M
0000
0000
0000
0M00
0000
0000
0000
0000
0000
0000
0000
0000
0000
0000
0000
,
0000
0000
0000
0000
M000
0000
00M0
0000
0000
0000
0000
0000
0000
0000
0000
0000
0000
0000
0000
0000
00M0
0000
0000
0000
0M00
0000
0000
0000
0000
0000
0000
0000
0000
0000
0000
0000
000M
0000
0000
0000
0000
0000
M000
0000
0000
0000
0000
0000
0000
0000
0000
0000
000M
0000
0000
0000
0000
0000
0000
0000
M000
0000
0000
0000
0000
0000
00M0
0000
0000
0000
0000
0000
0000
0000
0000
0000
0000
0000
0000
0000
0000
0000
0000
0000
0M00
0000
0000
0000
0000
0000
M000
0000
0000
0000
0000
0000
0000
0000
0000
0000
0M00
0000
000M
0000
0000
0000
0000
0000
0000
0000
0000
0000
0000
0000
0000
0000
0000
0000
0000
0000
00M0
0000
0000
M000
0000
0000
0000
0000
0000
0000
0000
0000
000M
0000
0000
0000
0000
0000
0M00
0000
0000
0000
0000
0000
00M0
0000
0000
0000
0000
0000
M000
0000
0000
0000
0000
0000
0000
0000
0000
0000
0000
0000
0000
0000
0000
0000
0000
0000
0M00
0000
0000
0000
0000
0000
00M0
0000
0000
0000
0000
0000
0000
0000
0000
0000
0000
0000
0000
0000
0000
0000
0000
0000
,
1001
0000
0000
0101
0000
0000
0011
0000
0000
1001
0000
0000
1010
0000
1010
0000
,
1001
0000
0001
0010
0000
0001
1000
0010
1000
0001
0000
1000
0100
0000
0010
0000
,
0001
0000
0100
0001
0000
1000
0001
0010
0100
1000
0010
1000
0001
0100
0010
0100
,
0001
0000
0010
0100
0000
0010
0001
0000
1000
0000
0010
0100
0000
0001
0010
0000
,
0100
0000
1000
0001
0000
1000
0001
0010
0001
1000
0000
0001
0100
0000
0010
0000
,
1000
0000
0001
0010
0000
0001
1000
0000
0001
0010
0001
0010
0100
0000
1000
0000
,
0010
0000
1000
0100
0000
0010
0001
0000
0100
0001
0010
0001
1000
0100
0010
0001
,
0010
0000
0010
0001
0000
0001
1000
0000
0010
1000
0100
0010
0001
0100
0001
1000
,
0100
0000
0100
0010
0000
0010
0100
0000
2000
0000
3020
0000
0230
0000
0302
0000
,
0013
0000
0010
0100
0000
0100
0010
0001
1000
0010
0000
1000
0001
0000
0010
0000
,
0100
0000
0010
0100
0000
0010
0100
1000
0010
0100
0001
1000
0001
1000
0100
0010
,
0001
0000
0100
0010
0000
1000
0100
0000
0010
0000
0001
1000
0000
0100
0010
0000
,
0001
0000
1000
0010
0000
1000
0010
0100
0001
0010
0000
0100
0010
0000
0001
0000
,
1000
0100
0010
0001
1000
0100
1000
0100
1000
0100
1000
0100
1000
0010
0100
0001
,
0010
0000
0010
0100
0000
0100
0010
0000
0001
1000
0001
1000
0010
0000
0100
0000
,
0001
0000
0001
0010
0000
0010
0001
0000
1000
0100
1000
0100
0010
0000
0001
0000
,
1000
0000
1000
0010
0000
0010
1000
0000
0001
0010
0001
0010
0100
0000
1000
0000
,
0010
0000
0010
1000
0000
1000
0010
0000
1000
0001
1000
0001
0010
0000
0001
0000
,
0100
0000
0100
0010
0000
0010
0100
0000
0001
0100
0001
0100
0010
0000
1000
0000
,
0001
0000
0001
1000
0000
1000
0100
0000
0010
0001
0010
0001
1000
0000
0010
0000
,
0100
0000
0100
0001
0000
0001
1000
0000
0100
0010
0100
0010
0001
0000
0100
0000
,
0010
0000
0010
1000
0000
1000
0001
0000
0010
0001
0010
0001
1000
0000
0010
0000
,
0100
0000
0100
0001
0000
0001
1000
0000
0010
0100
0010
0100
0001
0000
1000
0000
,
0100
0000
1000
0000
0001
0000
1000
0000
0100
1000
0001
1000
0001
0000
0100
0000
,
0010
0000
0100
0000
0001
0000
1000
0000
0100
0010
0001
0010
0001
0000
1000
0000
,
0010
0000
0100
0000
0001
0000
0100
0000
0010
1000
0001
1000
0001
0000
0010
0000
,
0100
0000
1000
0000
0010
0000
0100
0000
0001
1000
0100
1000
0100
0000
0010
0000
,
0001
0100
0001
0100
,
0001
1000
0001
1000
0001
1000
0001
1000
0001
1000
0001
1000
0001
1000
0001
1000
,
0001
0010
0100
1000
0001
0010
0100
1000
0010
0100
0001
1000
0010
0100
0001
1000
,
0100
0010
0001
0010
0100
0010
0001
1000
0010
0100
0010
1000
0001
1000
0100
0010
,
000M
0000
M000
0000
,
000M
0000
M000
0000
,
000M
0000
0000
0000
;

//---------------dance-single - Loodee----------------
#NOTES:
     dance-single:
     Loodee:
     Hard:
     9:
     0.577,0.750,0.052,0.476,0.164:
0000
0000
0000
0000
,
0000
0000
0000
0000
,
0000
0000
0000
0000
,
0000
0000
0000
0000
,
0000
0000
0000
0000
,
0000
0000
0000
0000
,
0000
0000
0000
0000
,
0000
0000
0000
0000
,
1000
0100
0010
0001
0000
0001
0000
0100
,
0000
0100
0001
0010
0100
1000
0001
1000
,
0010
0000
0100
0000
0001
1000
0001
1000
,
0100
0000
0010
0000
0001
0010
0100
1000
,
0001
0100
0010
1000
0000
1000
0000
0001
,
0000
0001
1000
0100
0010
0001
1000
0001
,
1000
0000
0010
0000
1000
0100
1000
0100
,
0010
0000
0001
0000
0100
0010
1000
0010
,
1000
1000
0001
0010
0000
0100
0000
0001
,
0000
0001
0100
1000
0001
0000
0100
0010
,
0100
0100
0001
1000
0000
0010
0000
0001
,
0000
0001
0010
0100
0001
1000
0001
1000
,
0001
0010
0001
0100
0010
1000
0100
1000
,
0001
0010
0001
0100
0010
1000
0100
1000
,
0100
0100
0010
0001
0100
0100
1000
0100
,
0000
0001
0001
1000
0001
0010
0000
0100
,
2000
0000
0000
3020
0000
0000
0230
0000
,
0000
0302
0000
0000
2003
0000
3200
0000
,
0320
0000
0000
0230
0000
0000
0320
0000
,
0000
0032
0000
0000
0203
0000
0320
0000
,
2030
0000
0000
3002
0000
0000
0203
0000
,
0000
0302
0000
0000
0023
0000
0230
0000
,
2300
0000
0000
3020
0000
0000
2030
0000
,
0000
3200
0000
0000
0320
0000
0032
0000
,
2003
0000
0000
3020
0000
0000
2030
0000
,
0000
3002
0000
0000
0023
0000
0230
0000
,
0320
0000
0000
0032
0000
0000
2003
0000
,
0000
3002
0000
0000
0203
0000
0320
0000
,
2030
0000
0000
3200
0000
0000
2300
0000
,
0000
3020
0000
0000
0230
0000
0302
0000
,
2003
0000
0000
3002
0000
0000
2003
0000
,
0000
3002
0000
0000
0023
0000
0230
0000
,
1300
0100
1000
0001
1000
0000
0010
0000
,
0100
0001
0100
0010
1000
0000
1000
0000
,
1000
0100
0010
0001
0010
0000
0001
0000
,
1000
0010
1000
0010
0100
0000
0100
0000
,
0100
0000
0000
0001
0000
0000
1000
0000
0100
0000
0100
0000
0010
0000
0010
0000
,
0001
0000
0000
0100
0000
0000
0001
0000
0010
0000
0010
0000
0100
0000
0100
0000
,
1000
0000
0000
0010
0000
0000
0100
0000
0001
0000
0001
0000
1000
0000
1000
0000
,
0001
0000
0000
0010
0000
0000
0100
0000
0010
0000
0010
0000
0001
0000
0000
0000
,
1001
0000
0001
0000
1000
1000
0010
0010
,
1000
0000
0100
0000
0010
0010
0001
0001
,
0100
0000
0001
0000
0010
0010
0001
0001
,
1000
0000
0001
0000
1000
0001
1000
0001
,
1000
0000
0000
0010
0000
0000
1000
0000
0001
0000
0100
0000
0001
0000
0100
0000
,
0010
0000
0000
1000
0000
0000
0001
0000
1000
0000
0100
0000
1000
0000
0100
0000
,
0010
0000
0000
0001
0000
0000
0100
0000
0010
0000
1000
0000
0010
0000
1000
0000
,
0001
0000
0000
1000
0000
0000
0100
0000
0010
0000
0001
0000
0010
0000
0001
0000
,
1000
0000
0000
0010
0000
0000
1000
0000
0000
0001
0000
0000
0010
0000
0100
0000
,
0010
0000
0000
0001
0000
0000
0100
0000
0000
0010
0000
0000
1000
0000
0100
0000
,
0010
0000
0000
0001
0000
0000
0100
0000
0000
0001
0000
0000
0010
0000
0100
0000
,
1000
0000
0000
0010
0000
0000
0100
0000
0000
0010
0000
0000
1000
0000
0100
0000
,
0000
0010
0000
0000
0001
0000
0010
0000
0000
0100
0000
0000
1000
0000
0001
0000
,
0000
1000
0000
0000
0100
0000
0010
0000
0000
0001
0000
0000
1000
0000
0001
0000
,
1000
0000
0001
0000
1000
0000
0001
0000
1000
0000
0001
0000
0000
0100
0000
0000
,
1001
0000
0000
0000
,
0000
0000
0000
0000
,
1001
0000
0000
1001
0000
0000
1001
0000
0000
0001
0000
0000
0010
0000
0100
0000
,
1000
0000
0000
0010
0000
0000
0100
0010
0000
1000
0000
0000
0001
0000
0010
0000
,
0001
0000
0000
0001
0000
0000
0100
0010
0000
0100
0000
0000
0001
0000
1000
0000
,
0200
0000
0000
0310
0000
0000
0001
0000
0200
0000
0000
0310
0000
0000
1000
0000
,
0020
0000
0000
0130
0000
0000
0001
1000
0000
0001
0000
0000
0010
0000
0100
0000
,
0002
0000
0000
0103
0000
0000
2000
0000
3001
0100
0000
0000
0010
0000
0100
0000
,
2000
0000
0000
3100
0000
0000
0002
0000
0103
0010
0000
0000
1000
0000
0001
0000
,
2000
0000
0000
3100
0000
0000
2000
0000
3001
0000
0010
0000
0100
0000
1000
0000
,
0020
0000
0000
0130
0000
0000
0001
0000
0020
0000
2030
0000
3020
0000
0032
0000
,
0103
0000
0000
0010
0000
0000
1000
0001
0000
1000
0000
0000
0100
0000
0010
0000
,
0001
0000
0000
0001
0000
0000
0001
0000
0100
0000
0010
0000
1000
0000
0100
0000
,
1000
0010
1000
0100
1000
0010
0100
0001
,
0010
0100
0010
0001
0100
0010
1000
0001
,
0200
0000
0000
0000
0010
0000
0000
0000
0010
0000
0000
0000
0010
0000
0000
0300
,
1001
0000
0000
0000
,
1001
0000
0001
0000
0010
0010
0100
1000
,
0010
0000
0100
0000
0010
0010
1000
0100
,
0010
0000
0001
0000
1000
1000
0001
0010
,
0100
0000
1000
0000
0001
0001
0100
0010
,
0100
0000
0100
0000
0001
0001
1000
0010
,
1000
0000
0100
0000
0010
0010
0001
0010
,
0001
0000
1000
0000
0001
0001
0100
0010
,
1000
0000
0100
0000
1000
1000
0010
0100
,
0001
1000
0001
0010
,
0001
1000
0010
1000
,
0100
0010
0100
1000
,
0001
0100
0001
0010
,
0002
0100
0000
0100
,
1000
0010
0000
0010
,
1000
0100
0000
0100
,
1000
0100
0000
0100
,
0003
0000
0000
0000
;

//---------------dance-single - Loodee----------------
#NOTES:
     dance-single:
     Loodee:
     Medium:
     6:
     0.385,0.534,0.074,0.141,0.000:
0000
0000
0000
0000
,
0000
0000
0000
0000
,
0000
0000
0000
0000
,
0000
0000
0000
0000
,
0000
0000
0000
0000
,
0000
0000
0000
0000
,
0000
0000
0000
0000
,
0000
0000
0000
0000
,
0001
0000
1000
0010
0000
0010
0000
1000
,
0000
1000
0001
0000
1000
0000
0100
0000
,
0010
0001
0100
0001
,
1000
0001
1000
0010
,
1000
0000
0001
0010
0000
0010
0000
0001
,
0000
0001
1000
0000
0010
0000
0100
0000
,
0010
1000
0001
1000
,
0100
0010
0001
1000
,
0001
0000
0100
0010
0000
0010
0000
0100
,
0000
0100
0001
0000
1000
0000
0100
0000
,
0010
0001
0010
0001
0000
1000
0000
0010
,
0000
0010
1000
0000
0001
1000
0001
1000
,
0001
0010
0001
0000
1000
0100
1000
0000
,
0001
0100
0001
0000
1000
0010
1000
0000
,
0002
0000
0000
0000
0000
0000
0000
2000
,
0000
0000
0000
0000
0000
0000
0000
3003
,
2001
0000
0000
3002
,
0000
0000
1003
0100
,
2000
0000
0000
3002
,
0000
0000
0103
0010
,
2000
0000
0000
3200
,
0000
0000
0310
0001
,
0200
0000
0000
0320
,
0000
0000
0130
0001
,
2000
0000
0000
3002
,
0000
0000
1003
0100
,
0020
0000
0000
0032
,
0000
0000
0103
0001
,
0200
0000
0000
0320
,
0000
0000
1030
0001
,
2000
0000
0000
3200
,
0000
0000
1300
0001
,
0100
0000
0000
0010
,
0000
0000
1000
0001
,
1000
0000
0000
0100
,
0000
0000
0010
0001
,
1000
0000
0000
0010
,
0000
0000
1000
0100
,
0010
0000
0000
0000
0001
0100
0001
1000
,
0001
0000
0000
0000
0100
0010
1000
0000
,
1001
0000
0000
0000
0001
0010
0001
0000
,
1000
0000
0010
0000
0100
0010
0100
0001
,
1000
0000
0100
0000
1000
0001
1000
0001
,
0100
0000
0010
0000
1000
0010
1000
0010
,
0100
0000
0001
0000
1000
0100
1000
0100
,
0010
0000
0001
0000
0100
0010
0100
0001
,
1000
0000
0001
0000
1000
0100
0010
0001
,
0100
0000
0010
0000
0100
0001
1000
0001
,
1000
0000
0000
1100
0000
0000
0001
1000
,
0001
0000
0000
0101
0000
0000
1000
0001
,
1000
0000
0000
0110
0000
0000
0001
1000
,
0001
0000
0000
1001
0000
0000
1000
0001
,
0000
0000
1000
0001
0000
0000
1000
0001
,
0000
0000
1000
0001
0000
0000
1000
0001
,
1000
0001
1000
0001
1000
0001
0000
0000
,
0110
0000
0000
0000
,
0000
0000
0000
0000
,
1001
0000
0000
0110
0000
0000
0001
1000
,
0001
1000
0100
0000
0010
0001
1000
0001
,
0100
0000
0010
0000
1000
0001
1000
0100
,
0010
0001
0010
0001
,
1000
0010
1000
0010
,
0100
0000
0001
0000
1000
0100
1000
0100
,
0010
0000
0100
0000
1000
0100
1000
0001
,
1000
0010
0100
0001
,
1001
0000
0000
0000
,
0001
0000
0010
0000
0100
0010
0001
1000
,
0001
0000
0000
0000
,
1000
0010
0100
0001
1000
0010
0100
0001
,
1000
0001
1000
0001
1000
0001
1000
0000
,
0002
0000
0000
0000
,
1003
0000
0000
0000
,
1000
0000
0010
0000
0100
0010
1000
0000
,
0001
0000
1000
0000
0100
0010
0001
0000
,
0100
0000
0001
0000
1000
0010
1000
0000
,
0100
0000
1000
0000
0001
0100
0001
0000
,
0010
0000
0100
0000
0010
0001
0010
0000
,
0100
0000
1000
0000
0001
1000
0001
0000
,
0100
0000
0010
0000
1000
0001
0010
0000
,
0100
0000
1000
0000
0001
0100
0010
0000
,
0100
0001
0100
0001
,
1000
0100
1000
0100
,
0010
0001
1000
0001
,
1000
0010
1000
0010
,
0100
0001
0000
0001
,
1000
0001
0000
0001
,
1000
0100
0000
0100
,
1000
0010
0000
0010
;

//---------------dance-single - Loodee----------------
#NOTES:
     dance-single:
     Loodee:
     Easy:
     3:
     0.214,0.286,0.045,0.089,0.000:
0000
0000
0000
0000
,
0000
0000
0000
0000
,
0000
0000
0000
0000
,
0000
0000
0000
0000
,
0000
0000
0000
0000
,
0000
0000
0000
0000
,
0000
0000
0000
0000
,
0000
0000
0000
0000
,
1000
0100
1000
0000
,
1000
0001
1000
0000
,
0001
1000
0001
0000
,
0100
0010
0100
0000
,
0001
0100
0001
0000
,
0001
1000
0001
0000
,
1000
0100
1000
0000
,
0100
0010
0100
0000
,
1000
0001
1000
0000
,
1000
0010
1000
0000
,
1000
0001
1000
0000
,
1000
0010
1000
0001
,
1000
0001
1000
0001
,
0100
0010
0100
0010
,
2000
0000
0000
0000
,
0000
0000
0000
3000
,
1002
0000
0000
0000
,
0000
0000
0003
0000
,
0020
0000
0000
0000
,
0000
0000
0030
0000
,
0002
0000
0000
0000
,
0000
0000
0003
0000
,
2000
0000
0000
0000
,
0000
0000
3000
0000
,
0020
0000
0000
0000
,
0000
0000
0030
0000
,
0200
0000
0000
0000
,
0000
0000
0300
0000
,
0002
0000
0000
0000
,
0000
0000
0003
0000
,
0020
0000
0000
0000
,
0000
0000
0030
0000
,
0100
0000
0000
0000
,
0000
0000
0000
0000
,
0100
0000
0000
0000
,
0000
0000
0000
0000
,
0100
0000
0000
0000
,
0000
0000
0000
0000
,
1000
0000
1000
0010
,
0100
0000
0100
0000
,
0110
0000
0010
1000
,
0001
0000
0001
1000
,
0001
0000
0001
0010
,
0100
0000
0100
0010
,
0001
0000
0001
1000
,
0100
0000
0100
1000
,
0001
0000
0001
0100
,
0010
0000
0010
1000
,
0001
0000
0000
0000
,
0101
0000
0000
0000
,
1100
0000
0000
0000
,
0011
0000
0000
0000
,
0001
0000
1000
0000
,
0010
0000
0100
0000
,
0001
0001
1000
1000
,
0001
0000
0000
0000
,
0000
0000
0000
0000
,
1010
0000
0000
0010
,
1000
0001
1000
0100
,
1000
0001
1000
0001
,
0100
0000
0100
0000
,
0100
0001
1000
0100
,
0010
0001
1000
0001
,
0100
0010
0100
0010
,
1000
0000
0001
0000
,
0010
0000
0000
0000
,
0010
0001
1000
0001
,
0100
0000
0000
0000
,
0100
0001
1000
0001
,
1000
0001
1000
0001
,
2000
0000
0000
0000
,
3100
0000
0000
0000
,
1000
0001
1000
0001
,
1000
0010
1000
0010
,
1000
0100
1000
0100
,
0010
0001
0010
0001
,
0010
0100
0010
0100
,
0010
0001
1000
0001
,
1000
0010
1000
0010
,
0100
0010
0100
0010
,
1000
0000
1000
0000
,
0001
0000
0001
0000
,
0010
0000
0010
0000
,
0100
0000
0100
0000
,
2000
0000
0000
0000
,
0002
0000
0000
0000
,
0000
0000
0000
0000
,
0000
0000
0000
0000
,
3003
0000
0000
0000
;
