#VERSION:0.81;
#TITLE:Silly Ho;
#SUBTITLE:;
#ARTIST:TLC;
#TITLETRANSLIT:;
#SUBTITLETRANSLIT:;
#ARTISTTRANSLIT:;
#GENRE:;
#ORIGIN:;
#CREDIT:;
#BANNER:[ROUND A] - Silly Hobn.png;
#BACKGROUND:[ROUND A] - Silly Hobg.png;
#PREVIEWVID:;
#JACKET:[ROUND A] - Silly Hojacket.png;
#CDIMAGE:;
#DISCIMAGE:;
#LYRICSPATH:[ROUND A] - Silly Ho.lrc;
#CDTITLE:encorerebirth.png;
#MUSIC:[ROUND A] - Silly Ho.ogg;
#OFFSET:-0.130;
#SAMPLESTART:39.701;
#SAMPLELENGTH:15.000;
#SELECTABLE:YES;
#DISPLAYBPM:146.000;
#BPMS:0.000=145.594,
15.000=291.187,
17.000=145.594,
32.000=291.187,
34.000=145.594,
49.000=291.187,
51.000=145.594,
66.000=291.187,
68.000=145.594,
83.000=291.187,
85.000=145.594,
100.000=291.187,
102.000=145.594,
117.000=291.187,
119.000=145.594,
134.000=291.187,
136.000=145.594,
151.000=291.187,
153.000=145.594,
168.000=291.187,
170.000=145.594;
#STOPS:;
#DELAYS:;
#WARPS:;
#TIMESIGNATURES:0.000=4=4;
#TICKCOUNTS:0.000=4;
#COMBOS:0.000=1;
#SPEEDS:0.000=1.000=0.000=0;
#SCROLLS:0.000=1.000;
#FAKES:;
#LABELS:0.000=Song Start;
#BGCHANGES:;
#KEYSOUNDS:;
#ATTACKS:
;

//---------------dance-single - Spork!----------------
#NOTEDATA:;
#CHARTNAME:Spork! - Beginner;
#STEPSTYPE:dance-single;
#DESCRIPTION:Spork!;
#CHARTSTYLE:;
#DIFFICULTY:Beginner;
#METER:2;
#RADARVALUES:0.180,0.220,0.030,0.180,0.000,70.000,2.000,12.000,0.000,0.000,0.000,0.000,0.000,0.180,0.220,0.030,0.180,0.000,70.000,2.000,12.000,0.000,0.000,0.000,0.000,0.000;
#CREDIT:Spork!;
#DISPLAYBPM:146.000;
#NOTES:
// measure 0
0000
0000
0000
0000
,  // measure 1
0000
0000
0000
0000
,  // measure 2
0000
0000
0000
0000
,  // measure 3
0000
0000
0000
0000
,  // measure 4
0000
0000
0010
0000
,  // measure 5
0010
0000
0010
0010
,  // measure 6
0000
0000
0100
0000
,  // measure 7
0100
0000
0100
0100
,  // measure 8
0000
0000
0001
0000
,  // measure 9
1000
0000
0200
0000
,  // measure 10
0300
0000
0020
0000
,  // measure 11
0030
0000
0100
0100
,  // measure 12
0100
0000
0000
1000
,  // measure 13
0000
0001
0000
0200
,  // measure 14
0000
0300
0000
0020
,  // measure 15
0000
0030
0000
0100
,  // measure 16
0100
0100
0000
0000
,  // measure 17
0001
0000
0010
0000
,  // measure 18
0100
0000
0100
0000
,  // measure 19
0010
0000
0010
0000
,  // measure 20
0001
0001
0001
0000
,  // measure 21
0000
1000
0000
0010
,  // measure 22
0000
0100
0000
0100
,  // measure 23
0000
0010
0000
0010
,  // measure 24
0000
1000
1000
1000
,  // measure 25
0000
0000
0002
0000
,  // measure 26
1003
0000
2000
0000
,  // measure 27
3001
0000
0100
0000
,  // measure 28
0010
0000
2002
0000
,  // measure 29
3003
0000
0000
0020
,  // measure 30
0000
0130
0000
0200
,  // measure 31
0000
0310
0000
0001
,  // measure 32
0000
1000
0000
0220
,  // measure 33
0000
0330
0000
0000
,  // measure 34
0000
0001
0000
0001
,  // measure 35
0000
0001
0001
0000
,  // measure 36
0000
1000
0000
1000
,  // measure 37
0000
1000
1000
0000
,  // measure 38
0000
0000
0010
0000
,  // measure 39
0010
0000
0010
0010
,  // measure 40
0000
0000
0100
0000
,  // measure 41
0100
0000
0100
0100
;

//---------------dance-single - Spork!----------------
#NOTEDATA:;
#CHARTNAME:Spork! - Light;
#STEPSTYPE:dance-single;
#DESCRIPTION:Spork!;
#CHARTSTYLE:;
#DIFFICULTY:Easy;
#METER:4;
#RADARVALUES:0.415,0.379,0.602,0.511,0.000,119.000,40.000,34.000,0.000,0.000,0.000,0.000,0.000,0.415,0.379,0.602,0.511,0.000,119.000,40.000,34.000,0.000,0.000,0.000,0.000,0.000;
#CREDIT:Spork!;
#DISPLAYBPM:146.000;
#NOTES:
0000
0000
0000
0000
,
0000
0000
0000
0000
,
0000
0000
0000
0000
,
0000
0000
0000
0000
,
0000
0100
0010
1000
,
0001
0010
0010
0001
,
1000
0010
0010
1000
,
0100
0010
0020
0230
,
0300
0000
1000
0100
,
1000
0010
0220
0330
,
0100
0001
2002
3003
,
1000
0100
1100
0101
,
2200
3300
0000
0010
,
0100
0010
1000
2002
,
3003
0001
0010
0220
,
0330
1000
0001
0011
,
1010
0022
0033
0000
,
0001
0100
0010
1000
,
0202
0303
0001
0010
,
2200
3300
0001
0100
,
0110
1001
0220
0330
,
0000
1000
0100
0010
,
0001
2200
3300
1000
,
0010
0202
0303
0001
,
1000
1001
0110
2002
,
3003
0000
0001
0010
,
0100
0100
0010
0001
,
0100
0100
0010
1000
,
0001
1000
0100
0110
,
2002
3003
0000
1000
,
0010
0100
0100
0010
,
1000
0100
0100
0010
,
0001
0100
0001
1000
,
1001
2002
3003
0000
,
1000
1100
0000
0110
,
0000
1001
1001
0001
,
1000
1010
0000
1001
,
0000
0110
0220
0330
,
0000
0001
0011
0000
,
1001
0000
0110
0110
,
0010
0001
0101
0000
,
0110
0000
1001
2002
,
3003
0000
0000
0000
;

//---------------dance-single - Spork!----------------
#NOTEDATA:;
#CHARTNAME:Spork! - Standard;
#STEPSTYPE:dance-single;
#DESCRIPTION:Spork!;
#CHARTSTYLE:;
#DIFFICULTY:Medium;
#METER:5;
#RADARVALUES:0.466,0.442,0.572,0.662,0.000,135.000,38.000,44.000,0.000,0.000,0.000,0.000,0.000,0.466,0.442,0.572,0.662,0.000,135.000,38.000,44.000,0.000,0.000,0.000,0.000,0.000;
#CREDIT:Spork!;
#DISPLAYBPM:146.000;
#NOTES:
0000
0000
0000
0000
,
0000
0000
0000
0000
,
0000
0000
0000
0000
,
0000
0000
0000
0000
,
0000
0000
0022
0033
,
2020
3030
0011
0220
,
0330
0000
2200
3300
,
0202
0303
1100
2002
,
3003
0000
0001
0001
,
0101
0100
0100
0100
,
0110
1010
1000
1100
,
1000
0100
0100
0100
,
0100
0210
0000
1300
,
1000
1010
0010
0010
,
0010
0110
0100
0001
,
0001
0000
1000
1000
0001
0000
0001
0000
,
0001
0001
1002
0000
,
0013
0000
0010
0000
0100
0010
0001
0010
,
0001
0000
0001
0000
0100
0010
1000
0001
,
0100
0000
0100
0000
0010
0100
0001
0100
,
0001
0001
0001
2001
,
0000
0000
3010
0000
0010
0000
0100
0010
,
1000
0010
1000
0000
1000
0000
0100
1000
,
0001
1000
0010
0000
0010
0000
0100
0001
,
0010
0001
0010
0000
0010
0000
0010
0000
,
0120
0000
0031
0100
,
1000
0100
0001
0010
,
1000
0000
0010
0000
0001
0000
0001
1000
,
0001
0100
0010
0110
,
2002
3003
0000
1000
,
0010
0001
0010
1000
,
0100
0000
0001
0000
0100
0000
1000
0001
,
1000
0001
0100
0001
0010
0000
0010
0000
,
0110
2002
3003
0000
,
0000
0202
0303
2200
,
3300
0101
2002
3003
,
0000
2020
3030
0022
,
0033
1010
0220
0330
,
0000
0000
2200
3300
,
0202
0303
1100
0220
,
0330
0000
0022
0033
,
2020
3030
0011
2002
,
3003
0000
0000
0000
;

//---------------dance-single - Spork!----------------
#NOTEDATA:;
#CHARTNAME:Spork! - Expert;
#STEPSTYPE:dance-single;
#DESCRIPTION:Spork!;
#CHARTSTYLE:;
#DIFFICULTY:Challenge;
#METER:9;
#RADARVALUES:0.825,0.892,0.737,1.000,0.105,243.000,49.000,92.000,70.000,0.000,38.000,0.000,0.000,0.825,0.892,0.737,1.000,0.105,243.000,49.000,92.000,70.000,0.000,38.000,0.000,0.000;
#CREDIT:Spork!;
#DISPLAYBPM:146.000;
#NOTES:
0000
0000
0000
0000
,
0000
0000
0000
0000
,
0000
0000
0000
0000
,
0000
0000
0000
0000
0000
0000
M00M
M0M0
,
MM00
M000
0001
0010
0040
0130
1000
0010
,
0040
0130
0002
0003
2004
3003
0400
0310
,
0010
0001
0200
0300
0420
0330
1000
0100
,
0400
1300
0001
0000
0040
0030
0400
0300
,
M00M
0M0M
00MM
000M
2000
3100
0002
0103
,
0110
0100
0020
0130
2000
3000
2000
3000
,
0101
0100
0110
0100
2000
3100
1200
0300
,
0100
0001
0020
0130
0020
0030
0020
0030
,
0020
0030
MM00
0M0M
0MM0
0M00
0002
0013
,
2000
0000
3010
0000
0110
0000
0010
0000
0200
0000
0310
0000
0002
0000
0003
0100
,
0002
0000
1003
0000
1010
0000
0010
0000
0100
0000
0010
0000
0002
0000
0003
0010
,
0200
0301
0010
0110
0200
0310
0200
0300
,
0200
0300
0200
0300
00MM
M0M0
0MM0
00M0
,
2000
3010
0200
0310
0011
0010
0200
0301
,
0200
0000
0310
1000
0020
0000
0130
0000
1100
0000
0100
0000
0010
0000
1000
0000
,
0200
0000
0310
0001
0020
0000
0130
0000
0101
0000
0100
0000
0020
0000
0031
0000
,
2000
3000
2000
3000
2000
3000
0MM0
M0M0
,
00MM
00M0
0002
0103
0020
0130
1100
0100
,
0020
0000
1030
0000
0020
0000
0130
0001
2000
0000
3010
0000
0011
0000
0010
0000
,
0100
0000
0001
0000
0020
0000
0130
1000
0002
0000
0013
0000
1010
0000
0010
0000
,
0200
1300
0002
0003
0002
0003
0002
0003
,
0MM0
0M0M
MM10
0M00
0002
0103
0002
0013
,
1010
0000
0000
0000
0010
0000
0100
0000
0020
0000
0000
0030
0001
0000
0000
0000
2000
0000
0000
0000
3100
0000
0000
0000
2400
0000
0000
0300
3010
0000
0000
0000
,
0140
0000
0000
0000
0130
0000
0001
0000
0100
0000
0000
0000
0001
0000
0000
0000
0020
0000
0000
0000
0031
0000
0000
0000
2004
0000
0000
0003
3100
0000
0000
0000
,
0110
0000
0000
0000
0010
0000
0000
0000
0024
0000
0000
0003
0130
0000
0000
0000
2000
0000
0000
0000
3000
0000
0000
0000
4020
0000
0000
0000
3030
0000
0000
0000
,
0024
0033
MM00
0M0M
0MM0
0M00
2000
3001
,
0204
0000
0000
0003
0310
0000
0000
0000
0011
0000
0000
0000
0010
0000
1000
0000
2400
0000
0000
0300
3001
0000
0000
0000
0020
0000
0000
0000
0130
0000
0000
0000
,
0042
0000
0000
0030
0103
0000
0000
0000
0410
0000
0000
0000
0310
0000
1000
0000
0001
0000
0000
0000
0100
0000
0000
0000
0002
0000
0000
0000
0013
0000
0000
0000
,
0024
0000
0000
0003
0130
0000
0000
0000
0110
0000
0000
0000
0100
0000
0000
0000
4002
0000
0000
3000
0103
0000
0000
0000
0020
0000
0000
0000
0030
0000
0000
0000
,
0204
0303
4200
3300
00MM
M0M0
0MM0
00M0
,
2000
0000
0000
0000
3010
0000
0000
0000
0240
0000
0000
0030
0301
0000
0000
0000
0010
0000
0000
0000
0100
0000
0000
0000
4200
0000
0000
3000
0310
0000
0000
0000
,
0002
0000
0000
0000
0003
0000
0100
0000
2004
0000
0000
0003
3010
0000
0000
0000
0040
0000
0000
0000
0130
0000
0000
0000
0100
0000
0000
0000
0001
0000
0000
0000
,
0020
0000
0000
0000
0030
0000
0001
0000
0420
0000
0000
0300
0031
0000
0000
0000
0001
0000
0000
0000
1000
0000
0000
0000
4020
0000
0000
3000
0130
0000
0000
0000
,
0002
0003
2400
3300
0420
0330
M00M
M0M0
,
MM00
0000
0000
0000
M000
0000
0000
0000
0002
0000
0000
0000
0103
0000
0000
0000
0240
0000
0000
0030
0301
0000
0000
0000
1000
0000
0000
0000
0100
0000
0000
0000
,
4200
0000
0000
3000
0310
0000
0000
0000
0002
0000
0000
0000
0003
0000
0010
0000
4002
0000
0000
0000
3003
0000
0000
0000
0401
0000
0000
0000
0310
0000
0000
0000
,
0010
0000
1000
0000
0200
0000
0300
1000
0240
0000
0330
0000
1000
0000
1001
0000
,
0402
0000
0000
0300
0013
0000
0000
0000
0200
0000
0000
0000
0300
0000
0000
0000
0042
0000
0000
0000
0033
0000
0000
0000
0240
0000
0000
0000
0330
0000
0000
0000
,
M00M
0M0M
00MM
000M
0000
0000
0000
0000
;

//---------------dance-single - Spork!----------------
#NOTEDATA:;
#CHARTNAME:Spork! - Heavy;
#STEPSTYPE:dance-single;
#DESCRIPTION:Spork!;
#CHARTSTYLE:;
#DIFFICULTY:Hard;
#METER:8;
#RADARVALUES:0.645,0.639,0.587,0.466,0.075,230.000,39.000,31.000,0.000,0.000,0.000,0.000,0.000,0.645,0.639,0.587,0.466,0.075,230.000,39.000,31.000,0.000,0.000,0.000,0.000,0.000;
#CREDIT:Spork!;
#DISPLAYBPM:146.000;
#NOTES:
0000
0000
0000
0000
,
0000
0000
0000
0000
,
0000
0000
0000
0000
,
0000
0000
0000
0000
,
0000
0000
1000
0100
1000
0010
0100
0001
,
0010
0001
2000
3000
2000
3000
0010
0100
,
0010
1000
0002
0003
0002
0003
0100
0001
,
1000
0001
0010
0000
0110
0000
2002
0000
,
3003
0000
0000
0000
0010
1000
0100
1000
,
0001
0100
0010
0010
1010
0000
1001
0000
,
1000
0100
0010
0001
0101
0000
0110
0000
,
0001
0010
1000
0010
0011
0000
0110
0000
,
1001
0000
0002
0000
0000
0000
1003
0010
,
1000
0100
0010
0001
1000
0001
0101
0000
,
1010
1000
0001
0010
0100
1000
1001
0000
,
0110
0100
1000
0010
0001
0010
0110
0000
,
1010
1001
2000
0000
,
3001
0010
0100
0001
0100
0010
0001
0100
,
0110
0000
0000
0010
1000
0000
0001
0000
0100
0000
0010
0000
1000
0000
0001
0000
,
0011
0000
0000
0001
0100
0000
0001
0000
1000
0000
0100
0000
0001
0000
0100
0000
,
0110
1001
1100
0200
,
0000
0000
1300
0010
0100
1000
0100
0010
,
1000
0000
0001
0000
0101
0000
0000
0001
0010
0000
0010
0000
0100
0000
1000
0000
,
0010
0000
0100
0000
0101
0000
0000
0001
1000
0000
1000
0000
0001
0000
0100
0000
,
1000
0100
0101
0000
1001
0000
0110
0000
,
0020
0000
1000
0000
1030
0100
0001
0100
,
1000
0010
0100
0000
0100
1000
0100
0001
,
0010
0100
1000
0000
0010
0000
1020
0000
,
0130
0120
0031
0011
,
1010
0000
0200
0000
0000
0000
0301
0010
,
1000
0000
0010
0000
0001
0000
0100
0010
0000
0000
0100
0000
0010
0000
0001
0000
,
0010
0000
1000
0000
0100
0000
0010
0100
0000
0000
0000
0000
0010
0000
0001
0000
,
0201
0000
0301
1000
1200
0000
0310
0000
,
0101
1100
0020
0000
,
0031
0100
0002
1003
0010
1000
0200
0310
,
0100
0000
0000
1000
0002
0000
0103
0000
0020
0000
1030
0000
0001
0000
0010
0000
,
0100
0000
0000
0100
2000
0000
3010
0000
0100
0000
0001
0000
2000
0000
3001
0000
,
0010
0110
2002
3003
,
0000
0000
0100
1000
0020
1030
0001
0100
,
0020
0000
1030
0000
0100
0000
0000
1000
0002
0000
0003
0000
0200
0000
0301
0000
,
1000
0000
0001
0000
0010
0000
0000
0010
0200
0000
0300
0000
1000
0000
1010
0000
,
0020
1030
0001
0000
1001
0000
0110
0000
,
0200
0000
0300
0000
;
