#TITLE:SET YOU FREE;
#SUBTITLE:-FLIP & FILL REMIX-;
#ARTIST:N-TRANCE;
#TITLETRANSLIT:;
#SUBTITLETRANSLIT:;
#ARTISTTRANSLIT:;
#GENRE:;
#CREDIT:;
#BANNER:[ROUND A] - SET YOU FREE -FLIP & FILL REMIX-.png;
#BACKGROUND:[ROUND A] - SET YOU FREE -FLIP & FILL REMIX--bg.png;
#LYRICSPATH:;
#CDTITLE:usaminseijin.PNG;
#MUSIC:[ROUND A] - SET YOU FREE -FLIP & FILL REMIX-.mp3;
#OFFSET:-0.100000;
#SAMPLESTART:0.800000;
#SAMPLELENGTH:10.000000;
#SELECTABLE:YES;
#DISPLAYBPM:144.000000;
#BPMS:0.000000=144.04
;
#STOPS:
;
#BGCHANGES:;
#KEYSOUNDS:;
#ATTACKS:;

//---------------dance-single - ----------------
#NOTES:
     dance-single:
     :
     Challenge:
     10:
     0.742480,0.860619,0.150520,0.097395,1.027076,587.000000,570.000000,17.000000,11.000000,0.000000,0.000000,0.742480,0.860619,0.150520,0.097395,1.027076,587.000000,570.000000,17.000000,11.000000,0.000000,0.000000:
// measure 0
0000
0000
0000
0000
,  // measure 1
0000
0000
0000
0000
,  // measure 2
0000
0000
0000
0000
,  // measure 3
0000
0000
0000
0000
,  // measure 4
0000
0000
0000
0000
,  // measure 5
0000
0000
0000
0000
,  // measure 6
0000
0000
0000
0000
,  // measure 7
0000
0000
0000
0000
,  // measure 8
2001
0000
0000
0000
,  // measure 9
3200
0000
0000
0000
,  // measure 10
0320
0000
0000
0000
,  // measure 11
0032
0000
0000
0000
,  // measure 12
2003
0000
0000
0000
,  // measure 13
3020
0000
0000
0000
,  // measure 14
0230
0000
0000
0000
,  // measure 15
0302
0000
0000
0000
,  // measure 16
1003
0000
0000
1000
0000
0000
1000
0000
0010
0000
0000
0010
0000
0000
0010
0000
,  // measure 17
0100
0000
0000
0100
0000
0000
0100
0000
0001
0000
0000
0001
0000
0000
0001
0000
,  // measure 18
1000
0000
0000
1000
0000
0000
1000
0000
0010
0000
0000
0010
0000
0000
0010
0000
,  // measure 19
0100
0000
0000
0100
0000
0000
0100
0000
0001
0000
0000
0001
0000
0000
0001
0000
,  // measure 20
1000
0001
0000
1000
0001
0000
0100
0010
0100
0010
0000
0100
0000
0001
1000
0001
,  // measure 21
1000
0010
0000
1000
0010
0000
0100
0001
0100
0001
0000
1000
0000
0001
1000
0001
,  // measure 22
1000
0100
0000
1000
0100
0000
1000
0001
1000
0001
0000
0100
0000
0010
0001
0010
,  // measure 23
0002
0000
0000
0000
,  // measure 24
0103
0010
1001
0010
0100
0010
1001
0010
,  // measure 25
0100
0001
1010
0001
0100
0001
1010
0001
,  // measure 26
0010
0100
1001
0100
0010
0100
1001
0100
,  // measure 27
1000
0001
0110
0001
1000
0001
0110
0001
,  // measure 28
0100
0010
1001
0010
0100
0010
1001
0010
,  // measure 29
0100
0001
1010
0001
0100
0001
1010
0001
,  // measure 30
0010
0100
1001
0100
0010
0100
1001
0100
,  // measure 31
1000
0001
0110
0001
1000
0001
0110
0001
,  // measure 32
0100
1000
0000
0001
1000
0000
0010
0100
0010
0100
0000
0001
0000
1000
0010
1000
,  // measure 33
0010
0100
0000
0010
0100
0000
0001
1000
0001
1000
0000
0010
0000
0100
0001
0100
,  // measure 34
0001
1000
0000
0001
1000
0000
0010
0100
0010
0100
0000
0010
0000
1000
0001
1000
,  // measure 35
0001
0100
0000
0001
0100
0000
0010
1000
0010
1000
0000
0100
0000
0010
0100
0010
,  // measure 36
0100
1000
0000
0001
1000
0000
0010
0100
0010
0100
0000
0001
0000
1000
0010
1000
,  // measure 37
0010
0100
0000
0010
0100
0000
0001
1000
0001
1000
0000
0010
0000
0100
0001
0100
,  // measure 38
0001
1000
0000
0001
1000
0000
0010
0100
0010
0100
0000
0010
0000
1000
0001
1000
,  // measure 39
0002
0000
0000
0000
,  // measure 40
1003
0000
0001
1000
0001
0000
1000
0001
1000
0000
0010
0000
0100
0010
0100
0010
,  // measure 41
0100
0000
0001
0000
1000
0000
0010
1000
0010
0000
0100
0000
0001
0100
0001
0100
,  // measure 42
0010
0000
0100
0000
0010
0000
0100
0001
0100
0000
0010
0000
1000
0010
1000
0010
,  // measure 43
0100
0000
0001
0000
0100
0000
0010
0100
0010
0000
0100
0000
0010
1000
0001
1000
,  // measure 44
0001
0000
1000
0100
1000
0000
0001
0010
0001
0000
0010
0000
0100
0010
0100
0010
,  // measure 45
0001
0000
1000
0000
0001
0000
0100
0010
0100
0000
0001
0000
0010
0001
0010
0001
,  // measure 46
0100
0000
0001
0000
0100
0000
0010
0100
0010
0000
1000
0000
1000
0001
1000
0001
,  // measure 47
0100
0000
0010
0000
1000
0000
0001
0100
0001
0000
0010
0000
0100
0001
1000
0001
,  // measure 48
1000
0000
0001
1000
0001
0000
1000
0001
1000
0000
0010
0000
0100
0010
0100
0010
,  // measure 49
0100
0000
0001
0000
1000
0000
0010
1000
0010
0000
0100
0000
0001
0100
0001
0100
,  // measure 50
0010
0000
0100
0000
0010
0000
0100
0001
0100
0000
0010
0000
1000
0010
1000
0010
,  // measure 51
0100
0000
0001
0000
0100
0000
0010
0100
0010
0000
0100
0000
0010
1000
0001
1000
,  // measure 52
0001
0000
1000
0100
1000
0000
0001
0010
0001
0000
0010
0000
0100
0010
0100
0010
,  // measure 53
0001
0000
1000
0000
0001
0000
0100
0010
0100
0000
0001
0000
0010
0001
0010
0001
,  // measure 54
0100
0000
0001
0000
0100
0000
0010
0100
0010
0000
1000
0000
1000
0001
1000
0001
,  // measure 55
4000
0400
0000
0000
0000
0000
0000
3000
0340
0004
0000
0000
0000
0000
0030
0003
,  // measure 56
0100
1000
0000
0001
1000
0000
0010
0100
0010
0100
0000
0001
0000
1000
0010
1000
,  // measure 57
0010
0100
0000
0010
0100
0000
0001
1000
0001
1000
0000
0010
0000
0100
0001
0100
,  // measure 58
0001
1000
0000
0001
1000
0000
0010
0100
0010
0100
0000
0010
0000
1000
0001
1000
,  // measure 59
0001
0100
0000
0001
0100
0000
0010
1000
0010
1000
0000
0100
0000
0010
0100
0010
,  // measure 60
0100
1000
0000
0001
1000
0000
0010
0100
0010
0100
0000
0001
0000
1000
0010
1000
,  // measure 61
0010
0100
0000
0010
0100
0000
0001
1000
0001
1000
0000
0010
0000
0100
0001
0100
,  // measure 62
0001
1000
0000
0001
1000
0000
0010
0100
0010
0100
0000
0010
0000
1000
0001
1000
,  // measure 63
0002
0000
0000
0000
,  // measure 64
0103
1000
0000
0001
1000
0000
0010
0100
0010
0100
0000
0001
0000
1000
0010
1000
,  // measure 65
0010
0100
0000
0010
0100
0000
0001
1000
0001
1000
0000
0010
0000
0100
0001
0100
,  // measure 66
0001
1000
0000
0001
1000
0000
0010
0100
0010
0100
0000
0010
0000
1000
0001
1000
,  // measure 67
0001
0100
0000
0001
0100
0000
0010
1000
0010
1000
0000
0100
0000
0010
0100
0010
,  // measure 68
0100
1000
0000
0001
1000
0000
0010
0100
0010
0100
0000
0001
0000
1000
0010
1000
,  // measure 69
0010
0100
0000
0010
0100
0000
0001
1000
0001
1000
0000
0010
0000
0100
0001
0100
,  // measure 70
0001
1000
0000
0001
1000
0000
0010
0100
0010
0100
0000
0010
0000
1000
0001
1000
,  // measure 71
0010
0100
0010
0100
0010
0100
0010
0100
0004
4000
0000
0000
0000
0000
0000
0003
,  // measure 72
3000
0000
0000
0000
;

//---------------dance-single - ----------------
#NOTES:
     dance-single:
     :
     Hard:
     9:
     0.605874,0.701245,0.283331,0.097395,0.230207,479.000000,447.000000,32.000000,11.000000,0.000000,0.000000,0.605874,0.701245,0.283331,0.097395,0.230207,479.000000,447.000000,32.000000,11.000000,0.000000,0.000000:
0000
0000
0000
0000
,
0000
0000
0000
0000
,
0000
0000
0000
0000
,
0000
0000
0000
0000
,
0000
0000
0000
0000
,
0000
0000
0000
0000
,
0000
0000
0000
0000
,
0000
0000
0000
0000
,
2001
0000
0000
0000
,
3200
0000
0000
0000
,
0320
0000
0000
0000
,
0032
0000
0000
0000
,
2003
0000
0000
0000
,
3020
0000
0000
0000
,
0230
0000
0000
0000
,
0302
0000
0000
0000
,
1003
0000
0000
1000
0000
0000
1000
0000
0010
0000
0000
0010
0000
0000
0010
0000
,
0100
0000
0000
0100
0000
0000
0100
0000
0001
0000
0000
0001
0000
0000
0001
0000
,
1000
0000
0000
1000
0000
0000
1000
0000
0010
0000
0000
0010
0000
0000
0010
0000
,
0100
0000
0000
0100
0000
0000
0100
0000
0001
0000
0000
0001
0000
0000
0001
0000
,
1000
0000
0000
0001
0000
0000
1000
0000
0100
0000
0000
0010
0000
0000
0001
0000
,
1000
0000
0000
0010
0000
0000
0100
0000
0001
0000
0000
1000
0000
0000
0001
0000
,
1000
0000
0000
0100
0000
0000
1000
0000
0001
0000
0000
0100
0000
0000
0010
0000
,
1002
0000
0000
0000
,
0103
0010
1000
0010
0100
0010
0001
0010
,
0100
0001
0010
0001
0100
0001
1000
0001
,
0010
0100
1000
0100
0010
0100
0001
0100
,
1000
0001
0100
0001
1000
0001
0010
0001
,
0100
0010
1000
0010
0100
0010
0001
0010
,
0100
0001
1000
0001
0100
0001
0010
0001
,
0010
0100
1000
0100
0010
0100
0001
0100
,
1000
0001
0010
0001
1000
0001
0100
0001
,
1000
0100
0001
0100
1000
0100
0001
0100
,
1000
0010
0100
0010
1000
0010
0100
0010
,
1000
0010
0001
0010
1000
0010
0001
0010
,
0100
0001
0010
0001
0100
0001
0010
0001
,
1000
0100
0010
0001
1000
0100
0010
0001
,
1000
0010
0100
0001
1000
0010
0100
0001
,
1000
0010
0100
0010
0001
0010
0100
0010
,
1002
0000
0000
0000
,
1003
0000
0010
0100
0010
0000
1000
0000
0001
0000
1000
0000
0010
0100
0010
0100
,
0010
0000
1000
0000
0001
0000
1000
0000
0010
0000
0100
0000
0001
1000
0001
1000
,
0010
0000
0100
0000
0001
0000
0100
0000
0010
0000
1000
0000
0100
0010
0100
0010
,
0100
0000
0001
0000
0100
0000
0010
0000
1000
0000
0001
0000
1000
0001
1000
0001
,
0100
0000
1000
0001
1000
0000
0100
0000
0010
0000
0100
0000
1000
0001
1000
0001
,
1000
0000
0100
0000
0010
0000
0100
0000
1000
0000
0001
0000
0010
0100
0010
0100
,
1000
0000
0001
0000
0010
0000
0001
0000
1000
0000
0100
0000
0001
1000
0001
1000
,
0001
0000
0010
0000
0001
0000
1000
0000
0100
0000
0010
0000
0100
0010
0100
0010
,
1000
0000
0010
0100
0010
0000
1000
0000
0001
0000
1000
0000
0010
0100
0010
0100
,
0010
0000
1000
0000
0001
0000
1000
0000
0010
0000
0100
0000
0001
1000
0001
1000
,
0010
0000
0100
0000
0001
0000
0100
0000
0010
0000
1000
0000
0100
0010
0100
0010
,
0100
0000
0001
0000
0100
0000
0010
0000
1000
0000
0001
0000
1000
0001
1000
0001
,
0100
0000
1000
0001
1000
0000
0100
0000
0010
0000
0100
0000
1000
0001
1000
0001
,
1000
0000
0100
0000
0010
0000
0100
0000
1000
0000
0001
0000
0010
0100
0010
0100
,
1000
0000
0001
0000
0010
0000
0001
0000
1000
0000
0100
0000
0001
1000
0001
1000
,
0040
0400
0000
0000
0000
0000
0000
0030
0304
4000
0000
0000
0000
0000
0000
0003
,
3100
0010
1001
0010
0100
0010
1001
0010
,
0100
0001
1010
0001
0100
0001
1010
0001
,
0010
0100
1001
0100
0010
0100
1001
0100
,
1000
0001
0110
0001
1000
0001
0110
0001
,
0100
0010
1001
0010
0100
0010
1001
0010
,
0100
0001
1010
0001
0100
0001
1010
0001
,
0010
0100
1001
0100
0010
0100
1001
0100
,
1002
0000
0000
0000
,
1003
0010
1100
0010
1000
0010
1100
0010
,
0100
0001
0110
0001
0100
0001
0110
0001
,
0010
0001
1100
0001
0010
0001
1100
0001
,
1000
0010
0101
0010
1000
0010
0101
0010
,
1000
0010
1001
0010
1000
0010
1001
0010
,
0100
0010
1001
0010
0100
0010
1001
0010
,
0100
0001
1010
0001
0100
0001
1010
0001
,
0040
0400
0000
0000
0000
0000
0000
0030
0304
4000
0000
0000
0000
0000
0000
0003
,
3000
0000
0000
0000
;

//---------------dance-single - ----------------
#NOTES:
     dance-single:
     :
     Medium:
     6:
     0.440175,0.573746,0.106249,0.115103,0.000000,348.000000,336.000000,12.000000,13.000000,0.000000,1.000000,0.440175,0.573746,0.106249,0.115103,0.000000,348.000000,336.000000,12.000000,13.000000,0.000000,1.000000:
0000
0000
0000
0000
,
0000
0000
0000
0000
,
0000
0000
0000
0000
,
0000
0000
0000
0000
,
0000
0000
0000
0000
,
0000
0000
0000
0000
,
0000
0000
0000
0000
,
0000
0000
0000
0000
,
2001
0000
0000
0000
,
3200
0000
0000
0000
,
0320
0000
0000
0000
,
0032
0000
0000
0000
,
2003
0000
0000
0000
,
3020
0000
0000
0000
,
0230
0000
0000
0000
,
0302
0000
0000
0000
,
1003
0000
0000
1000
0010
0000
0000
0010
,
0100
0000
0000
0100
0001
0000
0000
0001
,
1000
0000
0000
1000
0010
0000
0000
0010
,
0100
0000
0000
0100
0001
0000
0000
0001
,
1000
0000
0000
0001
0100
0000
0000
0001
,
1000
0000
0000
0100
0001
0000
0000
1000
,
0010
0000
0000
1000
0001
0000
0000
0010
,
1002
0000
0000
0000
,
0103
0010
0100
0000
0010
0100
0010
0000
,
1000
0001
1000
0000
0001
1000
0001
0000
,
0010
1000
0010
0000
0001
0100
0001
0000
,
1000
0100
1000
0000
0010
0001
0010
0000
,
0100
0010
1000
0000
0001
0100
0010
0000
,
0100
0001
1000
0000
0100
0001
0010
0000
,
0010
0100
1000
0000
0010
0100
0001
0000
,
1000
0001
0010
0000
1000
0001
0100
0000
,
1000
0100
0001
0000
1000
0100
0001
0000
,
1000
0010
0100
0000
1000
0010
0100
0000
,
1000
0010
0001
0000
1000
0010
0001
0000
,
0100
0001
0010
0000
0100
0001
0010
0000
,
1000
0100
0010
0000
1000
0100
0010
0000
,
0100
0010
0001
0000
0100
0010
0001
0000
,
1000
0010
0100
0000
0010
0100
0001
0000
,
1002
0000
0000
0000
,
1003
0010
1000
0000
0001
1000
0010
0100
,
0010
1000
0001
0000
0010
0100
0001
1000
,
0010
0100
0001
0000
0010
1000
0100
0010
,
0100
0001
0100
0000
1000
0001
1000
0001
,
0100
1000
0001
0000
0010
0100
1000
0001
,
1000
0100
0010
0000
1000
0001
0010
0100
,
1000
0001
0010
0000
1000
0100
0001
1000
,
0001
0010
0001
0000
0100
0010
0100
0010
,
1000
0010
0100
0000
0001
1000
0010
0100
,
0010
1000
0001
0000
0010
0100
0001
1000
,
0010
0100
0001
0000
0010
1000
0100
0010
,
0100
0001
0100
0000
1000
0001
1000
0001
,
0100
0001
1000
0000
0010
0100
1000
0001
,
1000
0100
0010
0000
1000
0001
0010
0100
,
1001
0010
1001
0100
,
0110
1001
0110
1001
,
0100
0010
1000
0000
0100
0010
0001
0000
,
0100
0001
1000
0000
0100
0001
0010
0000
,
0010
0100
0001
0000
0010
0100
1000
0000
,
1000
0001
0010
0000
1000
0001
0100
0000
,
0100
0010
1000
0000
0100
0010
0001
0000
,
0100
0001
1000
0000
0100
0001
0010
0000
,
0010
0100
1000
0000
0010
0100
0001
0000
,
1002
0000
0000
0000
,
1003
0010
1000
0010
1000
0010
1000
0010
,
0100
0001
0100
0001
0100
0001
0100
0001
,
0010
0001
0100
0001
0010
0001
0100
0001
,
1000
0010
0100
0010
1000
0010
0100
0010
,
1000
0010
1000
0010
1000
0010
1000
0010
,
0100
0010
0001
0010
0100
0010
0001
0010
,
0100
0001
1000
0001
0100
0001
1000
0001
,
0120
0000
1032
0000
,
1003
0000
0000
0000
;

//---------------dance-single - ----------------
#NOTES:
     dance-single:
     :
     Easy:
     3:
     0.313688,0.446247,0.079687,0.008854,0.000000,248.000000,239.000000,9.000000,1.000000,0.000000,0.000000,0.313688,0.446247,0.079687,0.008854,0.000000,248.000000,239.000000,9.000000,1.000000,0.000000,0.000000:
0000
0000
0000
0000
,
0000
0000
0000
0000
,
0000
0000
0000
0000
,
0000
0000
0000
0000
,
0000
0000
0000
0000
,
0000
0000
0000
0000
,
0000
0000
0000
0000
,
0000
0000
0000
0000
,
1001
0000
0000
0000
,
0100
0000
0000
0000
,
0010
0000
0000
0000
,
0001
0000
0000
0000
,
1000
0000
0000
0000
,
0010
0000
0000
0000
,
0100
0000
0000
0000
,
0001
0000
0000
0000
,
1000
0000
0010
0000
,
0100
0000
0001
0000
,
1000
0000
0010
0000
,
0100
0000
0001
0000
,
1000
0000
0100
0000
,
1000
0000
0001
0000
,
0010
0000
0001
0000
,
1002
0000
0000
0000
,
0103
0100
0010
0010
,
1000
1000
0001
0001
,
0010
0010
0001
0001
,
1000
1000
0010
0010
,
0100
1000
0001
0010
,
0100
1000
0100
0010
,
0010
1000
0010
0001
,
1000
0010
1000
0100
,
1000
0001
1000
0001
,
1000
0100
1000
0100
,
1000
0001
1000
0001
,
0100
0010
0100
0010
,
1000
0010
1000
0010
,
0100
0001
0100
0001
,
1000
0100
0010
0001
,
1001
0000
0000
0000
,
1000
0000
0010
0000
0001
0000
0010
0100
,
0010
0000
0001
0000
0010
0000
0001
1000
,
0100
0001
0010
0100
,
0100
0001
0100
0000
1000
0000
1000
0001
,
0100
0000
0001
0000
0010
0000
1000
0001
,
1000
0000
0010
0000
1000
0000
0010
0100
,
1000
0000
0010
0000
1000
0000
0001
1000
,
0001
0000
0001
0000
0100
0000
0100
0010
,
1000
0000
0100
0000
0001
0000
0010
0100
,
0010
0000
0001
0000
0010
0000
0001
1000
,
0010
0000
0001
0000
0010
0000
0100
0010
,
0100
0000
0100
0000
0001
0000
1000
0001
,
0100
0001
1000
0000
0010
0000
1000
0001
,
1000
0000
0010
0000
1000
0000
0010
0100
,
1000
0010
0001
0100
,
0100
1001
0010
1001
,
0100
1000
0100
0001
,
0100
1000
0100
0010
,
0010
0001
0010
1000
,
1000
0010
1000
0100
,
0100
1000
0100
0001
,
0100
1000
0100
0010
,
0010
1000
0010
0001
,
1001
0000
0000
0000
,
1000
0010
1000
0000
1000
0010
1000
0000
,
0100
0001
0100
0000
0100
0001
0100
0000
,
0010
0001
0010
0000
0100
0001
0100
0000
,
1000
0010
1000
0000
0100
0010
0100
0000
,
1000
0010
1000
0000
1000
0010
1000
0000
,
0100
0010
0100
0000
0001
0010
0001
0000
,
0100
0001
0100
0000
1000
0001
1000
0000
,
0110
0100
1001
0001
,
1001
0000
0000
0000
;

//---------------dance-single - ----------------
#NOTES:
     dance-single:
     :
     Beginner:
     2:
     0.192261,0.318748,0.053125,0.008854,0.000000,152.000000,146.000000,6.000000,1.000000,0.000000,0.000000,0.192261,0.318748,0.053125,0.008854,0.000000,152.000000,146.000000,6.000000,1.000000,0.000000,0.000000:
0000
0000
0000
0000
,
0000
0000
0000
0000
,
0000
0000
0000
0000
,
0000
0000
0000
0000
,
0000
0000
0000
0000
,
0000
0000
0000
0000
,
0000
0000
0000
0000
,
0000
0000
0000
0000
,
1001
0000
0000
0000
,
0100
0000
0000
0000
,
0010
0000
0000
0000
,
0001
0000
0000
0000
,
1000
0000
0000
0000
,
0010
0000
0000
0000
,
0100
0000
0000
0000
,
0001
0000
0000
0000
,
1000
0000
1000
0000
,
0100
0000
0100
0000
,
0001
0000
0001
0000
,
0010
0000
0010
0000
,
1000
0000
1000
0000
,
0001
0000
0001
0000
,
0010
0000
0010
0000
,
0002
0000
0000
0000
,
0103
0100
0010
0000
,
1000
1000
0001
0000
,
0010
0010
0001
0000
,
1000
1000
0010
0000
,
0100
0100
0010
0000
,
0010
0010
0100
0000
,
1000
1000
0001
0001
,
1000
0010
1000
0000
,
1000
0001
1000
0000
,
1000
0100
1000
0000
,
1000
0001
1000
0000
,
0100
0010
0100
0000
,
1000
0010
1000
0000
,
0100
0001
0100
0000
,
1000
0100
1000
0000
,
1001
0000
0000
0000
,
1000
0000
0001
0000
,
0010
0000
1000
0000
,
0100
0000
0010
0000
,
0100
0000
1000
0000
,
0100
0000
0010
0000
,
1000
0000
0010
0000
,
1000
0000
0010
0000
,
0001
0000
0100
0000
,
1000
0000
0010
0000
,
1000
0000
0001
0000
,
0010
0000
0001
0000
,
0100
0000
0001
0000
,
0100
0000
0010
0000
,
1000
0000
0001
0000
,
1000
0000
0010
0000
,
0100
0000
0010
0000
,
0100
0000
0010
0000
,
0100
0000
0001
0000
,
0010
0000
0100
0000
,
1000
0000
0001
0000
,
0100
1000
0100
0000
,
0100
1000
0100
0000
,
0010
1000
0010
0000
,
1001
0000
0000
0000
,
1000
1000
1000
0000
,
0100
0100
0100
0000
,
0010
0010
0010
0000
,
1000
1000
0100
0100
,
0001
0001
0001
0000
,
0010
0010
0100
0000
,
0010
0010
0001
0001
,
0110
0000
1001
0000
,
1001
0000
0000
0000
;
