#TITLE:Macuilxochitl;
#SUBTITLE:;
#ARTIST:TOMOSUKE;
#TITLETRANSLIT:;
#SUBTITLETRANSLIT:;
#ARTISTTRANSLIT:;
#GENRE:;
#CREDIT:;
#BANNER:;
#BACKGROUND:;
#LYRICSPATH:;
#CDTITLE:;
#MUSIC:[ROUND A] - Macuilxochitl.ogg;
#OFFSET:0.672000;
#SAMPLESTART:44.743000;
#SAMPLELENGTH:13.000000;
#SELECTABLE:YES;
#BPMS:0.000000=148.000000
;
#STOPS:
;
#BGCHANGES:;
#KEYSOUNDS:;
#ATTACKS:;

//---------------dance-single - ----------------
#NOTES:
     dance-single:
     :
     Hard:
     10:
     0.867083,0.957404,0.478702,0.126450,1.250948,672.000000,619.000000,53.000000,14.000000,0.000000,0.000000,0.867083,0.957404,0.478702,0.126450,1.250948,672.000000,619.000000,53.000000,14.000000,0.000000,0.000000:
0000
0000
0000
0000
,
0000
0000
0000
0000
,
0000
0000
0000
0000
,
0000
0000
0000
0000
,
0000
0000
0000
0000
0000
0000
0000
0000
1000
0001
0000
1000
0000
0000
0001
0000
,
0000
0001
0010
0100
0010
0100
1000
0000
0000
1000
0100
0010
0100
0010
0001
0010
,
0001
0000
0001
0100
0000
0110
0000
0000
0000
0000
0000
1010
0000
0000
1010
0000
,
0000
1000
0001
1000
0010
1000
0001
0100
0000
0001
1000
0001
1000
0001
0100
0001
,
0100
0000
0100
0010
0000
0110
0000
0000
0010
0000
0100
0001
0100
0010
1000
0001
,
1000
0001
0100
0001
0010
0100
1000
0000
1000
0000
0100
0010
0000
1000
0000
0100
,
0001
1000
0100
1000
0001
0010
0001
0000
0001
0100
0000
0000
0101
0000
0001
0100
,
0001
0100
0010
1000
0100
1000
0010
0100
0002
0000
0010
0000
0023
0100
0000
0100
,
0030
1010
0000
1001
0000
1100
0000
0000
1001
0000
0101
0000
1000
0100
0000
0100
,
0000
0010
0001
0100
0001
1000
0100
1000
0100
0010
0001
0010
0001
0010
0100
0010
,
0000
0100
0200
0000
0000
0000
0000
0000
0000
0000
0000
0040
0000
0000
0000
0000
,
0000
0000
0000
0330
0010
0010
0000
0000
0000
0000
0000
0010
0000
1000
0000
0001
,
0001
0000
0100
0000
1000
0001
0000
0010
0000
0000
0000
0100
0000
0100
0010
0001
,
0010
0000
0000
1000
0001
0000
1000
0010
1000
0000
0010
0000
0001
0010
0001
0000
,
0001
1000
0001
1000
0010
0100
0010
0100
0010
1000
0010
1000
0001
0100
0001
0100
,
0001
0010
0001
0010
0100
1000
0100
1000
0100
0010
0001
0010
0100
1000
0100
0010
,
0000
0001
0010
0100
0000
0100
0000
0101
0000
1010
0000
1000
0001
1000
0000
0000
,
0001
0100
0000
0001
0000
1010
0000
0101
0000
0110
0000
1000
0010
0100
0000
0000
,
0001
0010
0100
1000
0000
0000
1000
0010
1000
0010
1000
0100
0010
0001
1000
0100
,
0010
0001
0000
0010
1000
0010
1000
0100
0000
0010
0100
0001
0010
0001
0010
0001
,
0100
0001
1000
0001
0200
0000
0000
0000
0310
0000
0010
0100
0010
1000
0001
0100
,
0010
0100
0010
0100
0000
0010
0000
0100
0010
0100
1000
0100
0010
0100
0010
1000
,
0100
0100
0000
0110
0000
0011
0000
1100
0000
0000
2200
0000
0000
3300
0000
0000
,
0000
1010
0000
1100
0000
0011
0000
0110
0000
0000
0220
0000
0000
0000
0330
0000
,
0001
0000
0100
0000
1000
0010
1000
0000
1000
0000
0100
0000
0001
0100
0001
0000
,
1000
0000
0010
0000
0100
0001
0100
0001
0100
0010
1000
0010
1000
0000
0100
0000
,
0100
0000
0001
0000
1000
0010
0100
0000
0010
0001
0000
0100
0010
0000
0100
0000
,
0001
0000
0100
0000
0001
1000
0001
1000
0010
0100
0010
0100
0020
0000
0000
0030
,
1000
0000
1000
0100
0010
0001
0100
0000
0001
0000
0001
0010
0100
1000
0010
0000
,
0100
0001
0100
0010
0100
0001
1000
0001
1000
0001
0010
0100
0010
0100
1000
0000
,
0100
0010
0100
0010
0100
1000
0010
0000
0100
0010
0001
0010
0100
0001
1000
0000
,
0100
0001
0100
0001
0000
0100
0000
1000
0010
0000
0000
0220
0000
0000
0330
0000
,
0001
0001
0000
1000
0000
0010
0000
0110
0000
0000
1000
0010
1000
0001
0010
0001
,
0100
0001
0000
0101
0000
1000
0100
1000
0100
0000
0001
0000
0010
0100
1000
0100
,
0010
0001
0000
0100
1000
0100
1000
0010
0100
0001
0010
0100
0000
0010
1000
0010
,
1000
0000
0000
1010
0000
1000
0010
0001
0000
0001
0010
1000
0000
0000
1000
0000
,
0001
0000
0100
0000
1000
0000
0001
0000
0100
0001
1000
0100
0000
0010
1000
0001
,
0100
0000
0000
0110
0000
0001
0100
1000
0000
1000
0100
0001
0000
0000
1000
0000
,
0100
0000
0010
0000
0100
0010
0001
0000
0110
0000
0404
0000
0000
0000
0000
0303
,
0001
1000
0001
0000
1000
0001
1000
0000
1010
0000
4040
0000
0000
0000
0000
3030
,
0100
0010
0100
0000
0010
0100
0010
0000
0110
0000
0440
0000
0000
0000
0000
0330
,
1000
0100
0010
0000
0010
0100
1000
0000
1001
0000
4004
0000
0000
0000
0000
3003
,
0001
0010
0100
0000
0100
0010
0001
0000
0001
0000
0000
0110
0000
0000
0001
0000
,
0000
1010
0000
0000
0100
0010
0000
0000
1000
0000
0000
0110
0000
0000
0101
0000
,
0200
0000
0000
0000
0000
0002
0000
0000
0303
0000
1000
0100
1000
0000
0010
0000
,
0100
0000
0001
0010
0100
0000
0010
0100
1000
0000
1000
0010
1000
0000
0100
0000
,
0001
0000
0010
0100
1000
0000
0100
0000
0001
0000
0100
0000
0010
0000
1000
0000
,
0010
0100
0010
0100
1000
0000
0010
0000
0001
0000
0010
0000
1000
0000
0100
1000
,
0100
0000
0100
1000
0100
0000
0100
0010
0100
0000
0110
0000
0110
0000
0000
0000
,
0001
0000
0100
0010
1000
0000
0010
0001
1000
0000
0001
0100
0010
0000
1000
0000
,
0100
0000
0100
0001
0010
0000
1000
0000
0001
0000
0100
0000
0010
0000
0010
0000
,
0100
0001
0100
0001
0100
0000
0001
0000
1000
0000
0100
0000
0010
0000
0100
0000
,
0001
0000
1000
0000
0001
1000
0001
0100
0010
0100
0001
0000
0010
0100
1000
0100
,
0000
0010
0000
0100
0000
0010
0001
0100
0000
0000
1000
0000
0100
0010
0000
0110
,
0000
0000
1000
0000
0001
0100
0000
0101
0000
0000
0000
0000
0100
0001
1000
0010
,
0000
0001
0000
0100
0000
0010
1000
0000
0001
0000
0100
0000
0001
1000
0000
1001
,
0000
0000
0001
0000
1000
0001
0000
1001
0000
0000
1000
0000
0100
0010
0001
0100
,
0000
0001
0000
1000
0000
0000
0110
0000
0000
0000
1000
0000
0001
0010
0000
0110
,
0000
0000
1000
0000
0010
0000
0010
0100
0000
0000
0000
0000
1000
0100
1000
0100
,
0000
0001
0000
0100
0000
0000
0110
0000
1000
0000
0010
0000
0001
1000
0000
1010
,
0000
0000
0010
0000
0100
0000
1000
0001
0000
0000
0000
0000
1001
0000
1001
0000
,
0000
0001
0010
0100
1000
0100
0010
0001
0010
0100
1000
0100
0020
0000
0000
0000
,
0000
0030
0000
0000
;

//---------------dance-single - ----------------
#NOTES:
     dance-single:
     :
     Medium:
     8:
     0.545798,0.628297,0.270964,0.099353,0.293544,423.000000,393.000000,30.000000,11.000000,0.000000,0.000000,0.545798,0.628297,0.270964,0.099353,0.293544,423.000000,393.000000,30.000000,11.000000,0.000000,0.000000:
0000
0000
0000
0000
,
0000
0000
0000
0000
,
0000
0000
0000
0000
,
0000
0000
0000
0000
,
0000
0000
0000
0000
0000
0000
0000
0000
1000
0000
0000
0100
0000
0000
0110
0000
,
0000
0010
0100
0000
0001
0000
1000
0000
0000
0010
0100
0000
0010
0000
1000
0000
,
0001
0000
0000
1000
0000
1000
0000
0000
0000
0000
0000
1001
0000
0000
1001
0000
,
0000
1000
0010
0000
0100
0000
0010
0000
0000
0100
0001
0000
0010
0000
0001
0000
,
1000
0000
0010
0100
0000
0100
0000
0000
0100
0000
0000
1000
0010
0000
0010
0000
,
0001
0000
0100
0000
0001
0010
0000
0100
1000
0000
0100
0000
0010
0000
0010
0000
,
0100
1000
0010
0100
0001
0000
1001
0000
,
0001
1000
0001
0100
1000
1000
0001
0000
,
0000
0010
0000
0010
0000
0010
0000
0000
1000
0000
1000
0000
0010
0000
0001
0000
,
0100
1000
0001
0010
0100
1000
0100
0010
,
0100
0002
0000
0000
0000
0000
0000
0000
0000
0000
0000
0000
0000
0000
0000
0000
,
0000
0000
0000
0000
0103
0000
0000
0000
0000
0000
0000
0100
0000
0100
0000
0010
,
0100
0000
0100
0001
1000
0010
0001
0010
,
0100
0000
0000
0000
0000
0000
0001
0100
0000
0000
0100
0000
0010
0000
0100
0000
,
0001
0100
1000
0100
0010
0100
0010
1000
,
0010
1000
0001
0100
0001
0100
1000
0100
,
1000
0001
0000
0100
0000
0010
0000
0100
0000
0010
1000
0000
0100
0000
1000
0000
,
0001
0100
0000
0001
0000
0100
0000
0001
0000
0100
0001
0000
0010
0000
0001
0000
,
2000
0000
0000
3100
0000
0000
0010
0000
0010
0000
0100
0000
0100
0000
0001
0000
,
0100
0000
1000
0010
1000
0001
0100
0010
,
0100
0000
1000
0000
0002
0000
0000
0000
0003
0000
0000
1000
0010
0000
0100
0000
,
0010
0100
0001
1000
0100
0001
0010
1000
,
0010
0000
0000
0100
0000
1000
0000
0100
0000
0000
1100
0000
0000
0000
0000
0000
,
0100
0000
0000
0010
0000
0001
0000
0010
0000
0000
0022
0000
0000
0000
0033
0000
,
0001
0000
0100
0000
0001
0000
1000
0000
0010
0000
0000
0100
0000
0000
0100
0000
,
1000
0000
0010
0000
1000
0000
0001
0000
0100
0000
0000
0010
0000
0000
0010
0000
,
0000
0000
0100
0000
0001
0000
0100
0000
1000
0000
0000
1000
0000
0000
1000
0000
,
0000
0010
1000
0010
0001
0000
0101
0000
,
0001
0010
0100
0010
0001
0010
0100
1000
,
0100
0010
0100
1000
0100
0010
0001
0000
,
0010
1000
0001
1000
0010
0100
0001
0001
,
1000
0000
0001
0000
0100
0000
0010
0000
1000
0000
0000
1010
0000
0000
0000
0000
,
0010
0000
0000
0100
0000
0010
0000
0100
0000
0000
0100
0000
0001
0000
0100
0000
,
0010
1000
0010
0100
0100
0001
1000
0001
,
0100
0001
0100
0010
1000
0100
0001
0010
,
0110
0000
0000
0000
1000
0000
0100
0000
0110
0000
0000
0001
0100
0000
0000
0000
,
1000
0000
0000
0010
1000
0000
0000
0000
0001
0000
0100
0000
1000
0000
0100
0000
,
0110
0000
0000
0000
0001
0000
0010
0000
0110
0000
0000
0010
1000
0000
0000
0000
,
0100
0000
0000
0010
0100
0000
0000
0000
0110
0000
0210
0000
0000
0000
0000
0000
,
0010
0000
0310
0000
1001
2001
0000
0000
,
0001
0000
3001
0000
1010
1020
0000
0000
,
1000
0000
1030
0000
0101
0200
0000
0000
,
0001
0000
0000
0000
0301
0000
0000
0000
1000
0000
0000
1000
0000
0000
0100
0000
,
0000
0100
0000
0000
0011
0000
0000
0000
0001
0000
0000
0001
0000
0000
0010
0000
,
0000
0020
0000
0000
0000
0000
0000
0000
0000
0000
0130
0000
0100
0000
0000
0000
,
0100
0010
0001
0000
0010
1000
0010
0000
,
0010
0100
1000
0000
1010
0000
1000
0000
,
1010
0000
0001
0000
0101
0000
0001
0010
,
0100
1000
0010
0100
0001
0100
0010
0000
,
1000
0100
0010
0000
0001
0100
0001
0000
,
0100
0010
0100
0000
1100
0000
0010
0000
,
0011
0000
0100
0000
1001
0000
1000
0010
,
0100
0001
0010
0100
1000
0100
0010
0100
,
0001
1000
0000
1000
0000
0000
0010
0000
0000
0000
0000
0000
0100
0000
0000
0000
,
0110
0000
0010
0100
0010
0001
1000
0100
,
0000
0010
0000
0010
0000
0000
0001
0000
0000
0000
0000
0000
1000
0000
0000
0000
,
1001
0000
0001
0010
1000
0100
0010
0100
,
0000
0010
0000
0100
0000
0000
0100
0000
0000
0000
0000
0000
1000
0000
0001
0000
,
1000
0001
0100
0010
1000
0010
0100
0010
,
0000
0100
0000
0010
0000
0000
0100
0000
1000
0000
0100
0000
1000
0000
0010
0000
,
1000
0001
0100
0001
1000
0010
0110
0110
,
0000
0100
0010
0000
0100
0000
1000
0000
1000
0001
1000
0001
2000
0000
0000
0000
,
0000
3000
0000
0000
;

//---------------dance-single - ----------------
#NOTES:
     dance-single:
     :
     Easy:
     5:
     0.312253,0.390413,0.117418,0.090321,0.009032,242.000000,229.000000,13.000000,10.000000,0.000000,0.000000,0.312253,0.390413,0.117418,0.090321,0.009032,242.000000,229.000000,13.000000,10.000000,0.000000,0.000000:
// measure 0
0000
0000
0000
0000
,  // measure 1
0000
0000
0000
0000
,  // measure 2
0000
0000
0000
0000
,  // measure 3
0000
0000
0000
0000
,  // measure 4
0000
0000
0000
0000
0000
0000
0000
0000
1000
0000
0000
1000
0000
0000
1000
0000
,  // measure 5
0001
0100
0010
0100
,  // measure 6
0100
0000
0001
0000
1000
0000
0000
0000
0000
0000
0000
0100
0000
0000
0100
0000
,  // measure 7
0001
0100
0010
1000
,  // measure 8
0100
0010
0100
0000
,  // measure 9
0001
0000
1000
0000
,  // measure 10
0001
0000
0100
0110
,  // measure 11
0000
0010
1000
0001
,  // measure 12
1000
0001
0010
0000
,  // measure 13
0100
0100
0010
0010
,  // measure 14
0100
0020
0000
0000
0000
0000
0000
0000
,  // measure 15
0030
0100
0000
0000
,  // measure 16
0010
0000
1010
0000
,  // measure 17
0001
0000
0101
0000
,  // measure 18
1000
0001
0010
0100
,  // measure 19
0001
1000
0100
1000
,  // measure 20
0010
0000
0100
0001
0100
0000
0101
0000
,  // measure 21
0010
0000
1000
0010
1000
0000
1010
0000
,  // measure 22
0001
0000
0000
0100
0010
0100
0010
0100
,  // measure 23
0010
0000
1000
0010
0000
1000
0000
0001
,  // measure 24
1000
0000
0100
0000
0000
0000
1000
0001
,  // measure 25
1000
1000
0100
0010
,  // measure 26
0002
0000
0000
1000
0000
1003
0000
0000
,  // measure 27
2000
0000
0000
0001
0000
3001
0000
0000
,  // measure 28
0001
1000
0001
0001
,  // measure 29
1000
0001
1000
1001
,  // measure 30
0100
0010
0100
0100
,  // measure 31
0010
0100
0010
0110
,  // measure 32
0001
0000
0100
0000
0001
0000
1000
0001
,  // measure 33
1000
0000
0010
0000
0100
0000
0001
1000
,  // measure 34
0001
0000
0100
0000
0010
0000
1000
0001
,  // measure 35
1000
0010
0001
0000
,  // measure 36
0010
0000
0100
0001
,  // measure 37
0100
1000
0100
0001
,  // measure 38
0100
0100
1000
0001
,  // measure 39
1000
0010
0001
1000
,  // measure 40
0001
0110
1000
0010
,  // measure 41
0100
0001
0100
0010
,  // measure 42
0010
1000
0010
1000
0020
0000
0000
0000
,  // measure 43
0000
0030
0200
0000
,  // measure 44
0000
0000
0000
0300
0002
0000
0000
0000
,  // measure 45
0000
0000
0000
0003
2000
0000
0000
0000
,  // measure 46
0000
3000
0000
0000
1000
0000
0001
0000
,  // measure 47
0100
0000
0001
0010
0001
0000
0100
0000
,  // measure 48
2000
0000
0000
0000
0000
3000
0100
0000
,  // measure 49
0010
0100
0010
1000
,  // measure 50
1001
0001
1001
1000
,  // measure 51
0001
1000
0001
0100
,  // measure 52
0110
0010
0110
1000
,  // measure 53
0010
0000
0100
0000
0001
0000
0010
0100
,  // measure 54
0010
0000
0100
0010
0100
0000
1000
0000
,  // measure 55
0001
0000
0100
0000
0010
0000
1000
0001
,  // measure 56
1000
0000
0001
1000
0001
0000
1000
0000
,  // measure 57
0001
1000
0001
0100
,  // measure 58
0001
0100
0001
1000
,  // measure 59
0001
1000
0010
1000
,  // measure 60
0010
1000
0010
0100
,  // measure 61
0001
0100
1000
0001
,  // measure 62
1000
0100
0001
1000
,  // measure 63
0001
0010
0001
1000
,  // measure 64
1100
0000
1000
0100
1000
0000
0010
0200
,  // measure 65
0000
0000
0000
0000
0000
0300
0020
0000
,  // measure 66
0000
0000
0030
0000
;
