#TITLE:KagKag;
#SUBTITLE:;
#ARTIST:t+pazolite;
#TITLETRANSLIT:;
#SUBTITLETRANSLIT:;
#ARTISTTRANSLIT:;
#GENRE:;
#CREDIT:;
#BANNER:[ROUND A] - KagKag.png;
#BACKGROUND:[ROUND A] - KagKag-jacket.png;
#LYRICSPATH:;
#CDTITLE:;
#MUSIC:[ROUND A] - KagKag.mp3;
#OFFSET:-0.043000;
#SAMPLESTART:40.171001;
#SAMPLELENGTH:15.000000;
#SELECTABLE:YES;
#BPMS:0.000000=185.000000
;
#STOPS:
;
#BGCHANGES:;
#KEYSOUNDS:;
#ATTACKS:;

//---------------dance-single - ----------------
#NOTES:
     dance-single:
     :
     Hard:
     9:
     0.678638,0.723843,0.202147,0.139948,0.163273,611.000000,585.000000,26.000000,18.000000,0.000000,0.000000,0.678638,0.723843,0.202147,0.139948,0.163273,611.000000,585.000000,26.000000,18.000000,0.000000,0.000000:
// measure 0
0000
0000
0000
0000
,  // measure 1
0000
0000
0000
0000
,  // measure 2
0000
0000
0000
0000
,  // measure 3
0000
0000
0000
0000
,  // measure 4
0000
0000
0000
0000
,  // measure 5
0000
0000
0000
0000
,  // measure 6
0000
0000
0000
0000
,  // measure 7
0000
0000
0000
0000
,  // measure 8
1000
0100
0010
0001
1000
0010
0100
0001
,  // measure 9
1000
0100
0010
0001
1000
0010
0100
0001
,  // measure 10
1000
0100
0010
0001
1000
0010
0100
0002
,  // measure 11
0000
0013
0100
1000
,  // measure 12
0001
0010
0100
1000
0001
0100
0010
1000
,  // measure 13
0001
0010
0100
1000
0001
0100
0010
1000
,  // measure 14
0001
0010
0100
1000
0001
0100
0010
2000
,  // measure 15
0000
3100
0010
0001
,  // measure 16
0001
0100
0000
0001
0100
0100
0000
1000
,  // measure 17
0100
0100
0000
0001
0100
0100
0000
0010
,  // measure 18
0100
0100
0000
1000
0100
0100
0000
0001
,  // measure 19
0100
0100
0000
1000
0100
0100
0010
0010
,  // measure 20
0100
0100
0000
1000
0010
0100
0000
0001
,  // measure 21
0100
0010
0000
0001
0100
0001
0000
1000
,  // measure 22
0100
1000
0000
0001
0100
1000
0000
0001
,  // measure 23
0010
1000
0000
1000
0100
0010
0000
0001
,  // measure 24
0100
0000
0000
0010
1000
0000
0000
1000
0100
0000
0000
0100
0010
0000
0000
0010
,  // measure 25
0001
0000
0000
0001
0100
0000
0000
0100
0010
0000
0000
0010
1000
0000
0000
1000
,  // measure 26
0100
0000
0000
0100
0010
0000
0000
0010
0001
0000
0000
0010
1000
0000
0000
1000
,  // measure 27
0010
0000
0000
0010
0001
0000
0000
0001
0100
0000
0000
0100
0001
0000
0000
0001
,  // measure 28
0100
0000
0000
0100
1000
0000
0000
1000
0100
0000
0000
0100
0010
0000
0000
0010
,  // measure 29
1000
0000
0000
1000
0100
0000
0000
0100
0001
0000
0000
0001
0100
0000
0000
0100
,  // measure 30
1000
0100
1000
0100
0010
0001
0010
0001
,  // measure 31
0100
0010
1000
0100
0010
0001
0100
0010
,  // measure 32
2000
0010
0010
3010
,  // measure 33
0101
0001
0100
0010
1000
0100
0010
0001
,  // measure 34
0010
0100
1000
0010
0110
0000
0110
0000
,  // measure 35
1010
1000
0100
0010
0001
0100
0010
1000
,  // measure 36
0010
0100
0001
0010
0100
1000
1001
0000
,  // measure 37
0011
0001
0010
0100
1000
0100
0010
0001
,  // measure 38
0100
0010
1000
0100
0110
0000
0110
0000
,  // measure 39
1100
1000
0010
0100
0001
0100
0010
1000
,  // measure 40
0100
0010
0001
1000
0001
1000
0001
1000
,  // measure 41
0100
0010
0001
0010
0100
1000
0100
0010
,  // measure 42
0001
0100
0010
1000
0100
0001
0100
1000
,  // measure 43
0010
0100
0001
0010
0100
1000
0001
0010
,  // measure 44
1000
0010
0001
0010
1000
0010
0001
0100
,  // measure 45
0010
1000
0100
1000
0010
0100
0010
0100
,  // measure 46
0001
0100
0001
0100
1000
0100
0001
0010
,  // measure 47
0100
1000
0010
0100
0001
0100
1000
0100
,  // measure 48
0001
0110
0101
1010
,  // measure 49
0220
0000
0000
0000
,  // measure 50
0000
0000
0000
0000
,  // measure 51
0330
0000
0000
0000
,  // measure 52
0000
0000
0000
0000
,  // measure 53
0001
0010
0100
1000
0001
0100
0010
1000
,  // measure 54
0001
0010
0100
1000
0001
0100
0010
1000
,  // measure 55
0100
0010
0001
1000
0010
0100
0001
1000
,  // measure 56
0010
0000
0100
0000
0001
1000
0001
1000
,  // measure 57
0100
0000
0000
0100
0010
0000
0000
0010
0001
0000
0000
0001
0100
0000
0000
0100
,  // measure 58
1000
0000
0000
1000
0100
0000
0000
0100
0010
0000
0000
0010
1000
0000
0000
1000
,  // measure 59
0100
0000
0000
0100
0010
0000
0000
0010
0001
0000
0000
0001
0100
0000
0000
0100
,  // measure 60
0010
0000
0000
0010
1000
0000
0000
1000
0100
0000
0000
0100
0001
0000
0000
0001
,  // measure 61
0100
1000
0000
0100
0001
0100
0000
1000
,  // measure 62
0010
1000
0000
0010
0001
0010
0000
1000
,  // measure 63
0100
1000
0000
0010
0001
0010
0000
0100
,  // measure 64
0010
0100
0000
0001
1000
0001
0010
0000
,  // measure 65
1000
0100
1000
0200
0001
0000
1300
0000
,  // measure 66
0001
0100
0001
0200
1000
0000
0301
0000
,  // measure 67
0010
0001
0010
0000
0100
1000
0100
0000
,  // measure 68
1000
0010
0001
0010
1000
0100
0001
0100
,  // measure 69
1000
0000
1000
0001
0100
0000
0001
1000
,  // measure 70
0100
0000
0010
0001
0100
0000
0010
1000
,  // measure 71
0100
0010
0101
0100
,  // measure 72
1010
0011
1100
0110
,  // measure 73
1001
0000
0100
0000
0100
0000
0100
1000
,  // measure 74
0010
0100
0001
0010
0100
1000
0100
0010
,  // measure 75
0001
0100
0010
1000
0001
0010
0100
1000
,  // measure 76
0100
0010
0001
0100
1000
0100
0001
0010
,  // measure 77
0200
0000
2300
0000
3002
0000
0103
0010
,  // measure 78
0100
0010
1000
0100
0010
0001
0100
0010
,  // measure 79
1000
0010
0100
0001
0010
0100
0010
0001
,  // measure 80
1000
0000
0100
0000
0010
0000
0100
0000
1000
0000
0010
0100
0010
0000
0100
0000
,  // measure 81
0002
0000
0203
0000
0320
0000
2030
0100
,  // measure 82
3100
0010
0001
0100
0010
0100
0010
1000
,  // measure 83
0100
0010
0100
0010
0001
0100
0010
0100
,  // measure 84
0010
1000
0100
0010
0001
0100
1000
0100
,  // measure 85
0110
0000
1001
0000
0110
0000
1001
1000
,  // measure 86
0100
0010
0001
0010
0100
1000
0100
0010
,  // measure 87
0001
0100
1000
0100
0001
0010
1000
0010
,  // measure 88
0001
0000
0100
0000
0010
0000
1000
0000
0010
0000
0100
0010
0100
0000
0010
0000
,  // measure 89
1000
1010
0101
0110
,  // measure 90
2000
0000
0000
0000
,  // measure 91
3002
0000
0000
0000
,  // measure 92
0203
0000
0000
0000
,  // measure 93
0320
1000
1000
1000
,  // measure 94
1030
0100
0010
0001
0010
0100
1000
0001
,  // measure 95
0100
0010
1000
0010
0100
0001
0100
1000
,  // measure 96
0100
0001
0010
1000
0010
0001
0100
0010
,  // measure 97
1000
0100
0010
0001
0010
0100
1000
0100
,  // measure 98
0001
0000
0000
0000
;

//---------------dance-single - ----------------
#NOTES:
     dance-single:
     :
     Medium:
     7:
     0.449834,0.647649,0.093299,0.303221,0.000000,405.000000,393.000000,12.000000,39.000000,0.000000,0.000000,0.449834,0.647649,0.093299,0.303221,0.000000,405.000000,393.000000,12.000000,39.000000,0.000000,0.000000:
0000
0000
0000
0000
,
0000
0000
0000
0000
,
0000
0000
0000
0000
,
0000
0000
0000
0000
,
0000
0000
0000
0000
,
0000
0000
0000
0000
,
0000
0000
0000
0000
,
0000
0000
0000
0000
,
0002
0000
0000
0000
,
0203
0000
0000
0000
,
0320
0000
0000
0000
,
2030
0000
3200
0000
,
0320
0000
0031
0000
,
0002
0000
0013
0000
,
0020
0000
0130
0000
,
0200
0000
1300
0000
,
1000
0000
0000
0100
0100
0000
0000
0000
,
0001
0000
0000
0100
0100
0000
0000
0000
,
0010
0000
0000
1000
0001
0000
0000
0000
,
0100
0000
0000
0001
1000
0000
0000
0000
,
0100
0000
0000
0010
0100
0010
0000
0000
,
0010
0000
0000
0100
0010
0100
0000
0000
,
0001
0000
0000
1000
0001
1000
0000
0000
,
1000
0000
0000
0001
1000
0001
0000
0000
,
0100
0100
0100
0100
,
0010
0010
0010
0010
,
1000
1000
1000
1000
,
0001
0100
0010
1000
,
0001
0001
0001
0001
,
0010
0010
0010
0010
,
0100
1000
0100
1000
0100
1000
0100
1000
,
0001
0100
0001
0100
0001
0100
0001
0100
,
0020
0000
0000
0000
,
0130
0000
0001
0000
0010
0100
0010
0000
,
0100
1000
1001
1001
,
1000
0000
0010
0000
0100
0010
0100
0000
,
0010
1000
0001
1001
,
0001
0000
0010
0000
0100
1000
0100
1000
,
0010
0100
0001
0101
,
0001
0000
0100
0000
0001
0010
0001
0010
,
0100
0000
1000
0001
1000
0100
0010
0001
,
1000
0000
0100
0000
0100
0000
0010
0100
,
0010
0100
1000
1001
,
1000
0000
0100
0000
1000
0100
1000
0000
,
0002
0203
0320
2030
,
3100
0100
0010
0010
,
0001
0100
0001
0000
1000
0100
1000
0000
,
0010
0100
0001
1000
0100
0010
0001
0010
,
0100
1000
1000
0001
,
2002
0000
0000
0000
,
0000
0000
0000
0000
,
3003
0000
0000
0000
,
0000
0000
0000
0000
,
0001
0100
0001
0000
1000
0100
1000
0000
,
0001
1000
0001
0000
1000
0001
1000
0000
,
0010
0100
0010
0000
0100
0010
0100
0000
,
1000
0100
0010
0001
,
0100
0000
0010
0000
1000
0001
1000
0001
,
1000
0000
0100
0000
0010
0001
0010
0001
,
0010
0000
0100
0000
1000
0100
1000
0100
,
1000
0000
0010
0000
0100
0010
1000
0001
,
0010
0000
0100
0000
1000
0100
1000
0001
,
1000
0000
0100
0000
0010
0001
0010
0100
,
0010
0000
0100
0000
1000
0010
0100
0001
,
1000
0000
0010
0000
0100
0001
0010
0100
,
1000
0000
0010
0100
0001
0000
0100
0010
,
1000
0000
0100
0010
0001
0000
0010
0100
,
1000
0000
0001
0100
0010
1000
0100
0010
,
0002
0023
0230
2300
,
3010
0000
0100
0001
0100
0000
0010
0000
,
0100
0000
0010
1000
0010
0000
1000
0100
,
0010
0000
0001
1000
0100
0000
0010
0000
,
0011
0001
1001
1000
,
1100
0000
0010
0000
0010
0000
0010
0100
,
0010
0000
0100
0010
0100
0000
0001
0000
,
1000
0000
0100
0000
0010
0000
0001
0100
,
0001
0000
1000
0100
0010
0001
0010
0100
,
2000
3020
0230
0302
,
0013
0000
0010
0100
1000
0000
1000
0000
,
0001
0001
0100
0010
,
1000
0000
0100
0010
0100
1000
0010
0100
,
0010
0110
1001
0100
,
0010
0000
0100
1000
0100
0000
0010
0001
,
0010
0000
0001
0100
0001
0000
1000
0010
,
1000
0000
0001
0000
0100
0010
0100
0010
,
2000
3200
0320
0032
,
0103
0000
0010
1000
0100
0000
0010
0000
,
0001
0000
0010
0100
1000
0000
0001
0000
,
0100
0000
0010
0100
0010
0100
0001
1000
,
0002
0203
0320
2030
,
3002
0000
0013
0000
,
0020
0000
0130
0000
,
0200
0000
1300
0000
,
1000
1000
0001
0001
,
0200
0000
0320
0000
,
2030
0000
3002
0000
,
0103
0010
0100
0010
1000
0001
1000
0001
,
0100
0010
1000
0001
,
1001
0000
0000
0000
;

//---------------dance-single - ----------------
#NOTES:
     dance-single:
     :
     Easy:
     5:
     0.342096,0.571455,0.279896,0.233247,0.000000,308.000000,272.000000,36.000000,30.000000,0.000000,0.000000,0.342096,0.571455,0.279896,0.233247,0.000000,308.000000,272.000000,36.000000,30.000000,0.000000,0.000000:
0000
0000
0000
0000
,
0000
0000
0000
0000
,
0000
0000
0000
0000
,
0000
0000
0000
0000
,
0000
0000
0000
0000
,
0000
0000
0000
0000
,
0000
0000
0000
0000
,
0000
0000
0000
0000
,
1000
0000
0000
1000
,
0010
0000
0000
0010
,
0100
0000
0000
0100
,
0002
0000
0000
0000
,
0013
0000
0000
0010
,
0100
0000
0000
0100
,
1000
0000
0000
1000
,
0002
0000
0000
0000
,
0103
0000
0100
0000
,
0010
0000
0010
0000
,
1000
0000
1000
0000
,
0001
0000
0001
0000
,
0100
0010
0100
0010
,
1000
0001
1000
0001
,
0010
0100
1000
0001
,
0100
0010
1000
0010
,
0200
0001
0010
0001
,
0320
1000
0100
1000
,
0130
0010
1000
0001
,
0020
0100
1000
0130
,
2000
0001
0100
0001
,
3020
0001
0100
0031
,
0100
0100
0010
0010
,
2002
0000
0000
3003
,
0220
0000
0000
0330
,
2001
0100
0010
3100
,
0001
0010
0110
0110
,
1002
0010
0100
0013
,
1000
0010
0100
0110
,
1000
0010
0100
0001
,
0010
0100
1001
1001
,
1000
0100
0010
0001
,
0100
0010
0110
0110
,
0002
0103
2000
3100
,
0002
0013
0110
0110
,
2000
3010
0002
0013
,
2000
3200
0320
0032
,
0103
0100
0010
0010
,
1000
0001
1001
1001
,
0001
0001
1000
1000
,
0010
0100
0110
0110
,
2002
0000
0000
0000
,
0000
0000
0000
0000
,
3003
0000
0000
0000
,
0000
0000
0000
0000
,
0000
0000
0000
0000
,
0000
0000
0000
0000
,
0000
0000
0000
0000
,
0000
0000
0000
0000
,
0010
0000
0010
0000
,
0100
0000
0100
0000
,
0001
0000
0001
0000
,
1000
0000
1000
0000
,
0001
0010
0100
1000
,
0010
0100
0001
1000
,
0010
0010
0100
0100
,
0001
1000
0001
1000
,
0100
1000
0100
1000
,
0001
0100
0001
0100
,
0010
0010
1000
1000
,
0001
1000
0100
0010
,
0001
0001
0001
1001
,
1000
1000
1000
1001
,
0100
0110
0010
0011
,
0101
1010
0220
0030
,
0301
0010
0100
1000
,
0001
0001
0100
0100
,
0010
0010
1000
1000
,
0001
0100
0010
1000
,
0110
1100
0101
0010
,
1000
1000
0010
0010
,
0100
0100
0001
0001
,
0010
0100
1000
0001
,
0100
0010
1001
0100
,
0010
1000
1000
0100
,
0010
0001
0001
0100
,
0010
1000
0100
0010
,
0110
1001
0110
1000
,
0001
0010
0010
0100
,
1000
0100
0100
1000
,
0010
0100
0001
0010
,
1010
0011
1001
0000
,
0200
0000
0000
0000
,
0320
0000
0000
0000
,
2030
0000
0000
0000
,
3200
0000
0000
0000
,
0310
0000
0010
0000
,
0001
0000
0001
0000
,
0100
0100
0010
0010
,
1000
1000
0001
0001
,
1001
0000
0000
0000
;
