#TITLE:Jumper;
#SUBTITLE:;
#ARTIST:Capsule;
#TITLETRANSLIT:;
#SUBTITLETRANSLIT:;
#ARTISTTRANSLIT:;
#GENRE:;
#CREDIT:;
#BANNER:;
#BACKGROUND:;
#LYRICSPATH:;
#CDTITLE:;
#MUSIC:Jumper.ogg;
#OFFSET:0.016000;
#SAMPLESTART:73.851181;
#SAMPLELENGTH:14.769226;
#SELECTABLE:YES;
#BPMS:0.000000=130.000000
,62.250000=260.000000
,62.750000=130.000000
,63.500000=260.000000
,64.000000=130.000000
,96.750000=260.000000
,142.750000=130.000000
,143.000000=260.000000
,158.500000=130.000000
,158.750000=260.000000
,216.000000=65.000000
,218.000000=130.000000
;
#STOPS:93.750000=-0.115385
;
#BGCHANGES:;
#KEYSOUNDS:;
#ATTACKS:;

//---------------dance-single - ----------------
#NOTES:
     dance-single:
     :
     Hard:
     13:
     0.999418,1.000000,0.462766,1.000000,1.000000,595.000000,51.000000,125.000000,0.000000,0.000000,0.000000,0.999418,1.000000,0.462766,1.000000,1.000000,595.000000,51.000000,125.000000,0.000000,0.000000,0.000000:
0000
0000
0000
0000
,
0000
0000
0000
0000
,
0000
0000
0000
0000
,
0000
0000
0000
0000
,
0000
0000
0000
0000
,
0000
0000
0000
0000
,
0000
0000
0000
0000
,
0000
0000
0000
0000
0000
0000
2000
3002
,
1003
0000
0010
0000
0100
0000
0001
0000
1000
0001
1000
0000
0010
0000
0000
0000
,
0010
0000
0100
0000
0010
0000
0000
0000
0100
0000
0000
0000
0001
0000
0100
0000
0010
0000
0000
0000
1000
0000
0000
0000
0001
0000
0000
0000
1000
0001
1000
0001
,
1000
0010
1000
0100
0101
0000
1100
0000
0001
0100
0010
1000
0001
0000
1100
0000
,
1000
0100
0010
0001
1010
0000
0100
0000
1000
0001
0100
0010
0011
0000
1000
0000
,
0100
1000
0001
0010
0100
0000
1010
0000
0010
1000
0001
0100
0011
0000
1000
0000
,
0010
0100
1000
0001
0011
0000
1000
0000
0100
1000
0001
0010
0100
0000
1010
0000
,
0010
1000
0001
0100
0011
0000
1000
0000
0010
0100
1000
0001
0011
0000
0100
0000
,
0001
0100
0010
1000
0001
0000
1100
0000
1000
0002
0000
0000
0003
1010
0200
0000
,
0000
0300
1000
0010
1000
0100
0101
0000
1100
0000
0001
0100
0010
1000
0001
0000
,
1100
0000
1000
0100
0010
0001
1010
0000
0100
0000
1000
0001
0100
0010
0011
0000
,
1000
0000
0100
1000
0001
0010
0100
0000
1010
0000
0010
1000
0001
0100
0011
0000
,
1000
0000
0010
0100
1000
0001
0011
0000
1000
0000
0100
1000
0001
0010
0100
0000
,
1010
0000
0010
1000
0001
0100
0011
0000
1000
0000
0010
0100
1000
0001
0011
0000
,
0100
0000
0001
0100
0010
1000
0001
0000
1100
0000
1000
0010
1000
0100
0101
0000
,
1100
0000
0001
0100
0010
1000
0001
0000
1100
0000
1000
0100
0010
0001
1010
0000
,
0100
0000
2000
0000
3000
0100
0002
0003
1000
0020
0030
0000
2000
3000
0000
0200
,
0300
0010
0200
1300
0000
0000
0101
0000
0000
0000
0000
1010
0000
0000
0000
0101
,
0000
0000
0000
2000
0000
0000
3002
0000
0003
0000
0000
0200
0000
0000
0000
0320
,
0000
0030
0000
2000
0000
3000
0000
0200
0000
0300
0000
2000
0000
3000
0000
0200
,
0000
0300
0000
0020
0000
0030
0000
2000
0000
3000
0101
0000
0000
0000
0000
2000
,
0000
3000
0200
0000
0300
0000
0000
0002
0000
0000
0003
2000
0000
0000
3000
0002
,
0000
0000
0003
0200
0000
0000
0300
0020
0000
0030
0000
0020
0000
0030
0000
2000
,
0000
3000
0000
0020
0000
0030
0000
2000
0000
3000
0000
0020
0000
0030
0000
0002
,
0000
0003
0000
0002
0000
0000
0003
2000
0000
0000
3000
0002
0000
0000
0003
0200
,
0000
0000
0300
0020
0000
0030
0000
0200
0000
0300
0000
2000
0000
3000
0000
0200
,
0000
0300
0000
2000
0000
3000
0000
0200
0000
0300
0000
0020
0000
0030
0000
0002
,
0000
0000
0003
0200
0000
0000
0300
0002
0000
0000
0003
0200
0000
0000
0300
0020
,
0000
0030
0000
2000
0000
3000
0000
0200
0000
0300
0000
2000
3000
0000
2000
0000
,
3000
0000
0020
0000
0030
0000
0002
0000
0003
0000
0200
0000
0000
0300
2000
0000
,
0000
3000
0200
0000
0000
0300
0020
0000
0000
0030
0002
0000
0003
0000
2000
0000
,
3000
0020
0030
2000
3000
0200
0300
2000
,
3000
0000
0002
0000
0003
0000
0200
0000
0000
0300
2000
3000
0200
0000
0000
0300
,
2000
0000
0000
3000
0200
0000
0000
0300
0020
0000
0000
0030
0002
0000
0003
0000
,
2000
3000
0020
0030
2000
3000
0020
0030
,
2000
3000
0002
0003
2000
3000
0020
0030
,
0002
0000
0003
0000
0200
0000
0000
0300
2000
0000
0000
3000
0200
0000
0000
0300
,
0020
0000
0000
0030
0002
0000
0003
0000
2000
0000
3000
0000
0020
0000
0030
0000
,
2000
3000
0200
0300
2000
3000
0002
0003
,
0200
0000
0000
0300
0020
0000
0030
0000
2000
0000
3000
0000
0002
0000
0003
0000
,
0200
0300
0020
0030
2000
3000
0002
0003
,
0200
0300
0020
0030
2000
3000
0200
0300
,
0020
0030
0002
0000
0203
0300
2000
3000
,
0020
0030
2000
3000
0200
0300
0002
0003
,
0200
0300
0020
0030
0002
0000
0203
0300
,
2000
3000
0020
0030
2000
3000
0200
0300
,
0002
0003
0200
0300
0002
0003
2000
3000
,
1000
1010
0001
1100
0010
0101
1000
0011
1000
0000
0100
0000
0010
0001
0100
0100
,
1000
0001
1000
0100
0010
0001
0100
0100
1000
0001
1000
0100
0010
0001
0100
0100
,
1000
0001
1000
0100
0010
0001
0100
0100
1000
0001
1000
0100
0010
0001
0100
0100
,
1000
0001
1000
0100
0010
0001
0100
0100
1000
0001
1000
0100
0010
0001
0100
0100
,
0001
1000
0001
0010
0100
1000
0010
0010
0001
1000
0001
0010
0100
1000
0010
0010
,
0001
1000
0001
0010
0100
1000
0010
0010
1000
0001
1000
0100
0010
0001
0100
0100
,
1000
0001
1000
0100
0010
0001
0100
0100
1000
0001
1000
0100
0010
0001
0100
0100
,
1000
0001
1000
0100
0010
0001
0100
0100
1000
0001
1000
0100
0010
0001
0100
0100
,
1000
0001
1000
0100
0010
0001
0100
0100
1000
0001
1000
0100
0010
0001
0100
0100
,
1000
0001
1000
0100
0010
0001
0100
0100
1000
0001
1000
0100
0010
0001
0100
0100
,
0001
1000
0001
0010
0100
1000
0010
0010
0001
1000
0001
0010
0100
1000
0010
0010
,
0001
1000
0001
0010
0100
1000
0010
0010
1000
0001
1000
0100
0010
0001
0100
0100
,
1000
0001
1000
0100
0010
0001
0100
0100
1000
0001
1000
0100
0010
0001
0100
0100
,
0001
1000
0001
0010
0100
1000
0010
0010
0001
1000
0001
0010
0100
1000
0010
0010
,
0001
1000
0001
0010
0100
1000
0010
0010
0001
1000
0001
0010
0100
1000
0010
0010
,
0001
1000
0001
0010
0100
1000
0010
0010
0001
1000
0001
0010
0100
1000
0010
0010
,
1000
0001
1000
0100
0010
0001
0100
0100
1000
0000
0110
0000
0001
0000
1100
0000
,
0010
0101
1000
0110
0001
1100
0010
0101
,
1000
0110
0001
1100
0010
0101
1000
0110
,
0001
1100
0010
0010
0011
0011
0000
1001
;

//---------------dance-single - ----------------
#NOTES:
     dance-single:
     :
     Medium:
     10:
     0.650724,0.938461,0.290363,0.090738,0.526282,460.000000,32.000000,10.000000,0.000000,0.000000,0.000000,0.650724,0.938461,0.290363,0.090738,0.526282,460.000000,32.000000,10.000000,0.000000,0.000000,0.000000:
0000
0000
0000
0000
,
0000
0000
0000
0000
,
0000
0000
0000
0000
,
0000
0000
0000
0000
,
0000
0000
0000
0000
,
0000
0000
0000
0000
,
0000
0000
0000
0000
,
0000
0000
0000
0000
0000
0000
2000
3002
,
1003
0000
0010
0000
0100
0000
0001
0000
1000
0001
1000
0000
0010
0000
0000
0000
,
0010
0100
0010
0000
0100
0000
0001
0100
0010
0000
1000
0000
0001
0000
1000
0001
,
1000
0000
1000
0000
0101
0000
1100
0000
0001
0000
0010
0100
1000
0000
1100
0000
,
1000
0001
0100
0000
1010
0000
0100
0000
1000
0001
0100
0000
0011
0000
1000
0000
,
0100
1000
0001
0000
0000
0000
1010
0000
0010
0000
0001
0100
0011
0000
1000
0000
,
0010
0100
0001
0000
0011
0000
1000
0000
0100
1000
0001
0010
0100
0000
1010
0000
,
0010
0000
0001
0100
0011
0000
1000
0000
0010
0000
1000
0000
0011
0000
0100
0000
,
0001
0000
0010
1000
0001
0000
1100
0000
1000
0002
0000
0000
0003
1010
0200
0000
,
0000
0300
1000
0010
1000
1000
0101
0000
1100
0000
0100
0100
0010
0010
0001
0000
,
1100
0000
1000
1000
0010
0010
1010
0000
0100
0000
1000
0001
0000
0000
0011
0000
,
1000
0000
0000
0000
0001
0000
0000
0000
1010
0000
0010
1000
0001
0100
0011
0000
,
1000
0000
0000
0000
1000
0000
0011
0000
1000
0000
0100
1000
0001
0000
0000
0000
,
0010
0000
0010
0000
0001
0000
0011
0000
1000
0000
0010
0100
1000
0000
0011
0000
,
0100
0000
0001
0000
0010
1000
0001
0000
1100
0000
0000
0010
1000
0000
0101
0000
,
1100
0000
0001
0100
0010
1000
0001
0000
1100
0000
1000
0100
0010
0001
1010
0000
,
0100
0000
2000
0000
3000
0100
0002
0003
1000
0020
0030
0000
2000
3000
0000
0200
,
0300
0010
0200
1300
0000
0000
0001
0000
0000
0000
0000
1000
0000
0000
0000
0001
,
0000
0000
0000
1000
0000
0000
0010
0000
0000
0000
0000
0100
0000
0000
0000
0001
,
0000
0000
0000
1000
0000
0000
0000
0100
0000
0000
0000
1000
0000
0000
0000
0100
,
0000
0000
0000
0001
0000
0000
0000
1000
0000
0000
0010
0000
0000
0000
0000
1000
,
0000
0000
0100
0000
0000
0000
0000
0010
0000
0000
0000
1000
0000
0000
0000
0010
,
0000
0000
0000
0100
0000
0000
0000
0001
0000
0000
0000
0001
0000
0000
0000
1000
,
0000
0000
0000
0001
0000
0000
0000
1000
0000
0000
0000
0001
0000
0000
0000
0010
,
0000
0000
0000
0010
0000
0000
0000
1000
0000
0000
0000
0010
0000
0000
0000
0100
,
0000
0000
0000
0001
0000
0000
0000
0100
0000
0000
0000
1000
0000
0000
0000
0100
,
0000
0000
0000
1000
0000
0000
0000
0100
0000
0000
0000
0001
0000
0000
0000
0010
,
0000
0000
0000
0100
0000
0000
0000
0010
0000
0000
0000
0100
0000
0000
0000
0001
,
0000
0000
0000
1000
0000
0000
0000
0100
0000
0000
0000
1000
0000
0000
1000
0000
,
0000
0001
0000
0010
0000
0100
0000
1000
,
0000
0100
0000
0001
0000
0010
0000
1000
,
0000
0001
0000
1000
0000
0100
0000
1000
,
0000
0010
0000
0100
0000
1000
0100
0000
,
1000
0100
0001
0010
,
1000
0001
1000
0001
,
1000
0010
1000
0001
,
0010
0100
1000
0100
,
0001
0010
1000
0001
,
1000
0100
1000
0010
,
0100
0001
1000
0010
,
0100
0001
1000
0010
,
0100
0001
1000
0100
,
0001
0010
0100
1000
,
0001
1000
0100
0010
,
0100
0001
0010
0100
,
1000
0001
1000
0100
,
0010
0100
0010
1000
,
1000
1010
0001
1100
0010
0101
1000
0011
1000
0000
0100
0000
0010
0000
0100
0000
,
1000
0001
1000
0000
0010
0000
0100
0000
1000
0001
1000
0000
0010
0000
0100
0000
,
1000
0001
1000
0000
0010
0000
0100
0000
1000
0001
1000
0000
0010
0000
0100
0000
,
1000
0001
1000
0000
0010
0000
0100
0000
1000
0001
1000
0000
0010
0000
0100
0000
,
0001
1000
0001
0000
0100
0000
0010
0000
0001
1000
0001
0000
0100
0000
0010
0000
,
0001
1000
0001
0000
0100
0000
0010
0000
1000
0001
1000
0000
0010
0000
0100
0000
,
1000
0001
1000
0000
0010
0000
0100
0000
1000
0001
1000
0000
0010
0000
0100
0000
,
1000
0001
1000
0000
0010
0000
0100
0000
1000
0001
1000
0000
0010
0000
0100
0000
,
1000
0001
1000
0000
0010
0000
0100
0000
1000
0001
1000
0000
0010
0000
0100
0000
,
1000
0001
1000
0000
0010
0000
0100
0000
1000
0001
1000
0000
0010
0000
0100
0000
,
0001
1000
0001
0000
0100
0000
0010
0000
0001
1000
0001
0000
0100
0000
0010
0000
,
0001
1000
0001
0000
0100
0000
0010
0000
1000
0001
1000
0000
0010
0000
0100
0000
,
1000
0001
1000
0000
0010
0000
0100
0000
1000
0001
1000
0000
0010
0000
0100
0000
,
1000
0001
1000
0000
0010
0000
0100
0000
1000
0001
1000
0000
0010
0000
0100
0000
,
1000
0001
1000
0000
0010
0000
0100
0000
1000
0001
1000
0000
0010
0000
0100
0000
,
1000
0001
1000
0000
0010
0000
0100
0000
1000
0001
1000
0000
0010
0000
0100
0000
,
0001
1000
0001
0000
0100
0000
0010
0000
0001
1000
0001
0000
0100
0000
0010
0000
,
0001
0100
1000
0010
,
1000
0010
1000
0010
,
1000
0000
0010
0000
1000
0010
0010
1000
;

//---------------dance-single - ----------------
#NOTES:
     dance-single:
     :
     Easy:
     4:
     0.356472,0.368681,0.117960,0.018148,0.190551,260.000000,13.000000,2.000000,0.000000,0.000000,0.000000,0.356472,0.368681,0.117960,0.018148,0.190551,260.000000,13.000000,2.000000,0.000000,0.000000,0.000000:
// measure 0
0000
0000
0000
0000
,  // measure 1
0000
0000
0000
0000
,  // measure 2
0000
0000
0000
0000
,  // measure 3
0000
0000
0000
0000
,  // measure 4
0000
0000
0000
0000
,  // measure 5
0000
0000
0000
0000
,  // measure 6
0000
0000
0000
0000
,  // measure 7
0000
0000
0000
0001
,  // measure 8
1000
0100
1000
0001
,  // measure 9
0001
0100
0001
0010
,  // measure 10
1000
0110
0010
1000
,  // measure 11
1000
1001
1000
0011
,  // measure 12
0100
0000
0001
0011
,  // measure 13
0001
0011
0100
0100
,  // measure 14
0001
0011
0001
0011
,  // measure 15
0010
0010
2000
0000
,  // measure 16
3000
1000
1100
0001
,  // measure 17
1100
0001
0100
0000
,  // measure 18
1000
0010
1001
0010
,  // measure 19
1000
1000
1000
0010
,  // measure 20
0001
0010
1000
1000
,  // measure 21
0100
0001
1100
1000
,  // measure 22
1100
0001
1100
0001
,  // measure 23
0100
0000
0000
0000
0000
0000
0000
0000
1000
0000
0000
0000
2000
3000
0000
0000
,  // measure 24
0000
0000
0000
0000
0000
0000
0010
0000
0000
0000
0000
1000
0000
0000
0000
0010
,  // measure 25
0000
0000
0000
1000
0000
0000
0001
0000
0000
0000
0000
0100
0000
0000
0000
0010
,  // measure 26
0000
0000
0000
1000
0000
0000
0000
0100
0000
0000
0000
1000
0000
0000
0000
0100
,  // measure 27
0000
0000
0000
0010
0000
0000
0000
1000
0000
0000
0001
0000
0000
0000
0000
1000
,  // measure 28
0000
0000
0100
0000
0000
0000
0000
0001
0000
0000
0000
1000
0000
0000
0000
0001
,  // measure 29
0000
0000
0000
0100
0000
0000
0000
0010
0000
0000
0000
0010
0000
0000
0000
1000
,  // measure 30
0000
0000
0000
0010
0000
0000
0000
1000
0000
0000
0000
0010
0000
0000
0000
0001
,  // measure 31
0000
0000
0000
0001
0000
0000
0000
1000
0000
0000
0000
0001
0000
0000
0000
0100
,  // measure 32
0000
0000
0000
0010
0000
0000
0000
0100
0000
0000
0000
1000
0000
0000
0000
0100
,  // measure 33
0000
0000
0000
1000
0000
0000
0000
0100
0000
0000
0000
0010
0000
0000
0000
0001
,  // measure 34
0000
0000
0000
0100
0000
0000
0000
0001
0000
0000
0000
0100
0000
0000
0000
0010
,  // measure 35
0000
0000
0000
1000
0000
0000
0000
0100
0000
0000
0000
1000
0000
0000
1000
0000
,  // measure 36
0000
0010
0000
0001
0000
0100
0000
1000
,  // measure 37
0000
0100
0000
0010
0000
0001
0000
1000
,  // measure 38
0000
0010
0000
1000
0000
0100
0000
1000
,  // measure 39
0000
0001
0000
0100
0000
1000
0100
0000
,  // measure 40
1000
0100
0010
0001
,  // measure 41
1000
0010
1000
0010
,  // measure 42
1000
0001
1000
0010
,  // measure 43
0001
0100
1000
0100
,  // measure 44
0010
0001
1000
0010
,  // measure 45
1000
0100
1000
0001
,  // measure 46
0100
0010
1000
0001
,  // measure 47
0100
0010
1000
0001
,  // measure 48
0100
0010
1000
0100
,  // measure 49
0010
0001
0100
1000
,  // measure 50
0010
1000
0100
0001
,  // measure 51
0100
0010
0001
0100
,  // measure 52
1000
0010
1000
0100
,  // measure 53
0001
0100
0001
1000
,  // measure 54
1000
0001
1000
0001
,  // measure 55
1000
0100
1000
0010
,  // measure 56
1000
0001
1000
0010
,  // measure 57
0100
0010
0001
0100
,  // measure 58
1000
0010
0010
0100
,  // measure 59
0010
0100
0100
0100
,  // measure 60
0100
0100
1000
1000
,  // measure 61
0100
0100
0001
1000
,  // measure 62
0100
0010
1000
1000
,  // measure 63
0001
1000
1000
0001
,  // measure 64
0100
1000
0001
0001
,  // measure 65
0001
0100
1000
1000
,  // measure 66
0010
1000
0100
0010
,  // measure 67
1000
0100
0100
0010
,  // measure 68
1000
1000
1000
0010
,  // measure 69
0100
0010
0010
0100
,  // measure 70
0001
0100
1000
0010
,  // measure 71
0010
1000
0100
0010
,  // measure 72
1000
1000
0010
1000
,  // measure 73
1000
0000
0100
0000
0001
0000
0010
0100
;
