#TITLE:Feel The Beat;
#SUBTITLE:;
#ARTIST:Falsion;
#TITLETRANSLIT:;
#SUBTITLETRANSLIT:;
#ARTISTTRANSLIT:;
#GENRE:;
#CREDIT:;
#BANNER:[ROUND A] - Feel The Beat-bn.png;
#BACKGROUND:[ROUND A] - Feel The Beat-bg.png;
#LYRICSPATH:;
#CDTITLE:cdtitle.png;
#MUSIC:[ROUND A] - Feel The Beat.ogg;
#OFFSET:-0.005170;
#SAMPLESTART:54.861000;
#SAMPLELENGTH:12.000000;
#SELECTABLE:YES;
#BPMS:0.000000=175.000000
;
#STOPS:
;
#BGCHANGES:;
#KEYSOUNDS:;
#ATTACKS:;

//---------------dance-single - ----------------
#NOTES:
     dance-single:
     :
     Hard:
     9:
     0.639559,0.796960,0.643092,0.164895,0.333913,543.000000,465.000000,78.000000,20.000000,0.000000,0.000000,0.639559,0.796960,0.643092,0.164895,0.333913,543.000000,465.000000,78.000000,20.000000,0.000000,0.000000:
0000
0000
0000
0000
,
0000
0000
0000
0000
,
0000
0000
0000
0000
,
0000
0000
0000
0000
,
1010
0000
1000
0001
0100
0001
1000
0000
,
0001
0010
0100
1000
0010
0100
0001
0000
,
1000
0100
0001
0100
1000
0010
0001
0010
,
2000
0000
3200
0000
0320
0001
0031
1000
,
0001
0100
0010
0100
1000
0100
0001
0100
,
1000
0100
0010
0100
0001
0100
0010
0010
,
1000
0100
0001
0100
0010
0100
1000
0100
,
0001
0100
0010
0100
1000
1000
0001
0001
,
1000
0010
0100
1000
0100
0001
0010
0100
,
0001
0100
0010
0001
0100
1000
0100
0001
,
1000
0010
0100
0001
1000
0100
0010
0100
,
1100
0000
0011
0000
1000
0001
0100
0000
,
0001
0000
0000
0001
0000
0000
0010
0000
0000
0010
0000
0000
0100
0000
0000
0000
,
1000
0000
0000
1000
0000
0000
0010
0000
0000
0010
0000
0000
0100
0000
0000
0000
,
0001
0000
0000
0001
0000
0000
1000
0000
0000
1000
0000
0000
0010
0000
0000
0000
,
0100
0000
0000
0100
0000
0000
0001
0000
1000
0000
0100
0000
0001
0000
0100
0000
,
1000
0000
0010
0100
0010
0000
0100
0000
0001
0000
0010
0000
0011
0000
0000
0000
,
0001
0000
0100
0010
0100
0000
0010
0000
1000
0000
0100
0000
1100
0000
0000
0000
,
1010
0000
0000
0110
0000
0000
0101
0000
0000
1001
0000
0000
1100
0000
0000
0000
,
0011
0000
0000
0110
0000
0000
1100
0000
0000
1001
0000
0000
0101
0000
0000
0000
,
0220
0000
0000
0000
,
0000
0000
0000
0000
0000
0000
0000
0300
,
2000
0000
0000
0000
,
0000
0000
0000
0000
0000
0000
0000
0030
,
0002
0000
0000
0000
,
0000
0000
0000
0000
0000
0000
0000
3000
,
0020
0000
0000
0000
0000
0000
0000
0003
,
0200
0000
0000
0000
0000
0000
0000
0330
,
0000
0000
1000
0000
0000
0001
0000
0000
0101
0000
0000
0110
0000
0000
1010
0000
,
0000
0000
1000
0000
0000
0001
0000
0000
0011
0000
0000
0110
0000
0000
1100
0000
,
0000
0000
1000
0000
0000
0010
0000
0000
0110
0000
0000
0101
0000
0000
1001
0000
,
0000
0000
1000
0000
0000
0100
0000
0000
0110
0000
0000
0011
0000
0000
1001
0000
,
0000
0000
0001
0000
0000
0010
0000
0000
0100
0000
1000
0000
0000
0100
0000
0000
,
0010
0000
0001
0000
0000
1000
0000
0000
0001
0000
0100
0000
0000
0010
0000
0000
,
1000
0100
0001
0100
1000
0100
0001
0100
,
2000
0000
3000
1001
,
0001
0000
0100
0000
0010
1000
0000
0000
0001
0000
0010
0100
0000
0000
0010
0000
,
0001
0000
1000
0000
0010
0100
0000
0000
0010
0000
1000
0000
0100
0000
0010
0000
,
0100
0000
1000
0000
0001
0010
0000
0000
0100
0000
1000
0001
0000
0000
1000
0000
,
0010
0000
0100
0000
0001
1000
0000
0000
0100
0000
0001
0000
0100
0000
1000
0000
,
0001
0000
0010
0000
0001
0100
0000
0000
0010
0000
1000
0001
0000
0000
0010
0000
,
1000
0000
0010
0000
0001
1000
0000
0000
0010
0000
0100
0000
0001
0000
1000
0000
,
0100
0000
0010
0000
0100
1000
0000
0000
0001
0000
0000
0010
0000
0000
0100
0000
,
0000
0000
1100
0000
0000
1100
0000
0000
1010
0000
0010
0000
0100
0000
0001
0000
,
1000
0100
1000
0000
1000
0010
0000
0000
0100
0000
0000
0001
0000
0000
0001
0000
,
0010
0000
1000
0000
0000
0010
0000
0000
0001
0000
0000
0100
0000
0000
0010
1000
,
0010
0000
1000
0000
0000
0001
0000
0000
0010
0000
0000
0001
0000
0000
0100
0000
,
0010
0000
1000
0000
0000
0001
0000
0000
0001
0000
0100
0000
0010
0000
0100
0000
,
0001
0010
0100
0010
0001
0010
1000
0010
,
0001
0100
1000
0100
0010
0100
0001
0100
,
0000
0000
0101
0000
0000
0101
0000
0000
1010
0000
0000
1001
0000
0000
1100
0000
,
0000
0000
1010
0000
0000
0101
0000
0000
1001
0000
0000
2002
0000
0000
3003
0000
,
0010
0001
0100
0000
0010
0100
0101
0000
,
1000
0100
0001
0100
1000
0010
0100
0000
,
0010
1000
0100
0000
0100
1000
1010
0000
,
0010
0100
1000
0100
0001
0100
0020
2030
,
3001
0010
0100
0000
0100
0010
0110
0000
,
1000
0100
0010
0001
0100
0010
0100
0010
,
1000
1000
0100
0100
0010
0010
0001
0000
,
2000
3020
0230
0000
,
0301
0000
0000
1000
0000
0000
0100
0000
0000
0010
0000
0000
0100
0000
0000
0000
,
1000
0000
0000
0001
0000
0000
0100
0000
0000
0010
0000
0000
0100
0000
0000
0000
,
0101
0000
0000
0101
0000
0000
0011
0000
0000
0011
0000
0000
0110
0000
0000
0000
,
1100
0000
0000
1100
0000
0000
1010
0000
0000
1010
0000
0000
0110
0000
0000
0000
,
0001
0100
1000
0100
0010
0100
0001
0000
,
1000
0010
0001
0010
0100
0010
1000
0000
,
0001
0100
0001
1000
0100
0001
0100
1000
,
1000
0000
0000
0100
0000
0000
0010
0000
0000
0001
0000
0000
0010
0000
0000
0000
,
0200
0000
0000
0000
,
0000
0000
0000
0000
,
0000
0000
0000
0000
,
0000
0000
0000
0000
0000
0000
0000
0300
,
0000
0000
1100
0000
0000
1100
0000
0000
0011
0000
0000
0101
0000
0000
0101
0000
,
0000
0000
1010
0000
0000
1010
0000
0000
0101
0000
0000
1001
0000
0000
1001
0000
,
0000
0000
0110
0000
0000
0110
0000
0000
1100
0000
0000
1100
0000
0000
2000
0000
,
0002
0000
0000
3003
,
1000
0000
0100
0000
1000
0001
0000
0001
0100
0000
0000
0010
0000
0000
0100
0000
,
0001
0000
0010
0000
0000
0100
0000
0000
1000
0000
0000
0100
0000
0000
0010
0001
,
0010
0000
0001
0000
0100
0010
0000
0010
1000
0000
0000
0100
0000
0000
0001
0000
,
0100
0000
1000
0000
0000
0001
0000
0000
0100
0000
0010
0000
1000
0001
1000
0000
,
0001
1000
0010
0000
0100
0010
1000
0000
,
0100
0010
0001
0000
1000
0001
0010
0100
,
0000
0000
1100
0000
0000
1100
0000
0000
0011
0000
0000
0011
0000
0000
1001
0000
,
0000
0000
1010
0000
0000
1010
0000
0000
0110
0000
0000
0110
0000
0000
0101
0000
;

//---------------dance-single - ----------------
#NOTES:
     dance-single:
     :
     Medium:
     8:
     0.504109,0.615833,0.288567,0.181385,0.206119,428.000000,393.000000,35.000000,22.000000,0.000000,0.000000,0.504109,0.615833,0.288567,0.181385,0.206119,428.000000,393.000000,35.000000,22.000000,0.000000,0.000000:
0000
0000
0000
0000
,
0000
0000
0000
0000
,
0000
0000
0000
0000
,
0000
0000
0000
0000
,
0001
0100
0010
0000
0010
0100
0001
0000
,
1000
0100
0010
0000
0010
0100
1000
0000
,
0001
0100
0001
0100
0010
1000
0010
1000
,
0002
0000
0023
0000
0031
0100
0010
1000
,
0001
0010
0001
0000
0001
1000
0001
0000
,
0001
0100
0001
0000
0001
1000
0010
0010
,
1000
0100
1000
0000
1000
0001
1000
0000
,
1000
0010
1000
0000
1000
0001
1000
0001
,
0010
0100
0010
0000
0100
1000
0100
0000
,
1000
0001
1000
0000
0010
0100
0010
0000
,
1000
0100
1000
0100
0010
0001
0010
0001
,
0200
0000
0320
0000
1030
0001
1000
0000
,
0002
0000
0000
0003
,
0020
0000
0000
0030
,
0200
0000
0000
0300
,
2000
0000
0000
0000
3001
1000
0001
0000
,
0100
0000
0010
0000
0100
0001
0101
0000
,
0010
0000
0100
0000
0010
1000
1010
0000
,
1000
0000
0000
0001
0000
0000
0010
0000
0000
0001
0000
0000
0101
0000
0000
0000
,
0001
0000
0000
1000
0000
0000
0010
0000
0000
1000
0000
0000
1100
0000
0000
0000
,
2002
0000
0000
0000
,
0000
0000
0000
0003
,
0020
0000
0000
0000
,
0000
0000
0000
3000
,
0200
0000
0000
0000
,
0000
0000
0000
0030
,
0002
0000
0000
0000
,
0000
0000
0000
0303
,
0000
0000
0001
0000
0000
1000
0000
0000
0100
0000
0000
0010
0000
0000
0011
0000
,
0000
0000
1000
0000
0000
0001
0000
0000
0100
0000
0000
0010
0000
0000
1010
0000
,
0000
0000
0001
0000
0000
0010
0000
0000
0100
0000
0000
1000
0000
0000
1100
0000
,
0000
0000
1000
0000
0000
0010
0000
0000
0100
0000
0000
0001
0000
0000
0101
0000
,
0000
0000
0010
0000
0000
1000
0000
0000
0001
0000
1000
0000
0000
0001
0000
0000
,
0010
0000
0100
0000
0000
0010
0000
0000
0100
0000
1000
0000
0000
0100
0000
0000
,
1000
0010
1000
0010
0100
0001
0100
0001
,
2000
0000
3000
1001
,
0001
1000
0100
0000
1000
0100
0010
0000
,
0001
1000
0010
0000
1000
0010
0001
0010
,
1000
0100
0010
0000
0100
1000
0001
0000
,
1000
0010
0100
0000
0001
0100
1000
0100
,
0001
1000
0001
0000
0010
0100
1000
0000
,
0010
0100
0010
0000
1000
0100
0010
0100
,
1000
0010
0100
0000
0010
1000
0001
0100
,
0000
0000
0001
0000
0000
0100
0000
0000
0001
0000
0000
1000
0000
0000
0100
0000
,
1000
0000
0010
0000
1000
0000
0000
0000
0001
0000
0000
0100
0000
0000
0010
0000
,
1000
0000
0001
0000
1000
0000
0000
0000
0100
0000
0000
0010
0000
0000
0001
0000
,
0100
0000
0010
0000
0100
0000
0000
0000
0010
0000
0000
1000
0000
0000
0001
0000
,
1000
0100
1000
0000
0001
0010
0100
1000
,
0010
0100
0010
0000
0010
0001
0010
0000
,
0010
1000
0010
0000
0010
0100
0001
1000
,
0000
0000
0100
0000
0000
0010
0000
0000
0001
0000
0000
0100
0000
0000
0101
0000
,
0000
0000
0010
0000
0000
1000
0000
0000
0001
0000
0000
1001
0000
0000
0000
0000
,
1000
0000
0001
0010
0000
0000
0011
0000
,
0001
0100
0000
0100
0001
0000
1001
0000
,
0001
0000
1000
0100
0000
0000
1100
0000
,
1000
0010
0000
0010
0100
0000
0020
0000
,
0130
0000
0001
1000
0000
0000
1001
0000
,
0001
0010
0000
0010
0100
0000
1100
0000
,
0001
0100
0001
0100
0010
1000
0010
0000
,
2000
3200
0320
0000
,
0031
0000
0000
0100
0000
0000
0010
0000
0000
0100
0000
0000
0001
0000
0000
0000
,
1000
0000
0000
0100
0000
0000
0010
0000
0000
0100
0000
0000
1000
0000
0000
0000
,
1010
0000
0000
0010
0000
0000
0100
0000
0000
0001
0000
0000
1001
0000
0000
0000
,
0011
0000
0000
0010
0000
0000
0100
0000
0000
1000
0000
0000
1001
0000
0000
0000
,
0010
1000
0010
0000
1000
0100
1000
0000
,
0100
0001
0100
0000
0001
0010
0001
0000
,
0010
1000
0010
1000
0001
0100
0001
0010
,
0100
0000
0000
1000
0000
0000
0100
0000
0000
0010
0000
0000
0001
0000
0000
0000
,
2002
0000
0000
0000
,
0000
0000
0000
0000
,
0000
0000
0000
0000
,
0000
0000
0000
3003
,
0000
0000
0101
0000
0000
0001
0000
0000
1000
0000
0000
0100
0000
0000
1100
0000
,
0000
0000
0011
0000
0000
0001
0000
0000
1000
0000
0000
0010
0000
0000
1010
0000
,
0000
0000
0110
0000
0000
0100
0000
0000
0001
0000
0000
1000
0000
0000
0001
0000
,
2002
0000
0000
3003
,
1000
0000
0100
0000
1000
0000
0000
0000
0010
0000
0000
0010
0000
0000
0100
0000
,
0001
0000
1000
0000
0000
1000
0000
0000
0001
0000
0000
0001
0000
0000
0001
0000
,
0100
0000
0010
0000
0100
0000
0000
0000
0010
0000
0000
0010
0000
0000
1000
0000
,
0001
0000
1000
0000
0000
1000
0000
0000
0100
0000
0010
0000
0100
0000
0010
0000
,
0001
0100
0001
0000
0100
1000
0100
0000
,
1000
0010
1000
0000
0010
0001
0010
0000
,
0000
0000
0101
0000
0000
0001
0000
0000
0100
0000
0000
0010
0000
0000
1010
0000
,
0000
0000
1100
0000
0000
1100
0000
0000
0011
0000
0000
0011
0000
0000
1001
0000
;

//---------------dance-single - ----------------
#NOTES:
     dance-single:
     :
     Easy:
     5:
     0.268544,0.362255,0.107182,0.206119,0.000000,228.000000,215.000000,13.000000,25.000000,0.000000,0.000000,0.268544,0.362255,0.107182,0.206119,0.000000,228.000000,215.000000,13.000000,25.000000,0.000000,0.000000:
0000
0000
0000
0000
,
0000
0000
0000
0000
,
0000
0000
0000
0000
,
0000
0000
0000
0000
,
1000
0100
1000
0000
,
0001
0100
0001
0000
,
1000
0010
1000
0010
,
0200
0000
0000
0000
,
0301
0001
1000
1000
,
0001
0001
0100
0100
,
0010
0010
1000
1000
,
0001
0000
0001
0000
0010
0010
0010
0000
,
0001
1000
0001
1000
,
0010
0100
0010
0100
,
0001
0001
1000
1000
,
0200
0000
0000
0000
,
2300
0000
0000
0000
,
3020
0000
0000
0000
,
0032
0000
0000
0000
,
0203
0000
0000
0000
,
1300
0010
1000
0000
,
0010
0100
0010
0000
,
0100
0000
0000
0001
0000
0000
1000
0000
,
0100
0000
0000
1000
0000
0000
0001
0000
,
2000
0000
0000
0000
,
0000
0000
0000
0000
,
3200
0000
0000
0000
,
0000
0000
0000
0000
,
0320
0000
0000
0000
,
0000
0000
0000
0000
,
0032
0000
0000
0000
,
0000
0000
0000
0000
,
1003
0000
1010
0000
,
1000
0000
1001
0000
,
0001
0000
0011
0000
,
0001
0000
1001
0000
,
1000
1000
0001
0001
,
1000
1000
0001
0001
,
0100
0010
0100
0010
,
0220
0000
0000
0330
,
0100
0001
0100
0000
,
0001
1000
0001
0000
,
1000
0100
1000
0000
,
0100
0000
0010
0000
0001
1000
0001
0000
,
1000
0010
1000
0000
,
0010
0100
0010
0100
,
0001
0100
0001
1000
,
0000
0100
0000
0000
1000
0000
1000
0000
,
0001
0010
0001
0000
,
0010
0100
0010
0000
,
0100
1000
0100
0000
,
1000
0000
0001
0000
1000
0001
1000
0000
,
0010
0010
0001
0001
,
0100
0100
1000
1000
,
0000
0010
0000
0000
0010
0000
0000
0010
,
0000
0100
0000
0000
0100
0000
0000
0000
,
0001
0010
0000
0011
,
0000
1000
0010
0010
,
1000
0100
0000
1100
,
1000
0001
1000
1000
,
0001
0100
0000
0101
,
0000
0001
0010
0001
,
1000
0010
1000
0010
,
0200
0000
0000
0000
,
0302
0000
0000
0000
,
0023
0000
0000
0000
,
2030
0000
0000
0000
,
3200
0000
0000
0000
,
0301
0001
0001
0000
,
1000
1000
1000
0000
,
0010
0010
0100
0100
,
0001
1000
0001
0000
,
2002
0000
0000
0000
,
0000
0000
0000
0000
,
0000
0000
0000
0000
,
0000
0000
0000
3003
,
0000
1000
0000
0000
0010
0000
0000
1010
,
0000
0001
0000
0000
0100
0000
0000
0101
,
0000
1000
0000
0000
0001
0000
1000
0000
,
2002
0000
0000
3003
,
0001
0001
0100
0100
,
0001
0001
1000
0100
,
1000
1000
0010
0010
,
1000
1000
0100
0010
,
0002
0000
2003
0000
,
3020
0000
0230
0000
,
0300
0001
0000
0000
0001
0000
0000
0001
,
0000
1000
0000
0000
1000
0000
0000
1001
;
