#VERSION:0.83;
#TITLE:Chance It;
#SUBTITLE:;
#ARTIST:Lyu☆;
#TITLETRANSLIT:;
#SUBTITLETRANSLIT:;
#ARTISTTRANSLIT:Lyu*;
#GENRE:;
#ORIGIN:;
#CREDIT:;
#BANNER:[ROUND A] - Chance It-bn.png;
#BACKGROUND:[ROUND A] - Chance It-bg.png;
#PREVIEWVID:;
#JACKET:[ROUND A] - Chance It-jacket.png;
#CDIMAGE:;
#DISCIMAGE:;
#LYRICSPATH:;
#CDTITLE:;
#MUSIC:[ROUND A] - Chance It.ogg;
#OFFSET:-0.656000;
#SAMPLESTART:16.725002;
#SAMPLELENGTH:16.118000;
#SELECTABLE:YES;
#DISPLAYBPM:134.000000;
#BPMS:0.000=134.000;
#STOPS:199.500=0.224,
200.000=0.224,
200.500=0.224,
201.000=0.224;
#DELAYS:;
#WARPS:;
#TIMESIGNATURES:0.000=4=4;
#TICKCOUNTS:0.000=4;
#COMBOS:0.000=1;
#SPEEDS:0.000=1.000=0.000=0;
#SCROLLS:0.000=1.000;
#FAKES:;
#LABELS:0.000=Song Start;
#BGCHANGES:;
#KEYSOUNDS:;
#ATTACKS:
;

//---------------dance-single - ----------------
#NOTEDATA:;
#CHARTNAME:;
#STEPSTYPE:dance-single;
#DESCRIPTION:;
#CHARTSTYLE:;
#DIFFICULTY:Beginner;
#METER:2;
#RADARVALUES:0.154929,0.161461,0.016187,0.105213,0.000000,134.000000,132.000000,2.000000,13.000000,0.000000,0.000000,0.000000,0.000000,0.000000,0.154929,0.161461,0.016187,0.105213,0.000000,134.000000,132.000000,2.000000,13.000000,0.000000,0.000000,0.000000,0.000000,0.000000;
#CREDIT:;
#DISPLAYBPM:134.000000;
#NOTES:
0000
0000
0000
0000
,
0010
0000
0000
0000
,
1000
0000
0000
0000
,
0001
0000
0000
0000
,
0100
0000
0000
0000
,
0000
0001
0000
0001
,
0000
1000
0000
1000
,
0100
0000
0010
0000
,
1001
0000
0000
0010
,
0010
0000
1000
0000
,
0001
0001
0001
0000
,
0010
0000
0100
0000
,
1000
1000
1000
0000
,
0010
0000
0001
0000
,
1000
1000
1000
0000
,
0010
0000
0100
0000
,
0001
0001
0001
0000
,
0100
0000
0100
0000
,
0020
0000
0030
1000
,
1000
0000
1000
0000
,
0200
0000
0300
0001
,
0001
0000
0001
0000
,
0100
0000
0010
0000
,
0100
0000
1000
0000
,
0001
0000
1000
0000
,
0010
0000
0001
0000
,
0001
0000
0001
0000
,
0010
0000
0100
0000
,
1000
0000
1000
0000
,
0010
0000
0100
0000
,
0020
0000
0030
0000
,
0200
0000
0300
0000
,
0002
0003
2000
3000
,
0020
0000
0000
0030
,
0100
0000
0100
0000
,
0010
0010
0010
0000
,
1000
0000
1000
0000
,
0001
0001
0001
0000
,
0010
0000
0010
0000
,
0100
0100
0100
0000
,
0001
0000
0001
0000
,
1000
1000
1000
0000
,
0020
0000
0030
0000
,
0200
0000
0300
0000
,
0020
0000
0030
0000
,
0002
0000
0003
0000
,
2000
0000
3000
0000
,
0002
0000
0003
0000
,
1000
0000
0010
0000
,
0100
0000
0010
0000
,
0000
0000
1000
0000
,
0100
0000
0010
0010
,
0010
0000
0001
0000
,
0010
0000
0100
0100
,
0100
0000
0010
0000
,
1000
0000
0001
0001
,
0001
0000
0100
0000
,
0001
0000
1000
1000
,
1000
0000
0010
0000
,
0001
0010
0000
0010
,
0001
0000
0100
0000
,
1000
0100
0000
0100
,
1000
0000
0010
0000
,
0000
0010
0100
0000
,
0000
0100
0010
0000
,
1000
0000
0001
0000
,
0100
0000
1001
0000
;

//---------------dance-single - ----------------
#NOTEDATA:;
#CHARTNAME:;
#STEPSTYPE:dance-single;
#DESCRIPTION:;
#CHARTSTYLE:;
#DIFFICULTY:Easy;
#METER:4;
#RADARVALUES:0.293671,0.322923,0.258986,0.097120,0.000000,254.000000,222.000000,32.000000,12.000000,0.000000,0.000000,0.000000,0.000000,0.000000,0.293671,0.322923,0.258986,0.097120,0.000000,254.000000,222.000000,32.000000,12.000000,0.000000,0.000000,0.000000,0.000000,0.000000;
#CREDIT:;
#DISPLAYBPM:134.000000;
#NOTES:
0000
0000
0000
0000
,
1000
1000
1000
0000
,
0001
0001
0001
0000
,
1000
1000
1000
0000
,
0001
0001
0001
0000
,
0010
0100
0010
0100
,
1000
0100
1000
0100
,
0001
0100
0001
0100
,
1000
0001
0000
0110
,
1000
1000
0100
0010
,
0001
0010
0100
0000
,
0001
0001
0100
0010
,
1000
0001
1000
0000
,
0100
1000
0001
0010
,
0001
1000
0100
0000
,
1000
0010
0001
0010
,
1000
0001
0100
0000
,
0001
0100
1000
0010
,
0001
0001
0010
0100
,
2000
3000
0002
0003
,
1000
1000
0010
0100
,
0002
0003
2000
3000
,
0100
1000
0100
0100
,
0010
0001
0010
0010
,
0001
0100
0010
1000
,
0100
0010
0100
1001
,
1000
1000
1000
0110
,
0001
0001
0001
0110
,
0010
0010
0010
1001
,
0100
0100
0100
1001
,
1010
0000
0100
0100
,
0011
0000
0010
0010
,
1100
0000
0101
0000
,
1001
0000
0110
0000
,
1000
1000
0100
0100
,
1000
0011
0011
0000
,
0001
0001
0010
0010
,
0001
1100
1100
0000
,
0010
0100
0010
0001
,
0101
0101
1010
0000
,
1000
0001
0010
0100
,
1000
1010
0101
0000
,
0200
0000
0000
0010
,
0320
0000
2030
0000
,
3200
0000
0000
0010
,
0320
0000
0032
0000
,
2003
0000
3100
1000
,
1000
0100
0010
0000
,
0002
0000
0103
0001
,
0001
0010
0100
1000
,
0001
0001
0001
0000
0010
0000
0100
0000
,
0010
0010
0001
0101
,
1100
0000
0100
0010
,
0100
0100
0010
0011
,
1010
0000
1000
0010
,
0100
0001
0010
0100
,
1000
0000
0001
1000
,
0001
0010
0010
0100
,
1000
0000
1100
0010
,
1100
0010
0001
0001
,
0001
0000
0101
0010
,
0101
0010
1000
1000
,
1000
0000
0100
0000
,
0010
0010
0010
1001
,
1001
0000
1000
0100
,
0001
0100
1000
0010
,
0001
0010
1001
0000
;

//---------------dance-single - ----------------
#NOTEDATA:;
#CHARTNAME:;
#STEPSTYPE:dance-single;
#DESCRIPTION:;
#CHARTSTYLE:;
#DIFFICULTY:Medium;
#METER:6;
#RADARVALUES:0.445131,0.457474,0.420852,0.048560,0.040466,385.000000,333.000000,52.000000,6.000000,0.000000,0.000000,0.000000,0.000000,0.000000,0.445131,0.457474,0.420852,0.048560,0.040466,385.000000,333.000000,52.000000,6.000000,0.000000,0.000000,0.000000,0.000000,0.000000;
#CREDIT:;
#DISPLAYBPM:134.000000;
#NOTES:
0000
0000
0000
0000
,
1000
0000
0000
0000
1000
0000
0000
1000
0000
0000
1000
0000
0000
0000
0000
0000
,
0001
0000
0000
0000
0001
0000
0000
0001
0000
0000
0001
0000
0000
0000
0000
0000
,
0010
0000
0000
0000
0010
0000
0000
0010
0000
0000
0010
0000
0000
0000
0000
0000
,
0100
0000
0000
0000
0100
0000
0000
0010
0000
0000
0000
0000
1001
0000
0000
0000
,
1000
0100
1000
0010
1000
0000
0001
0000
,
0001
0100
0001
0010
0001
0000
1000
0000
,
0010
0100
0010
0000
0100
0010
0100
0000
,
1000
0010
0100
0001
1000
0000
1001
0000
,
0001
0100
0001
0100
0001
0000
1010
0000
,
1100
0110
0011
0000
,
1000
0100
1000
0100
1000
0000
0011
0000
,
0101
0110
1010
1001
,
0001
0010
0100
0010
0001
0000
1100
0000
,
0110
1100
1001
0000
,
1000
0010
0100
0010
1000
0000
0101
0000
,
0001
1000
0010
0100
0010
0000
1010
0000
,
1000
0000
0000
0000
0001
0000
0000
0001
0000
0000
1000
0000
0010
0000
0000
0000
,
0001
0000
0100
0000
0001
0100
0001
0000
,
1000
0000
0000
1000
0000
0000
0000
0000
0100
0000
0000
0100
0000
0000
0000
0000
,
1000
0000
0010
0000
1000
0010
1000
0000
,
0001
0000
0000
0001
0000
0000
0000
0000
0010
0000
0000
0010
0000
0000
0000
0000
,
0100
1000
0100
0010
0001
0010
0100
0000
,
0001
0100
0001
1000
0010
1000
0001
0000
,
1000
0100
1000
0001
0100
0001
1000
0000
,
0010
0100
0010
0100
0010
0000
1001
0000
,
2000
0100
0001
0010
,
3002
0100
1000
0010
,
0023
1000
0100
0001
,
0230
1000
0010
0001
,
1300
1000
0010
0000
0001
0000
0100
0000
,
0001
0001
0010
0000
1000
0000
0100
0000
,
1000
1000
0000
0000
0001
0001
0000
0000
,
0010
0010
0100
0100
0100
0000
1001
0000
,
1000
0100
0001
0100
1000
0100
1000
0000
,
1010
1100
1010
0000
,
0001
0100
1000
0100
0001
0100
0010
0000
,
1010
0011
0110
0000
,
1000
0100
0010
0001
0100
0010
1000
0000
,
0011
0101
0011
0001
,
0010
0100
1000
0001
0010
0100
1000
0000
,
0101
1100
0110
0000
,
0002
0100
0100
0010
,
1000
1000
0100
0000
,
2003
0100
0100
0010
,
0001
0001
3100
0000
,
0100
0010
0100
0010
0100
0010
0100
0000
,
1000
0001
0010
0100
,
1000
0001
1000
0001
1000
0001
1000
0000
,
0001
0000
0010
0000
0100
0000
1000
0010
,
0010
0010
0010
0000
0100
0001
1000
0001
,
0100
1010
1100
0110
,
1001
0000
0000
0000
0010
1000
0001
1000
,
0010
0101
0011
1001
,
0110
0000
0000
0000
0001
0010
0100
0001
,
0100
0010
0001
0000
1100
0000
0110
0000
,
0011
0000
0000
0000
1000
0010
0100
1000
,
0100
0010
1000
0000
1010
0000
1001
0000
,
0101
0000
0000
0000
0001
1000
0100
0000
,
1000
0001
0100
0000
0001
0010
0100
0010
,
0001
0000
1001
0000
1000
0010
0100
0000
,
0001
0010
0100
0000
1000
0100
0010
0100
,
1000
0000
0110
0000
0100
0010
1000
0001
,
1000
0000
0000
1000
0000
0000
1000
0000
0100
0000
0000
0000
0010
0000
0100
0000
,
0010
0001
0001
0000
0010
0010
0010
0000
,
0100
0100
0100
0000
1010
0000
0101
0000
,
0011
1100
1001
0000
;

//---------------dance-single - ----------------
#NOTEDATA:;
#CHARTNAME:;
#STEPSTYPE:dance-single;
#DESCRIPTION:;
#CHARTSTYLE:;
#DIFFICULTY:Hard;
#METER:9;
#RADARVALUES:0.631277,0.699666,0.331825,0.105213,0.380385,546.000000,505.000000,41.000000,13.000000,0.000000,0.000000,0.000000,0.000000,0.000000,0.631277,0.699666,0.331825,0.105213,0.380385,546.000000,505.000000,41.000000,13.000000,0.000000,0.000000,0.000000,0.000000,0.000000;
#CREDIT:;
#DISPLAYBPM:134.000000;
#NOTES:
0000
0000
0000
0000
0000
0000
0000
0000
0000
0000
0000
0000
0001
1000
0001
1000
,
0001
0000
0100
0000
0010
0000
0000
1000
0000
0000
1000
0000
0010
0000
0000
0000
,
0001
0000
1000
0000
0010
0000
0000
0001
0000
0000
0001
0000
1000
0000
0000
0000
,
0001
0000
1000
0000
0010
0000
0000
0100
0000
0000
0100
0000
1000
0000
0000
0000
,
0100
0000
0001
0000
1000
0000
0010
0100
0000
0000
0001
0000
0010
0000
0100
0000
,
1000
0000
1000
0000
0100
1000
0100
0000
0010
0000
0100
1000
0000
0000
0000
0000
,
0001
0000
0001
0000
0100
0001
0100
0000
0010
0000
0100
0001
0000
0000
0000
0000
,
1000
0000
0010
0000
0100
0010
1000
0000
0001
0000
0100
0000
0010
0100
0001
0000
,
1001
0000
1001
0000
0000
0010
0000
0000
1000
0010
0100
0001
2000
0000
0000
0000
,
3100
0000
0100
0000
1000
0000
0001
0000
0010
0000
0100
0000
0001
0000
0000
0001
,
0010
0000
0000
0100
1000
0000
0001
1000
0001
0000
0100
0000
0110
0000
0000
0000
,
0001
0000
0100
0000
1000
0000
0100
0000
0001
0000
1000
0000
0010
0000
0000
1000
,
0001
0000
0100
0001
0010
0000
0100
0000
1000
0000
0100
0000
0010
0000
0010
0000
,
0010
0000
0001
0000
0100
0000
0010
0000
1000
0000
0001
0000
0010
0000
0000
0100
,
1000
0000
0000
0001
0010
0000
0100
0010
0001
0000
0100
0000
0110
0000
0000
0000
,
1000
0000
0010
0000
0100
0000
0010
0000
1000
0000
0100
0000
0010
0000
0000
0001
,
1000
0000
0100
0010
0001
0000
0010
0000
0100
0000
0100
0000
1001
0000
0000
0000
,
0100
0000
0000
0000
0011
0000
0000
1010
0000
0000
0011
0000
0100
0010
0100
0010
,
0100
0000
0010
0000
0001
0000
1000
0100
1000
0000
0100
0000
0010
0100
1000
0000
,
0002
0000
0003
0100
0000
0000
2000
0000
3000
0100
0000
0000
0001
0010
0000
0100
,
1000
0000
0001
0000
0001
0000
1000
0000
0010
0000
1000
0010
0100
0000
0001
0000
,
0020
0000
0030
0001
0000
0000
0200
0000
0300
1000
0000
0000
1001
0000
0010
0000
,
1001
0000
0100
0000
0010
0000
0000
1000
0100
0000
0001
0100
0000
0000
0100
0000
,
1000
0000
0010
0000
0100
0000
0010
1000
0100
0000
1000
0000
1000
0000
0001
0000
,
0100
0000
0001
0010
0000
0010
0000
0000
0100
0000
1000
0000
0001
0000
0010
0001
,
0100
0000
1000
0000
1000
0000
0001
0000
0001
0000
0000
0010
0000
0000
0100
0000
,
2000
0000
0010
0100
0010
0000
3001
0000
,
0002
0000
0100
0010
0100
0000
1003
0000
,
0200
0000
0001
1000
0001
0000
0310
0000
,
0020
0000
0000
0000
1000
0000
0100
0000
0031
0000
0000
0010
0100
0000
0000
0000
,
1100
0000
1100
0000
0000
0000
0010
0000
0001
1000
0001
0000
0010
0000
0000
0000
,
0101
0000
0101
0000
0000
0000
0100
0000
0010
1000
0010
0000
0100
0000
0000
0000
,
1010
1010
0000
0100
0011
0011
0000
0100
,
0000
1000
0100
0000
0000
0010
0100
0000
0000
0001
0100
0000
0001
1000
0001
0000
,
1000
0000
0010
0000
0001
0000
0010
0000
1000
0000
0100
0000
0010
0000
0000
1000
,
0010
0000
0000
0001
0100
0000
0001
1000
0001
0000
0010
0000
0100
0000
0000
0000
,
0001
0000
0100
0000
1000
0000
0100
0000
0001
0000
1000
0000
0010
0000
0000
0100
,
1000
0000
0010
1000
0100
0000
0010
0000
0001
0000
0000
0000
0100
0000
0100
0000
,
0100
0000
0010
0000
1000
0000
0100
0000
0001
0000
1000
0000
0010
0000
0000
0010
,
0001
0000
0000
0100
1000
0000
0001
1000
0001
0000
0100
0000
0010
0000
1000
0000
,
1000
0000
0010
0000
0100
0000
0001
0000
0010
0000
0100
0000
1000
0000
0000
0001
,
0100
0000
0010
1000
0100
0000
0010
0000
1001
0000
0000
0000
0100
0000
0000
0000
,
2000
0000
0010
0000
0000
0001
0000
0000
0010
0000
0000
0001
0000
0000
3010
0000
,
0200
0000
1000
0000
0000
0010
0000
0000
1000
0000
0000
0010
0000
0000
1300
0000
,
0002
0000
0100
0000
0000
1000
0000
0000
0100
0000
0000
1000
0000
0000
0103
0000
,
0020
0000
0001
0000
0000
0100
0000
0000
0001
0000
0000
0130
0000
0000
1000
0000
,
1000
0000
0100
0000
0010
0001
0000
0010
0100
0000
0010
0001
0000
0100
0010
0000
,
0001
0000
0010
0000
0100
1000
0000
0100
0010
0000
0100
1000
0000
0010
0100
0000
,
0001
1000
1000
0001
0010
0100
0100
0010
,
0100
1000
0001
0001
1000
0010
0100
1001
,
0110
1010
0101
0011
1000
0010
0100
0010
,
0001
0000
1000
0000
0100
0000
0000
0010
1000
0000
0000
0001
0010
0000
0001
0100
,
0010
0100
1001
0000
0001
0010
0100
0010
,
1000
0000
0100
0000
0010
0000
0000
0001
1000
0000
0100
1000
0100
0000
0010
0000
,
0001
0001
1000
1010
0101
0001
1000
0010
,
1000
0000
0100
0000
0010
0000
0000
0010
0100
0000
0000
0010
0001
0000
1000
0100
,
0010
0001
0110
0000
1000
0100
0010
0100
,
1000
0001
0010
0100
0010
0001
1000
0001
,
0100
0010
0100
0010
0100
0000
0000
0000
0001
0000
0001
0000
1000
0000
1000
0000
,
0001
0000
0010
0000
0100
0000
0000
1000
0100
0000
0000
0010
0001
0000
1000
0000
,
0010
0100
0001
0000
0010
0010
0100
0100
,
1000
0000
0001
0000
1000
0000
0000
0100
0010
0000
0001
0010
0100
0000
1000
0000
,
0001
0000
1000
0100
0001
0100
1000
0100
,
0010
0000
0000
0011
0000
0000
1010
0000
0110
0000
0000
0100
0001
0000
0000
0001
,
1000
0110
1001
0110
1001
1001
1010
0000
,
0110
0110
0101
0000
1000
1000
0001
0001
,
0100
0010
1001
0000
;
