#TITLE:Cattleya;
#SUBTITLE:;
#ARTIST:Sota Fujimori 2nd Season;
#TITLETRANSLIT:;
#SUBTITLETRANSLIT:;
#ARTISTTRANSLIT:;
#GENRE:;
#CREDIT:Telperion+;
#BANNER:[ROUND A] - Cattleya.png;
#BACKGROUND:[ROUND A] - Cattleya-bg.png;
#JACKET:[ROUND A] - Cattleya-jacket.png;
#LYRICSPATH:;
#CDTITLE:cdtitle.png;
#MUSIC:[ROUND A] - Cattleya.ogg;
#OFFSET:-0.598;
#SAMPLESTART:55.386940;
#SAMPLELENGTH:10.516312;
#SELECTABLE:YES;
#BPMS:0.000000=184.000000
,232.000000=92.000000
,250.000000=184.000000
;
#STOPS:
;
#BGCHANGES:;
#KEYSOUNDS:;
#ATTACKS:;

//---------------dance-single - Telperion----------------
#NOTES:
     dance-single:
     Telperion:
     Hard:
     9:
     0.744542,1.244526,0.420306,0.327839,0.701911,620.000000,570.000000,50.000000,39.000000,0.000000,0.000000,0.744542,1.244526,0.420306,0.327839,0.701911,620.000000,570.000000,50.000000,39.000000,0.000000,0.000000:
// measure 0
0000
0000
0000
0000
,  // measure 1
2001
0000
3010
1000
0100
1000
0010
0001
,  // measure 2
0000
0010
0000
2000
0000
3001
0010
0100
,  // measure 3
1000
0000
0001
0000
0100
0010
0000
2000
,  // measure 4
0000
0000
3000
0012
0000
1003
0001
0000
,  // measure 5
2100
0000
3001
1000
0100
0001
0000
0200
,  // measure 6
0000
0320
0000
0031
0000
1000
0001
1000
,  // measure 7
0020
0000
0130
0001
0010
0100
1000
0020
,  // measure 8
0000
0130
0000
0101
0000
0100
0010
1000
,  // measure 9
1001
0001
0010
0001
0100
0001
0010
1000
,  // measure 10
0000
0010
0000
0002
0000
1003
0010
0100
,  // measure 11
0001
0000
1000
0000
0100
0010
0000
0002
,  // measure 12
0000
0000
0000
0000
0003
0000
1000
0000
0010
1000
0010
0100
0001
0000
0000
0000
,  // measure 13
0101
0001
1000
0001
0100
1000
0000
0200
,  // measure 14
0000
0320
0000
1030
0000
0001
1000
0001
,  // measure 15
0010
0000
0110
0000
1100
1000
0000
0102
,  // measure 16
0000
0103
0001
2000
0000
0000
3000
0000
,  // measure 17
0010
0000
0100
0000
0010
0000
0000
1000
0000
0000
0010
0000
0100
0001
0100
0000
,  // measure 18
0010
0000
0000
0000
1000
0001
1000
0000
0000
0000
0001
0010
0000
0001
1000
0000
,  // measure 19
0100
0000
0000
0000
0010
0001
0000
0010
0000
0000
0100
0000
1000
0000
0001
0000
,  // measure 20
0100
0000
0000
0000
0001
1000
0001
0000
0000
0000
1000
0010
0000
1000
0001
0000
,  // measure 21
0010
0000
0100
0000
1000
0100
1000
0000
0000
0000
0001
0000
0100
0000
1010
0000
,  // measure 22
0000
0010
0110
0000
2002
0000
3003
0000
,  // measure 23
1000
0000
0000
0000
0100
0010
0000
0001
0000
0000
1000
0000
0001
0000
0011
0000
,  // measure 24
0000
0000
0010
0000
0110
0000
0100
0000
1000
0000
0001
1000
0001
0000
0000
0000
,  // measure 25
0100
0000
0010
0100
0010
0000
0000
1000
0000
0000
0010
0000
0100
0000
0001
0000
,  // measure 26
1000
0000
0100
0000
1000
0001
1000
0000
0000
0000
0001
0010
0000
0001
1000
0000
,  // measure 27
0100
0000
0010
0000
0001
0010
0000
0001
0000
0000
1000
0000
0010
0000
0100
0000
,  // measure 28
0001
1000
0001
0000
0100
0000
0000
0000
0001
0000
1000
0100
0000
1000
0010
0000
,  // measure 29
0100
0000
0001
1000
0001
0000
0000
0010
0000
0000
0100
0000
1000
0000
0011
0000
,  // measure 30
0000
0010
0110
0000
2002
0000
3003
0000
,  // measure 31
0001
0000
0001
0000
0001
0000
0000
0010
0000
0000
0001
0000
1000
0000
1010
0000
,  // measure 32
0000
0010
0110
0100
0101
0000
0000
0000
,  // measure 33
2100
0000
0000
0001
0000
0000
0010
0000
0000
0001
0000
0000
3100
0000
0000
0000
,  // measure 34
1000
0000
0000
0010
0000
0000
0100
0000
0000
0001
0000
0000
1000
0000
0001
0000
,  // measure 35
0102
0000
0000
1000
0000
0000
0010
0000
0000
1000
0000
0000
0103
0000
0000
0000
,  // measure 36
0101
0000
0000
1001
0000
0000
0011
0000
0000
0110
0000
0000
1100
0000
0000
0000
,  // measure 37
1200
0000
0000
0010
0000
0000
0001
0000
0000
0010
0000
0000
1300
0000
0000
0000
,  // measure 38
0001
0000
0000
0000
1000
0001
1000
0001
1000
0000
0010
0000
0100
0000
0001
0000
,  // measure 39
0201
0000
0000
0010
0000
0000
1000
0000
0000
0010
0000
0000
0301
0000
0000
0000
,  // measure 40
0101
0000
0000
0110
0000
0000
1010
0000
0000
1001
0000
0000
0011
0000
0000
0000
,  // measure 41
1000
0000
0000
0000
0001
1000
0001
1000
0001
0000
0010
0000
0100
0000
0000
0000
,  // measure 42
1000
0000
0000
0100
0000
0000
0010
0000
0001
1000
0000
1000
0010
0000
0100
0000
,  // measure 43
0001
0000
0000
1000
0000
0000
0010
0000
0100
0001
0000
0001
0010
0000
0100
0000
,  // measure 44
1000
0000
0000
0100
0000
0000
0010
0000
0001
0010
0000
0001
1000
0000
0010
1000
,  // measure 45
0010
0000
0000
0100
0000
0000
0001
0000
1000
0000
0100
0000
0010
0001
0010
0000
,  // measure 46
0100
0000
0000
1000
0000
0000
0001
0000
1000
0010
0000
0010
0100
0000
0001
0000
,  // measure 47
1000
0000
0000
0010
0000
0000
0100
0000
0001
0100
0000
0100
0010
0000
1000
0000
,  // measure 48
0001
0000
0000
0010
0000
0000
0100
0000
1000
0001
0000
1000
0010
0000
0100
0001
,  // measure 49
0100
0000
0000
0010
0000
0000
1000
0000
0001
0000
0010
0000
0001
1000
0001
0000
,  // measure 50
0010
0000
0000
0100
0000
0000
0001
0000
0000
0100
0000
0000
1000
0000
0001
0000
,  // measure 51
0100
0000
0000
0010
0000
0000
0001
0000
0000
0010
0000
0000
1000
0010
1000
0000
,  // measure 52
0001
0000
0000
0010
0000
0000
1000
0000
0000
0010
0000
0000
0100
0000
1000
0000
,  // measure 53
0010
0000
0000
0100
0000
0000
1000
0000
0000
0100
0000
0000
0001
1000
0001
0000
,  // measure 54
0010
0000
0000
0100
0000
0000
0001
0000
0100
0010
0000
0010
0001
0000
1000
0000
,  // measure 55
0010
0000
0000
0100
0000
0000
1000
0000
0100
0001
0000
0001
1000
0000
0100
0000
,  // measure 56
0010
0000
0000
0001
0000
0000
1000
0000
0010
1000
0000
0010
0100
0000
0001
1000
,  // measure 57
0001
0000
0000
1000
0000
0000
0001
0000
0000
1000
0000
0000
2002
0000
0000
0000
,  // measure 58
3003
0000
1000
0000
0010
0000
0000
0000
0100
0000
0010
0000
0000
0000
0100
0000
0000
0000
0100
0000
0000
0000
0001
0100
0002
0000
0000
0000
0000
0000
0000
0000
,  // measure 59
0003
0000
0020
0000
0000
0000
0000
0000
0130
0000
0100
0000
1000
0001
1000
0001
0000
0100
0000
0000
0010
0000
1000
0000
0001
1000
0001
1000
0001
0000
0000
0000
,  // measure 60
0010
0001
0000
0010
0000
0002
0000
0000
1003
0010
0000
1000
0000
0020
0000
0000
0130
0001
0100
0000
0001
0000
0002
0000
0000
0000
1003
0000
0100
1000
0100
0000
,  // measure 61
0010
0001
0010
0100
1000
0001
0010
0100
1000
0001
0200
0000
0310
0000
0110
0000
,  // measure 62
1000
0000
0001
0000
1000
0001
1000
0001
1000
0000
0000
0000
1001
0000
0000
0000
0101
0000
0000
0000
0000
0000
0100
0000
0000
0000
0000
0000
0010
0000
0000
0000
,  // measure 63
1000
0000
0010
0000
0100
0001
0100
0000
0010
0000
0000
0100
0000
0000
0001
0000
,  // measure 64
1000
0000
0100
0000
0010
0001
0010
0000
0100
0000
0000
1000
0000
0000
0001
0000
,  // measure 65
0100
0000
0001
0000
1000
0010
1000
0000
0001
0000
0000
0010
0000
0000
0100
0000
,  // measure 66
1000
0000
0000
0000
0001
0000
0001
0000
0100
0000
0000
0010
0000
0000
1000
0000
,  // measure 67
0001
0000
0010
0000
0100
1000
0100
0000
0010
0000
0000
0100
0000
0000
1000
0000
,  // measure 68
0001
0000
0100
0000
0010
1000
0010
0000
0100
0000
0000
0001
0000
0000
1000
0000
,  // measure 69
0100
0000
1000
0000
0001
0010
0001
0000
1000
0000
0000
0010
0000
0000
0100
0000
,  // measure 70
0001
0000
0000
0000
1000
0000
0010
0000
2010
0000
0000
0001
0000
0000
0100
0000
,  // measure 71
0000
0001
0000
0000
3010
0000
0000
0000
0012
0000
0000
1000
0000
0000
0100
0000
,  // measure 72
0000
1000
0000
0000
0013
0000
0000
0000
1100
0000
0000
1000
0000
0000
0010
0000
,  // measure 73
0100
0000
0001
0000
1000
0100
1000
0000
0010
0000
0000
1000
0000
0000
0001
0000
,  // measure 74
0000
0010
0000
0000
0100
1000
0100
1000
0002
0000
0000
1000
0000
0000
0100
0000
,  // measure 75
0000
1000
0000
0000
0013
0000
0100
0000
2000
0000
0000
0001
0000
0000
0100
0000
,  // measure 76
0000
0001
0000
0000
3010
0000
0100
0000
0020
0000
0000
0001
0000
0000
1000
0000
,  // measure 77
0030
0010
0000
0100
0001
0000
1000
0100
0010
0000
0000
0110
0000
0000
0011
0000
,  // measure 78
0000
1001
0000
0000
0110
0000
0000
0000
0001
0000
0100
0000
0001
0000
1000
0010
,  // measure 79
0000
1000
0001
0011
0000
0010
0110
0000
,  // measure 80
2002
0000
0000
0000
3003
0000
0000
0000
1000
0000
0001
0000
0101
0000
0000
1000
,  // measure 81
0000
0000
0010
0000
0100
0000
1010
0000
0000
0000
0001
0000
0010
0000
0100
1000
,  // measure 82
0002
0003
0000
0000
;

//---------------dance-single - Telperion----------------
#NOTES:
     dance-single:
     Telperion:
     Medium:
     8:
     0.599236,1.037105,0.243777,0.285808,0.319432,499.000000,470.000000,29.000000,34.000000,0.000000,0.000000,0.599236,1.037105,0.243777,0.285808,0.319432,499.000000,470.000000,29.000000,34.000000,0.000000,0.000000:
// measure 0
0000
0000
0000
0000
,  // measure 1
1001
0000
0101
0000
1000
0100
0010
0001
,  // measure 2
0000
0010
0000
0200
0000
0000
0300
0000
,  // measure 3
1100
0000
1001
0000
0001
0100
0000
0020
,  // measure 4
0000
0000
0030
2010
0000
3001
1000
0000
,  // measure 5
1100
0000
0110
0000
1000
0001
0000
0012
,  // measure 6
0000
0023
0000
0130
0000
0100
1000
0000
,  // measure 7
1001
0000
1100
0000
0001
1000
0010
0100
,  // measure 8
0000
0001
0001
1000
0000
0100
1000
0000
,  // measure 9
0011
0010
0001
0000
1000
0010
0100
0001
,  // measure 10
0000
0100
0000
0020
0000
0000
0030
0000
,  // measure 11
1010
0000
1001
0000
0001
0010
0000
0200
,  // measure 12
0000
0300
2002
3003
,  // measure 13
1010
0000
0110
0000
1000
0001
0000
0102
,  // measure 14
0000
0203
0000
0310
0000
0010
1000
0000
,  // measure 15
1001
0000
1010
0000
0001
1000
0100
0010
,  // measure 16
0000
0001
1000
0002
0000
0000
0003
0000
,  // measure 17
0100
0000
0001
0000
0010
0000
1000
0100
,  // measure 18
0010
0000
0001
0000
1000
0000
0001
0100
,  // measure 19
0010
0000
1000
0000
0100
0000
0001
0010
,  // measure 20
0100
0000
1000
0000
0010
0000
1000
0010
,  // measure 21
0100
0001
0100
0001
0000
1000
0100
0001
,  // measure 22
0000
0001
0100
0000
2000
0000
3000
0000
,  // measure 23
0010
1000
0010
1000
0000
0001
0100
1000
,  // measure 24
0000
1000
0100
0001
2000
0000
3000
0000
,  // measure 25
0100
0000
1000
0000
0010
0000
0001
0100
,  // measure 26
0010
0000
1000
0000
0001
0000
1000
0100
,  // measure 27
0010
0000
0001
0000
0100
0000
1000
0010
,  // measure 28
0100
0000
0001
0000
0010
0000
0001
0010
,  // measure 29
0100
1000
0100
1000
0000
0001
0100
1000
,  // measure 30
0000
1000
0100
0000
0002
0000
0003
0000
,  // measure 31
0010
0000
0001
0000
0010
0000
0000
0100
0000
0000
1000
0000
0100
0000
0001
0000
,  // measure 32
0000
0001
0100
1000
0002
0000
0003
0000
,  // measure 33
0201
0000
0000
0010
0000
0000
0001
0000
0000
0010
0000
0000
0301
0000
0000
0000
,  // measure 34
1000
0000
0000
0001
0000
0000
1000
0000
0000
0001
0000
0000
1000
0000
0000
0000
,  // measure 35
1200
0000
0000
0010
0000
0000
1000
0000
0000
0010
0000
0000
1300
0000
0000
0000
,  // measure 36
1010
0000
0000
0001
0000
0000
0010
0000
0000
0100
0000
0000
1000
0000
0000
0000
,  // measure 37
1020
0000
0000
0100
0000
0000
1000
0000
0000
0100
0000
0000
1030
0000
0000
0000
,  // measure 38
0001
0000
0000
1000
0000
0000
0001
0000
0000
1000
0000
0000
0001
0000
0000
0000
,  // measure 39
0021
0000
0000
0100
0000
0000
0001
0000
0000
0100
0000
0000
0031
0000
0000
0000
,  // measure 40
0011
0000
0000
1000
0000
0000
0010
0000
0000
0100
0000
0000
0010
0000
0000
0000
,  // measure 41
1000
0001
0200
0000
0301
0010
0100
0000
,  // measure 42
1000
0100
0010
0001
1000
0010
0100
0000
,  // measure 43
0001
0100
0010
0100
1000
0100
0001
0000
,  // measure 44
1000
0100
1000
0001
0100
0010
1000
0000
,  // measure 45
0010
0100
0001
1000
0100
0000
0100
0010
,  // measure 46
0001
1000
0010
0100
0010
1000
0001
0000
,  // measure 47
1000
0100
0010
0100
0001
0100
1000
0010
,  // measure 48
0001
0000
0010
1000
0100
0010
0001
0000
,  // measure 49
0010
0100
1000
0001
0100
0000
0100
0010
,  // measure 50
1000
0000
0000
0001
0000
0000
0010
0000
0000
0100
0000
0000
1000
0000
0001
0000
,  // measure 51
0100
0000
0000
0010
0000
0000
1000
0000
0000
0010
0000
0000
0100
0000
0001
0000
,  // measure 52
1000
0000
0000
0100
0000
0000
0010
0000
0000
0001
0000
0000
1000
0000
0010
0000
,  // measure 53
0100
0000
0000
0001
0000
0000
1000
0000
0000
0010
0000
0000
0100
0000
0001
0000
,  // measure 54
2000
0000
0000
0100
0000
0000
0001
0000
0000
0100
0000
0000
3001
0000
1000
0000
,  // measure 55
0002
0000
0000
0100
0000
0000
1000
0000
0000
0010
0000
0000
1003
0000
0001
0000
,  // measure 56
0100
0000
0000
0001
0000
0000
0010
0000
0000
0100
0000
0000
1000
0000
0010
0000
,  // measure 57
0100
0000
0000
0100
0000
0000
0100
0000
0000
0100
0000
0000
0200
0000
0000
0000
,  // measure 58
0300
0000
0001
0000
0100
0000
0000
0000
0100
0000
0010
0000
0000
0000
1000
0000
0000
0000
1000
0000
0000
0000
0001
0100
0002
0000
0000
0000
0000
0000
0000
0000
,  // measure 59
0003
2000
0000
0000
3001
0010
0000
0010
0100
0000
1000
0001
1000
0001
1000
0000
,  // measure 60
0001
0100
0000
0001
0000
1000
0000
0000
1000
0100
0000
1000
0000
0001
0000
0000
0010
0000
0001
0000
1000
0000
0020
0000
0000
0000
0130
0000
0010
0000
1000
0000
,  // measure 61
0001
0010
0001
0010
0100
1000
0100
1000
0001
0000
0100
0010
1000
0000
2000
0000
,  // measure 62
3001
0010
1000
1100
0001
0100
0010
1000
,  // measure 63
0001
0010
0100
0000
1000
0100
0010
0100
,  // measure 64
0001
0100
1000
0000
0001
0100
0001
1000
,  // measure 65
0100
0010
0001
0000
0010
0100
1000
0001
,  // measure 66
0100
0000
0100
0010
1000
0001
0010
0100
,  // measure 67
0010
0001
1000
0000
0001
0100
0010
0100
,  // measure 68
1000
0100
0001
0010
1000
0000
0010
0001
,  // measure 69
0100
0010
1000
0000
0010
0100
0001
1000
,  // measure 70
0100
0000
0000
0000
0100
0000
0010
0000
0001
0000
0000
0100
0000
0000
1000
0000
,  // measure 71
0000
0100
0000
0000
0010
0000
0000
0000
1000
0000
0000
0100
0000
0000
0001
0000
,  // measure 72
0000
0100
0000
0000
1000
0000
0000
0000
0001
0000
0000
0100
0000
0000
0010
0000
,  // measure 73
0000
1000
0000
0000
0001
0000
0010
0000
0100
0000
0000
1000
0000
0000
0001
0000
,  // measure 74
0000
0010
0000
0000
0100
0000
1000
0000
0002
0000
0000
0100
0000
0000
1000
0000
,  // measure 75
0000
0100
0000
0000
1003
0000
0001
0000
2000
0000
0000
0100
0000
0000
0001
0000
,  // measure 76
0000
0010
0000
0000
3001
0000
1000
0000
0100
0000
0000
1000
0000
0000
0010
0000
,  // measure 77
0000
0100
0000
0000
0001
0000
0010
0000
0100
0000
0000
0100
0000
0000
0100
0000
,  // measure 78
0000
0100
0000
0000
0200
0000
0000
0000
1300
0000
0000
0000
0010
0000
0000
0000
,  // measure 79
0001
0000
0100
0010
1000
0000
0110
0000
,  // measure 80
0102
0000
0000
0000
0003
0000
0000
0000
1000
0000
0100
0000
1000
0000
0000
0010
,  // measure 81
0000
0100
0001
0010
0000
0010
0100
0000
,  // measure 82
2002
3003
0000
0000
;

//---------------dance-single - Telperion----------------
#NOTES:
     dance-single:
     Telperion:
     Easy:
     6:
     0.483952,0.483982,0.134498,0.201747,0.100873,403.000000,387.000000,16.000000,24.000000,0.000000,0.000000,0.483952,0.483982,0.134498,0.201747,0.100873,403.000000,387.000000,16.000000,24.000000,0.000000,0.000000:
// measure 0
0000
0000
0000
0000
,  // measure 1
1001
0000
1000
0000
0001
0000
0100
0010
,  // measure 2
0000
0100
0000
0002
0000
0000
0003
0000
,  // measure 3
1001
0000
1000
0000
0010
1000
0000
0002
,  // measure 4
0000
0000
0003
0020
0000
0000
0030
0000
,  // measure 5
0110
0000
0100
0000
1000
0000
0001
0100
,  // measure 6
0000
0010
0000
1000
0000
0000
0010
0000
,  // measure 7
0110
0000
0100
0000
0001
1000
0000
0200
,  // measure 8
0000
0000
0300
0010
0000
0100
1000
0000
,  // measure 9
1001
0000
0001
0000
1000
0000
0100
0010
,  // measure 10
0000
0100
0000
2000
0000
0000
3000
0000
,  // measure 11
1001
0000
0001
0000
0010
0001
0000
2000
,  // measure 12
0000
0000
3000
0010
0100
0000
0000
0000
,  // measure 13
0110
0000
0100
0000
0001
0000
1000
0100
,  // measure 14
0000
0010
0000
0001
0000
0000
0010
0000
,  // measure 15
0110
0000
0100
0000
1000
0001
0000
0200
,  // measure 16
0000
0000
0000
0020
0000
0000
0330
0000
,  // measure 17
1000
0000
0010
0000
0001
0000
0010
0100
,  // measure 18
1000
0000
0010
0000
0001
0000
0010
0100
,  // measure 19
1000
0000
0100
0000
0001
0000
0100
0010
,  // measure 20
1000
0000
0100
0000
0001
1000
0001
1000
,  // measure 21
0100
0000
0001
0000
1000
0000
0100
0010
,  // measure 22
0000
0010
0100
0000
2002
0000
3003
0000
,  // measure 23
0001
0000
1000
0000
0001
0000
0100
0010
,  // measure 24
0000
0010
0100
0010
2002
0000
3003
0000
,  // measure 25
0001
0000
0010
0000
1000
0000
0010
0100
,  // measure 26
0001
0000
0010
0000
1000
0000
0010
0100
,  // measure 27
0001
0000
0100
0000
1000
0000
0100
0010
,  // measure 28
0001
0000
0100
0000
1000
0001
1000
0001
,  // measure 29
0100
0000
1000
0000
0001
0000
0100
0010
,  // measure 30
0000
0010
0100
0000
2002
0000
3003
0000
,  // measure 31
0001
1000
0001
0000
1000
0000
0100
0010
,  // measure 32
0000
0010
0100
0010
2002
0000
3003
0000
,  // measure 33
0001
0000
0000
0001
0000
0000
0001
0000
0000
0001
0000
0000
0001
0000
0000
0000
,  // measure 34
0000
0000
0000
0000
,  // measure 35
0010
0000
0000
0001
0000
0000
0010
0000
0000
0001
0000
0000
1000
0000
0000
0000
,  // measure 36
0010
0000
0000
0100
0000
0000
0010
0000
0000
0100
0000
0000
0001
0000
0000
0000
,  // measure 37
1000
0000
0000
1000
0000
0000
1000
0000
0000
1000
0000
0000
1000
0000
0000
0000
,  // measure 38
0000
0000
0000
0000
,  // measure 39
0010
0000
0000
1000
0000
0000
0010
0000
0000
1000
0000
0000
0001
0000
0000
0000
,  // measure 40
0010
0000
0000
0100
0000
0000
0010
0000
0000
0100
0000
0000
1000
0000
0000
0000
,  // measure 41
0002
0100
0010
1003
,  // measure 42
0001
0000
0100
0000
0010
1000
0010
1000
,  // measure 43
0001
0000
0010
0000
1000
0010
0001
0010
,  // measure 44
0001
0000
1000
0000
0010
0100
0010
0100
,  // measure 45
0001
0000
1000
0000
0100
1000
0100
1000
,  // measure 46
0001
0000
0100
0000
0010
1000
0010
1000
,  // measure 47
0001
0000
0010
0100
1000
0100
1000
0100
,  // measure 48
0001
0000
0100
0000
1000
0001
1000
0001
,  // measure 49
0100
0000
0010
0000
1000
0100
0010
0001
,  // measure 50
0010
0000
0001
0000
1000
0010
1000
0000
,  // measure 51
0100
0000
0010
0000
0001
0100
0001
0000
,  // measure 52
1000
0000
0010
0000
0100
0001
0100
0000
,  // measure 53
0010
0000
1000
0000
0100
1000
0100
0000
,  // measure 54
0010
0000
0001
0000
0100
0000
1000
0010
,  // measure 55
0100
0000
0001
0000
0010
0000
1000
0100
,  // measure 56
0010
0000
0001
0000
1000
0000
0010
0100
,  // measure 57
0001
0000
0000
1000
0000
0000
0001
0000
0000
1000
0000
0000
0001
0000
0000
0000
,  // measure 58
0100
0100
0100
0200
,  // measure 59
0310
0000
0010
0000
1000
0001
1000
0001
,  // measure 60
0010
0010
0100
0100
,  // measure 61
1000
0001
1000
0001
0100
0000
0020
0030
,  // measure 62
2000
0100
0010
3001
1000
0000
0100
0000
,  // measure 63
0010
0001
0010
0001
1000
0000
0010
0000
,  // measure 64
0001
0010
1000
0010
1000
0000
0001
0000
,  // measure 65
0010
0100
0010
0100
1000
0000
0001
0000
,  // measure 66
0100
0001
0100
0001
1000
0000
0100
0000
,  // measure 67
0010
0001
0010
0001
1000
0000
0010
0100
,  // measure 68
0001
0100
0001
0100
1000
0000
0100
0000
,  // measure 69
0001
1000
0001
1000
0100
0000
0010
0000
,  // measure 70
0001
0000
0100
0000
0010
0000
1000
0000
0010
0000
0000
0100
0000
0000
0010
0000
,  // measure 71
0000
0100
0000
0000
0010
0000
0000
0000
1000
0000
0000
0001
0000
0000
1000
0000
,  // measure 72
0000
0001
0000
0000
1000
0000
0000
0000
0100
0000
0000
0000
0010
0000
0000
0000
,  // measure 73
0001
0100
0001
0000
1000
0000
0001
0000
,  // measure 74
1000
0000
0100
0000
1000
0000
0000
0000
0001
0000
0000
0010
0000
0000
0010
0000
,  // measure 75
0000
0100
0000
0000
0100
0000
0000
0000
1000
0000
0000
0001
0000
0000
0001
0000
,  // measure 76
0100
0000
0000
0100
0000
0000
0000
0000
0010
0000
0000
0000
1000
0000
0000
0000
,  // measure 77
0001
0000
0000
0000
0010
0000
0100
0000
1000
0000
0000
0001
0000
0000
1000
0000
,  // measure 78
0000
0001
0000
0000
1000
0000
0000
0000
1010
0000
0000
0000
0001
0000
0000
0000
,  // measure 79
0001
0000
1000
0010
0000
0010
0100
0000
,  // measure 80
0202
0303
0011
1000
,  // measure 81
1000
0000
0001
0010
0000
0010
0100
0010
,  // measure 82
2002
3003
0000
0000
;

//---------------dance-single - Telperion----------------
#NOTES:
     dance-single:
     Telperion:
     Beginner:
     1:
     0.110480,0.137860,0.008406,0.000000,0.000000,92.000000,91.000000,1.000000,0.000000,0.000000,0.000000,0.110480,0.137860,0.008406,0.000000,0.000000,92.000000,91.000000,1.000000,0.000000,0.000000,0.000000:
// measure 0
0000
0000
0000
0000
,  // measure 1
0001
0000
0000
0000
,  // measure 2
1000
0000
0000
0000
,  // measure 3
0100
0000
0000
0000
,  // measure 4
0001
0000
0000
0000
,  // measure 5
1000
0000
0000
0000
,  // measure 6
0001
0000
0000
0000
,  // measure 7
0100
0000
0000
0000
,  // measure 8
1000
0000
0000
0000
,  // measure 9
0001
0000
0000
0000
,  // measure 10
1000
0000
0000
0000
,  // measure 11
0010
0000
0000
0000
,  // measure 12
0001
0000
0000
0000
,  // measure 13
1000
0000
0000
0000
,  // measure 14
0001
0000
0000
0000
,  // measure 15
0010
0000
0000
0000
,  // measure 16
1000
0000
0000
0000
,  // measure 17
0100
0000
0000
0000
,  // measure 18
0100
0000
0000
0000
,  // measure 19
0100
0000
0000
0000
,  // measure 20
0100
0000
0000
0000
,  // measure 21
0010
0000
0000
0000
,  // measure 22
0010
0000
0000
0000
,  // measure 23
0010
0000
0000
0000
,  // measure 24
0010
0000
0000
0000
,  // measure 25
0001
0000
0000
0000
,  // measure 26
1000
0000
0000
0000
,  // measure 27
1000
0000
0000
0000
,  // measure 28
0001
0000
0000
0000
,  // measure 29
0100
0000
0000
0000
,  // measure 30
0010
0000
0000
0000
,  // measure 31
0010
0000
0000
0000
,  // measure 32
0100
0000
0000
0000
,  // measure 33
0001
0000
0000
0000
,  // measure 34
0000
0000
0000
0000
,  // measure 35
1000
0000
0000
0000
,  // measure 36
0100
0000
0000
0000
,  // measure 37
1000
0000
0000
0000
,  // measure 38
0000
0000
0000
0000
,  // measure 39
0001
0000
0000
0000
,  // measure 40
0100
0000
0000
0000
,  // measure 41
0000
0000
0000
0000
,  // measure 42
0010
0000
0010
0000
,  // measure 43
0010
0000
0000
0000
,  // measure 44
0100
0000
0100
0000
,  // measure 45
0100
0000
0000
0000
,  // measure 46
0001
0000
0001
0000
,  // measure 47
0001
0000
0000
0000
,  // measure 48
1000
0000
1000
0000
,  // measure 49
1000
0000
0000
0000
,  // measure 50
0100
0000
0100
0000
,  // measure 51
0100
0000
0000
0000
,  // measure 52
0010
0000
0010
0000
,  // measure 53
0010
0000
0000
0000
,  // measure 54
0001
0000
0000
0000
,  // measure 55
1000
0000
0000
0000
,  // measure 56
0010
0000
0000
0000
,  // measure 57
0100
0000
0000
0000
,  // measure 58
0001
0000
0000
0000
,  // measure 59
1000
0000
0000
0000
,  // measure 60
0001
0000
0000
0000
,  // measure 61
1000
0000
0000
0000
,  // measure 62
0000
0000
0010
0000
,  // measure 63
0010
0000
0010
0000
,  // measure 64
0000
0000
0100
0000
,  // measure 65
0100
0000
0100
0000
,  // measure 66
0000
0000
1000
0000
,  // measure 67
1000
0000
1000
0000
,  // measure 68
0000
0000
0001
0000
,  // measure 69
0001
0000
0001
0000
,  // measure 70
0000
0000
0100
0000
,  // measure 71
0100
0000
0100
0000
,  // measure 72
0000
0000
0010
0000
,  // measure 73
0010
0000
0010
0000
,  // measure 74
0000
0000
1000
0000
,  // measure 75
0000
0000
0001
0000
,  // measure 76
0000
0000
0010
0000
,  // measure 77
0000
0000
0100
0000
,  // measure 78
0000
0000
1000
0000
,  // measure 79
0000
0000
1000
0000
,  // measure 80
1000
0000
0001
0000
,  // measure 81
0000
0000
0000
0000
,  // measure 82
1001
0000
0000
0000
;
