#TITLE:Can't Sleep Love;
#SUBTITLE:;
#ARTIST:Pentatonix;
#TITLETRANSLIT:;
#SUBTITLETRANSLIT:;
#ARTISTTRANSLIT:;
#CREDIT:;
#BANNER:[ROUND A] - Can't Sleep Love.png;
#BACKGROUND:[ROUND A] - Can't Sleep Love.bg.png;
#LYRICSPATH:;
#CDTITLE:;
#MUSIC:[ROUND A] - Can't Sleep Love.ogg;
#OFFSET:-0.338;
#SAMPLESTART:50.380;
#SAMPLELENGTH:12.000;
#SELECTABLE:YES;
#BPMS:0.000=94.524;
#STOPS:;
#BGCHANGES:;

//---------------dance-single - ----------------
#NOTES:
     dance-single:
     :
     Hard:
     7:
     0.289,0.287,0.098,0.214,0.022:
0000
0000
0000
0000
,
0000
0000
0000
0000
,
0000
0000
0000
0000
,
0000
0000
0000
0000
,
1000
0000
0010
0000
0100
0010
0100
0000
,
0001
0000
0100
0000
0010
0100
0010
0000
,
1000
0000
0010
0000
0100
0010
0100
0000
,
0001
0000
0100
0000
0010
0100
0010
0000
,
0100
0000
0001
0000
0100
0001
0100
0000
,
0010
0000
1000
0000
0010
1000
0010
0000
,
1000
0000
0001
0000
1000
0001
1000
0000
,
0001
0000
1000
0000
1001
0000
0100
0100
,
0100
0001
0010
0010
0010
1000
0010
0200
,
0000
0000
0301
0000
0001
0000
1000
1000
,
1000
0100
0001
0001
0001
0010
1000
0002
,
0000
0000
0100
0000
0103
0000
1000
0100
,
1000
0100
1000
0010
1000
0010
0001
0200
,
0000
1300
0001
0010
,
1000
0000
0100
0000
0010
0000
1000
0000
0001
0000
0000
0100
0000
0000
1002
0000
,
0000
0000
0000
0000
1003
0000
0010
0100
,
2000
0000
3020
0130
,
0001
0100
0001
0100
1000
0001
1000
0000
,
0102
0000
0000
0000
0000
0000
0000
0000
1003
0000
0000
1000
0000
0000
2002
0000
,
3003
0000
0011
0000
1000
0100
0010
0000
,
0001
0010
0100
1000
0001
0000
0100
0100
,
0001
0010
0100
1000
0001
0000
0100
0100
,
0020
0000
0000
0000
0000
0000
0000
0000
0031
0000
0000
0001
0000
0000
1001
0000
,
0000
1100
1000
0000
,
0020
0130
2000
3010
,
0002
0103
2000
3010
,
0200
0310
0002
0013
,
2000
3100
0020
0130
,
2000
3001
0200
0310
,
0002
1003
2000
3001
,
0001
0000
0010
0000
0100
0000
1000
0000
0001
0000
0000
1000
0000
0000
0120
0000
,
0000
0000
0130
0000
,
0001
1000
0001
0000
1000
0010
1000
0000
,
0001
0011
1000
0100
,
1000
0001
1000
0000
0001
0100
0001
0000
,
1000
1100
0010
0100
,
0001
0010
0001
0010
0001
0000
0010
0000
,
1000
0100
1000
0100
1000
0000
0100
0000
,
0002
0000
0000
0000
0010
0000
0000
0000
0013
0000
0000
1000
0000
0000
1001
0000
;

//---------------dance-single - ----------------
#NOTES:
     dance-single:
     :
     Medium:
     5:
     0.190,0.210,0.045,0.107,0.009:
0000
0000
0000
0000
,
0000
0000
0000
0000
,
0000
0000
0000
0000
,
0000
0000
0000
0000
,
1000
0000
0001
0000
1000
0001
1000
0000
,
0100
0000
0010
0000
0100
0010
0100
0000
,
0001
0000
1000
0000
0001
1000
0001
0000
,
0100
0000
0010
0000
0100
0010
0100
0000
,
0001
0000
0100
0000
0010
0010
0010
0000
,
1000
0000
0010
0000
0100
0100
0100
0000
,
1000
0000
0001
0000
0100
0100
0100
0000
,
0001
1000
0001
0000
,
1000
0000
0010
0010
1000
0000
0001
0200
,
0000
0310
0000
0000
,
0001
0000
0010
0100
0100
0000
0001
0020
,
0000
1030
0000
0100
,
0001
0000
0010
0000
1000
0000
0100
0002
,
0000
0013
0000
0000
,
1000
0000
0000
0000
1000
0000
0000
0000
0001
0000
0000
0001
0000
0000
0002
0000
,
0000
0000
0000
0000
0000
0003
0000
0000
0100
0000
0000
0000
0000
0000
0000
0000
,
2000
0000
0000
3000
0010
0000
0000
0110
,
0000
0001
1000
0010
,
0200
0000
0000
0300
0002
0000
0003
1000
,
0000
0100
0010
0100
,
0001
0001
0001
0100
,
1000
1000
1000
0001
,
0020
0000
0000
0030
0100
0000
0000
0110
,
0000
0000
0000
0000
,
0000
1000
0000
0010
,
0000
0100
0000
0001
,
0000
0010
0000
1000
,
0000
0100
0000
0001
,
0000
0010
0000
1000
,
0000
0100
0000
0001
,
1000
0000
0100
0000
1000
0000
0100
0000
0100
0000
0000
0010
0000
0000
0002
0000
,
0000
0000
0000
0000
0003
0000
1000
1000
,
2000
0000
0000
3000
0010
0000
0000
1001
,
0000
0100
0100
0100
,
0020
0000
0000
0030
0001
0000
0000
1001
,
0000
0100
0010
1000
,
0001
0001
0001
0010
,
1000
1000
1000
0100
,
0020
0000
0000
0030
0001
0000
0000
1001
;

//---------------dance-single - ----------------
#NOTES:
     dance-single:
     :
     Easy:
     3:
     0.148,0.172,0.089,0.027,0.000:
0000
0000
0000
0000
,
0000
0000
0000
0000
,
0000
0000
0000
0000
,
0000
0000
0000
0000
,
1000
1000
0001
0001
,
1000
0001
1000
0001
,
0100
0100
0010
0010
,
0100
0010
0100
0000
,
1000
0010
1000
1000
,
0001
0100
0001
0001
,
0010
1000
0010
0010
,
1000
0010
0100
0000
,
0001
0000
0000
0000
1001
0000
0000
0200
,
0000
0000
0000
0300
0000
0000
0000
0000
,
0010
0000
0000
0000
0110
0000
0000
0002
,
0000
0000
0000
0003
0000
0000
0000
0000
,
1000
0000
0000
0000
1100
0000
0000
0020
,
0000
0000
0000
0030
0000
0000
0000
0000
,
0100
0000
0000
0000
1000
0000
0000
1001
,
0000
0000
0001
0000
,
1000
0000
1000
0000
0100
0000
0000
0110
,
0000
0001
0000
0001
,
0001
0000
0001
0000
0100
0000
0000
1100
,
0000
0010
0100
0001
,
1000
1000
1000
0100
,
0001
0001
0001
0000
,
0100
0000
0000
0000
0010
0000
0000
0110
,
0000
0010
0000
0000
,
0000
1000
0000
1000
,
0000
1000
0000
0000
,
0000
0001
0000
0001
,
0000
0001
0000
0000
,
0000
1000
0000
0010
,
0000
1000
0000
0010
,
0000
0001
0000
0100
,
0000
0001
0000
0000
,
0100
0000
0100
0000
0010
0000
0000
0110
,
0000
0001
0000
1000
,
0001
0000
0001
0000
1000
0000
0000
1001
,
0000
0100
0001
0100
,
0001
0001
1000
0010
,
0100
0100
0010
0000
,
0001
0000
0000
0000
1000
0000
0000
0110
;

//---------------dance-single - Copied from ----------------
#NOTES:
     dance-single:
     Copied from:
     Beginner:
     1:
     0.064,0.096,0.018,0.000,0.000: // measure 1
0000
0000
0000
0000
,  // measure 2
0000
0000
0000
0000
,  // measure 3
0000
0000
0000
0000
,  // measure 4
0000
0000
0000
0000
,  // measure 5
1000
0000
0001
0000
,  // measure 6
1000
0000
0000
0000
,  // measure 7
0010
0000
0100
0000
,  // measure 8
0010
0000
0000
0000
,  // measure 9
0000
0001
0000
1000
,  // measure 10
0000
0001
0000
0000
,  // measure 11
0000
0100
0000
0010
,  // measure 12
0000
0100
0000
0000
,  // measure 13
1000
0000
0001
0000
,  // measure 14
0000
0000
0000
0000
,  // measure 15
0100
0000
0010
0000
,  // measure 16
0000
0000
0000
0000
,  // measure 17
0001
0000
0100
0000
,  // measure 18
0000
0000
0000
0000
,  // measure 19
1000
0000
0000
0000
0010
0000
0000
0110
,  // measure 20
0000
0000
0000
0000
,  // measure 21
0001
0000
0000
0000
0001
0000
0000
0001
,  // measure 22
0000
0000
0000
0000
,  // measure 23
1000
0000
0000
0000
1000
0000
0000
1000
,  // measure 24
0000
0000
0000
0000
,  // measure 25
0100
0000
0000
0000
,  // measure 26
0010
0000
0000
0000
,  // measure 27
0001
0000
0000
0000
0001
0000
0000
0001
,  // measure 28
0000
0000
0000
0000
,  // measure 29
0100
0000
0000
0000
,  // measure 30
0000
0000
0000
0000
,  // measure 31
0010
0000
0000
0000
,  // measure 32
0000
0000
0000
0000
,  // measure 33
1000
0000
0000
0000
,  // measure 34
0000
0000
0000
0000
,  // measure 35
0001
0000
0000
0000
0000
0000
0000
0110
,  // measure 36
0000
0000
0000
0000
,  // measure 37
1000
0000
0000
0000
0010
0000
0000
1000
,  // measure 38
0000
0000
0000
0000
,  // measure 39
0001
0000
0000
0000
0100
0000
0000
0001
,  // measure 40
0000
0000
0000
0000
,  // measure 41
0010
0000
0000
0000
,  // measure 42
0010
0000
0000
0000
,  // measure 43
1000
0000
0000
0000
0001
0000
0000
1000
;
