#TITLE:BEAT-NEW-WORLD;
#SUBTITLE:;
#ARTIST:ビートまりお(COOL&CREATE);
#TITLETRANSLIT:;
#SUBTITLETRANSLIT:;
#ARTISTTRANSLIT:beatMARIO (COOL&CREATE);
#GENRE:;
#CREDIT:;
#BANNER:;
#BACKGROUND:;
#LYRICSPATH:;
#CDTITLE:;
#MUSIC:[ROUND A] - BEAT-NEW-WORLD.mp3;
#OFFSET:-2.828000;
#SAMPLESTART:53.961586;
#SAMPLELENGTH:12.000000;
#SELECTABLE:YES;
#BPMS:0.000000=190.000000
;
#STOPS:
;
#BGCHANGES:;
#KEYSOUNDS:;
#ATTACKS:;

//---------------dance-single - ----------------
#NOTES:
     dance-single:
     :
     Hard:
     10:
     0.844641,0.896951,0.361132,0.201562,0.403124,637.000000,43.000000,24.000000,0.000000,0.000000,0.000000,0.844641,0.896951,0.361132,0.201562,0.403124,637.000000,43.000000,24.000000,0.000000,0.000000,0.000000:
0000
0000
0000
0000
,
0000
0000
0000
0000
,
0000
0000
0000
0000
,
0000
0000
0000
0000
,
1000
0000
0001
0100
0001
0000
0010
0000
0100
0000
1000
0100
1000
0000
0010
0000
,
0100
0000
0001
0100
0001
0000
0100
0000
0010
0000
1000
0000
0100
0000
0010
0000
,
0001
0000
1000
0100
1000
0000
0010
0000
0100
0000
0001
0100
0001
0000
0020
0000
,
0000
0130
1000
0100
0001
0100
1000
0000
,
0001
0100
1000
0100
0001
0010
1000
0010
,
0001
0100
0010
1000
0100
0010
0001
0000
,
1000
0100
0001
0100
1000
0010
0001
0010
,
1000
0100
0010
0001
0100
0010
0110
0000
,
0010
1000
0100
0001
0100
1000
0010
0001
,
0010
1000
0100
0010
0001
0100
0010
0000
,
0100
0000
0001
0000
0010
0000
1000
0000
0010
0000
0001
0000
0100
0000
0010
0100
,
0010
0000
0000
1000
0000
0000
0100
0000
0010
0000
0100
0000
0011
0000
0000
0000
,
1000
0000
0001
0100
0010
0100
0000
0001
0000
0100
0010
0100
0001
0000
0010
0000
,
0100
0000
0010
0001
0010
0000
0100
0000
1000
0000
0100
0000
0010
0000
0001
0000
,
1000
0000
0001
0100
0001
1000
0000
0100
0000
0010
0001
1000
0001
0000
1000
0000
,
0001
0000
0100
0010
0100
0000
0010
0000
1000
0000
0100
0000
0110
0000
0000
0000
,
0001
0000
0100
0010
0100
0001
0000
1000
0000
0100
0010
0100
1000
0000
0010
0000
,
0100
0000
0001
0100
0001
0000
0100
0000
0010
0000
1000
0000
0100
0000
0010
0000
,
0011
0000
0000
0100
0000
0000
1000
0000
1010
0000
0100
0000
0001
0000
1000
0000
,
1002
0000
0000
0003
,
1000
0100
1000
0100
0010
0001
1000
0001
,
0100
0010
0100
0001
0100
0001
1000
0001
,
0010
0100
1000
0100
0001
0100
1000
0100
,
0010
0000
0001
1000
0000
0020
0000
0130
,
0001
0100
0001
0100
0010
1000
0001
1000
,
0100
1000
0100
0010
0100
1000
0100
0001
,
0100
0000
1000
0000
0010
0000
1000
0000
0001
0000
0100
0000
0010
0000
1000
0100
,
1000
0000
0000
0100
0000
0000
0010
0000
0001
0000
0001
0000
1000
0000
0000
0000
,
0002
0000
0000
0010
0000
0000
1003
0100
1000
0000
0000
0001
0000
0000
0100
0000
,
0020
0000
0000
1000
0000
0000
0230
0000
0000
0000
0301
0000
1000
0000
0000
0000
,
0200
0000
0000
0010
0000
0000
2300
0000
0000
0000
3001
0000
0100
0000
0010
0000
,
1000
0000
0000
1000
0100
0000
0000
0100
0010
0000
0000
0010
0001
0000
0000
0001
,
2000
0000
0000
0100
0000
0000
3001
0000
0010
0000
0000
0001
0000
0000
0010
0000
,
0200
0000
0000
1000
0000
0000
0320
0000
0000
0000
0031
0000
1000
0000
0010
0000
,
0110
0000
1000
1010
0000
0001
0011
0000
,
0210
0000
0000
1000
0000
0000
0301
0100
,
0210
0000
0000
0000
0000
0000
0000
0000
1300
0000
0000
0100
1000
0000
0010
0000
,
1000
0100
1000
0100
0001
0100
0001
0100
,
1000
0010
1000
0010
0001
0010
0001
0010
,
1000
0100
0010
0001
1000
0010
0100
0001
,
0010
0100
1000
0001
0100
0010
1000
0100
,
0020
0000
0000
0000
0130
0000
0010
0001
0010
0000
0001
0000
1000
0000
0001
0000
,
0100
0110
1010
1001
,
1000
0000
0100
0000
1000
0000
0100
0000
0010
0000
0000
0001
0000
0000
1000
0000
,
0101
0100
0000
0120
0000
1030
0100
0010
,
0001
0100
0001
0100
1000
0100
1000
0100
,
0001
0010
0001
0010
1000
0010
1000
0010
,
0001
0100
0010
1000
0001
0010
0100
1000
,
0010
0100
0001
1000
0100
0010
0001
0100
,
0020
0000
0000
0000
1030
0000
0001
0100
0001
0000
0000
0010
0000
0000
0100
0000
,
1000
1010
0110
1001
,
0022
0000
0000
0000
0033
0000
0000
0000
0100
0000
0000
1000
0000
0000
0010
0000
,
0101
0000
1000
1100
0000
0100
0010
0001
,
1000
0010
0100
0010
0000
0010
0001
0010
,
1000
0001
0010
0100
0000
0100
0010
0100
,
0001
0100
1000
0100
0010
0001
1000
0010
,
0001
0010
1000
0001
0010
0100
0110
0000
,
0002
0000
0000
0000
0013
0000
0100
1000
0100
0000
0000
0010
0000
0000
0001
0000
,
1000
1010
0110
1001
,
0011
1100
1001
0110
,
0011
0000
0100
0110
0000
1000
0001
0010
,
0100
0000
1000
0100
1000
0000
0010
0000
0100
0000
0001
0100
0001
0000
0100
0000
,
0010
0000
1000
0001
1000
0000
0100
0000
0010
0000
0001
0000
1000
0000
0001
0000
,
0100
0000
0010
1000
0010
0000
0100
0000
0001
0000
1000
0001
1000
0000
0100
0010
,
0001
1000
0001
0100
0020
1000
1030
0001
,
0020
0000
0000
0000
0130
0000
0010
0001
0010
0000
0000
0100
0000
0000
1000
0000
,
0010
0110
0101
1001
,
1000
0000
0100
0000
0010
0000
0001
0000
0100
0000
0000
0010
0000
0000
1000
0000
,
0200
0000
0000
0000
0001
0000
0000
0000
1000
0000
0000
0000
0310
0100
0010
0100
,
0010
0001
0001
1000
0010
0010
0100
0001
,
0001
0000
1000
0000
0100
0000
0100
0000
0010
0001
0010
0001
0010
0001
0010
0100
,
1000
0001
0001
0100
0010
0010
1000
0100
,
0010
0100
0000
0010
0100
0000
1000
0000
0010
0000
0000
0000
0100
0000
0000
0000
,
0010
0000
0100
0001
0000
0100
0001
0000
1000
0001
0000
1000
0001
0000
0010
0001
,
0000
0010
0001
0000
0010
0000
0100
1000
0001
0000
1000
0000
0010
0000
0100
0000
,
0010
1000
0100
0000
1000
0000
0010
0000
1000
0100
0010
0000
0100
0000
0010
0000
,
0011
0000
0000
0110
0000
0000
1000
0000
0001
0000
0000
0000
1001
0000
0000
0000
,
0001
0000
0100
0010
1000
0000
0001
0000
1000
0000
0100
0000
0010
0000
0001
0000
,
1000
0100
1000
0100
1000
0100
1000
0100
1000
0000
0010
0000
0100
0000
0001
0000
,
1000
0000
0001
0100
0010
1000
0000
0001
0000
1000
0100
0010
0001
0000
1000
0000
,
0001
0000
0100
0010
0100
0001
0100
0010
1000
0000
0100
0000
1100
0000
0000
0000
,
0010
0000
0001
1000
0001
0100
0010
0100
0000
0010
0100
0010
1000
0001
1000
0000
,
0001
0000
1000
0000
0010
0100
0000
0100
0001
0000
0100
0000
0110
0000
0000
0000
,
1010
0100
0001
0101
0000
0010
0100
2002
,
0000
0000
0000
0000
,
3003
0000
0000
0000
;

//---------------dance-single - ----------------
#NOTES:
     dance-single:
     :
     Medium:
     8:
     0.683871,0.597968,0.235156,0.377929,0.067187,497.000000,28.000000,45.000000,0.000000,0.000000,0.000000,0.683871,0.597968,0.235156,0.377929,0.067187,497.000000,28.000000,45.000000,0.000000,0.000000,0.000000:
0000
0000
0000
0000
,
0000
0000
0000
0000
,
0000
0000
0000
0000
,
0000
0000
0000
0000
,
1000
0001
0100
0000
0001
1000
0100
0000
,
1000
0001
0100
0010
1000
0100
0010
0000
,
0100
1000
0001
0000
0100
0010
1000
0002
,
0000
0013
0100
0000
1100
0000
0101
0000
,
1000
0100
0010
0000
0010
0001
1000
0000
,
1000
0010
0100
0000
0001
0100
0010
1000
,
0001
0010
0100
0000
0100
1000
0001
0000
,
0001
0100
0010
1000
0100
0010
0110
0000
,
0010
0001
1000
0000
1000
0010
0100
0000
,
0100
0001
1000
0000
0100
0010
0001
0100
,
0010
1000
0001
0000
0001
0010
0100
1000
,
0001
0000
0000
0100
0000
0000
0010
0000
1000
0000
0001
0000
1001
0000
0000
0000
,
0001
0100
0010
0100
0000
0100
0010
1000
,
0100
1000
0100
0010
0001
0010
0100
0000
,
1000
0100
0010
0100
0000
0100
0010
0001
,
1000
0001
0100
0010
1000
0100
0110
0000
,
0001
1000
0100
0010
0000
0010
1000
0010
,
0000
0010
0001
1000
0010
0100
0001
0010
,
0100
0000
0000
0100
0000
0000
0010
0000
0001
0000
1000
0000
0010
0000
0100
0000
,
0002
0000
0000
0003
,
2000
0000
3100
0000
0020
0000
0031
1000
,
0020
0000
0130
0001
0000
0001
0010
0001
,
0200
0310
1000
0100
,
0010
0000
0100
1000
0000
1000
0001
0100
,
0020
0000
1030
0000
0001
0000
0010
0001
,
0200
0000
0310
1000
0000
1000
0000
0001
,
1000
0000
0100
0010
0001
0010
0100
0010
,
0001
0000
0000
0100
0000
0000
0010
0000
1000
0000
0001
0000
1000
0000
0000
0000
,
0002
0000
0000
0000
0103
0000
0010
0000
0010
0000
0000
1000
0000
0000
0001
0000
,
0020
0000
0130
0200
0000
1000
1300
0000
,
0020
0000
0100
0230
0000
0001
0301
0000
,
2000
3200
0320
0032
,
2003
0000
0000
0000
3010
0000
0100
0000
0100
0000
0000
0001
0000
0000
1000
0000
,
0200
0000
0310
0020
0000
0031
1000
0000
,
1010
0000
0000
0101
0000
0000
0011
0000
,
0120
0000
0000
0100
0000
0000
0130
0000
,
2001
0000
3100
0010
,
0001
0000
1000
0001
0000
0001
0010
0001
,
0100
0000
0100
0001
0000
0001
0010
0001
,
0100
0000
0010
0000
1000
0001
0000
2000
,
0000
0000
0100
0000
0001
0000
3010
0100
,
0010
0000
1000
0001
0100
0001
1000
0100
,
0010
0011
1001
0101
,
0120
0000
0000
0000
1030
0000
0000
0000
0100
0000
0000
0010
0000
0000
0001
0000
,
1000
0001
0000
0210
0000
1300
0010
0100
,
0001
0000
1000
0001
0000
0001
0010
0001
,
0100
0000
0010
1000
0000
1000
0010
1000
,
0100
0000
0010
0000
0001
1000
0000
0020
,
0000
0000
1000
0000
0001
0000
0130
0010
,
2000
0000
0000
0000
3001
0000
0100
0000
0001
0000
0000
0100
0000
0000
0010
0000
,
1000
0200
0320
0032
,
2003
0000
0000
0000
0010
0000
0000
0000
0001
0000
0000
0001
0000
0000
3001
0000
,
0011
0000
0000
1100
0000
0000
1000
0100
,
0010
0001
1000
0001
0000
1000
0100
1000
,
0001
1000
0010
1000
0000
0010
0100
0001
,
1000
0001
1000
0100
0000
0010
0001
0100
,
0000
1000
0100
0001
1000
0000
1100
0000
,
0012
0000
0000
0000
1003
0000
0001
0000
0100
0000
0000
0010
0000
0000
1000
0000
,
0200
2300
3002
0203
,
0320
2030
3002
0013
,
0110
0000
0000
1100
0000
0001
0100
0010
,
1000
0001
0100
0000
0001
1000
0100
0000
,
1000
0001
0100
0010
1000
0100
0010
0000
,
0100
1000
0001
0000
0100
0010
1000
0100
,
0010
0001
0001
1000
0002
0000
0100
0000
,
2003
0000
0000
0000
3010
0000
0100
0000
0100
0000
0000
0001
0000
0000
1000
0000
,
0001
0011
0110
1100
,
1002
0000
0000
0000
0100
0000
0000
0000
0103
0000
0000
0001
0000
0000
0010
0000
,
0120
1000
0001
0130
,
1000
0100
0010
0001
0100
0010
1000
0100
,
0010
0001
0100
0010
1000
0010
1000
0010
,
0100
0001
0010
0100
1000
0010
0100
0001
,
0010
0001
0000
0010
0001
0000
1000
0000
0020
0000
0000
0000
0130
0000
0000
0000
,
0001
0100
0010
1000
0100
0010
0001
0100
,
0010
1000
0100
0010
0001
0010
0001
0010
,
0100
1000
0100
1000
0001
0100
0001
0100
,
0010
0000
0000
0010
0000
0000
1000
0000
0001
0000
0000
0000
0110
0000
0000
0000
,
1000
0100
0010
0001
0100
0010
1000
0100
,
0010
0100
0010
0100
1000
0010
0100
0001
,
0010
0100
1000
0010
0100
0001
0010
0100
,
1000
0010
0100
0001
0010
0100
0110
0000
,
0001
0100
0010
0100
1000
0100
0010
0100
,
0001
0000
0010
0000
0100
0010
0000
0100
0010
0000
0001
0000
1000
0000
0000
0000
,
0001
1000
0100
0001
0000
0001
0100
2000
,
0000
0000
0000
0000
,
3000
0000
0000
0000
;

//---------------dance-single - ----------------
#NOTES:
     dance-single:
     :
     Easy:
     6:
     0.493107,0.522487,0.159570,0.310742,0.020996,355.000000,19.000000,37.000000,0.000000,0.000000,0.000000,0.493107,0.522487,0.159570,0.310742,0.020996,355.000000,19.000000,37.000000,0.000000,0.000000,0.000000:
// measure 0
0000
0000
0000
0000
,  // measure 1
0000
0000
0000
0000
,  // measure 2
0000
0000
0000
0000
,  // measure 3
0000
0000
0000
0000
,  // measure 4
1000
0100
0001
0100
,  // measure 5
1000
0000
0100
0000
0010
0001
0010
0000
,  // measure 6
0001
0000
0100
0000
1000
0000
0100
0002
,  // measure 7
0000
1003
0100
0000
0010
0000
0010
0000
,  // measure 8
0001
0100
1000
0100
,  // measure 9
0001
0100
0010
1000
,  // measure 10
0001
0010
1000
0010
,  // measure 11
0001
0010
0100
0110
,  // measure 12
1000
0100
0001
0100
,  // measure 13
1000
0100
0010
0001
,  // measure 14
1000
0010
0001
0010
,  // measure 15
0110
0000
1001
0000
,  // measure 16
1000
0001
0000
0100
0000
1000
0000
0100
,  // measure 17
0000
0001
0000
1000
0100
0000
0010
0000
,  // measure 18
0001
1000
0000
0010
0000
0001
0000
0010
,  // measure 19
0000
1000
0000
0001
1000
0100
1000
0000
,  // measure 20
0001
1000
0000
0100
0000
0001
0000
0100
,  // measure 21
0000
1000
0000
0100
0000
0010
0000
0001
,  // measure 22
1000
0010
0001
0100
,  // measure 23
2000
0000
0000
3000
,  // measure 24
0002
0000
0103
0000
0200
0000
0310
1000
,  // measure 25
0020
0000
1030
0000
2000
0000
3001
1000
,  // measure 26
0002
0010
1000
0103
,  // measure 27
0020
0000
1030
0001
0000
1000
0001
0000
,  // measure 28
0020
0000
0130
0000
0200
0000
1300
0001
,  // measure 29
2000
0000
3010
0000
0020
0000
0130
0001
,  // measure 30
0200
0320
2030
3100
,  // measure 31
0110
0000
0000
0000
0001
1000
0001
0000
,  // measure 32
1000
0000
0000
0001
0000
0000
1000
0000
0000
0000
0000
0000
1001
0000
0000
0000
,  // measure 33
0001
0000
0000
0010
0000
0000
0001
0000
0000
0000
0000
0000
0011
0000
0000
0000
,  // measure 34
1000
0000
0000
0010
0000
0000
1000
0000
0000
0000
0000
0000
1010
0000
0000
0000
,  // measure 35
1000
0100
0010
0001
,  // measure 36
1000
0000
0000
0010
0000
0000
1000
0000
0000
0000
0000
0000
1010
0000
0000
0000
,  // measure 37
0001
0000
0000
0100
0000
0000
0001
0000
0000
0000
0000
0000
0101
0000
0000
0000
,  // measure 38
1001
0000
0000
1100
0000
0000
0101
0000
,  // measure 39
0220
0000
0000
0000
,  // measure 40
0000
0000
0000
0330
0000
0000
0000
0000
,  // measure 41
0001
1000
0000
0100
0000
0010
0000
1000
,  // measure 42
0000
0010
0000
0001
0000
1000
0000
0010
,  // measure 43
0100
0010
0000
0001
0000
0010
0000
1000
,  // measure 44
0000
0001
0000
0100
0000
0010
0000
1000
,  // measure 45
0001
0000
0100
0001
0100
0000
0010
0000
,  // measure 46
2000
3200
0320
0032
,  // measure 47
1003
0010
0100
0001
,  // measure 48
0010
0010
0000
0200
0000
0000
1300
0000
,  // measure 49
0001
1000
0000
0100
0000
0001
0000
0100
,  // measure 50
0000
0010
0000
0001
0000
0100
0000
0010
,  // measure 51
0100
0010
0000
0001
0000
0010
0000
1000
,  // measure 52
0000
0001
0000
0010
0000
0100
0000
1000
,  // measure 53
0001
0000
1000
0001
1000
0000
0100
0000
,  // measure 54
0010
0002
2003
3020
,  // measure 55
0230
0000
0001
0000
0301
0000
1000
0001
,  // measure 56
1000
0000
0000
1001
0000
0000
0110
0000
,  // measure 57
1000
0001
0000
0010
0000
0100
0000
0001
,  // measure 58
0000
0100
0000
1000
0000
0001
0000
0100
,  // measure 59
0010
0100
0000
1000
0000
0100
0000
0001
,  // measure 60
0000
1000
0000
0010
0000
0100
0000
0001
,  // measure 61
1000
0000
0010
1000
0010
0000
0100
0000
,  // measure 62
0002
0023
0230
2300
,  // measure 63
3001
0100
0010
1000
,  // measure 64
0100
0000
0100
0020
0000
0000
0031
0000
,  // measure 65
1000
0010
0001
0010
,  // measure 66
1000
0010
0100
0001
,  // measure 67
1000
0100
0001
0100
,  // measure 68
1000
0100
0010
0110
,  // measure 69
1000
0000
0001
1000
0001
0000
0010
0000
,  // measure 70
0100
2000
3002
0203
,  // measure 71
0320
0000
1000
0000
1030
0000
0001
1000
,  // measure 72
0001
0000
0000
1001
,  // measure 73
1000
0100
1000
0000
0100
0000
0010
0000
,  // measure 74
0001
1000
0001
0000
0100
0001
0100
0000
,  // measure 75
0010
0100
0010
0000
1000
0000
0001
0000
,  // measure 76
1000
0100
1000
0000
0100
0000
0010
0000
,  // measure 77
0001
0001
1000
1000
,  // measure 78
0010
0100
1000
0100
,  // measure 79
0001
0010
1000
0001
,  // measure 80
0200
0000
0310
1001
,  // measure 81
0001
0100
0001
0000
0100
0000
0010
0000
,  // measure 82
1000
0010
1000
0010
1000
0000
0001
0000
,  // measure 83
1000
0100
0010
0000
0001
0000
1000
0000
,  // measure 84
0001
0000
0100
0000
0010
0010
0010
0000
,  // measure 85
1000
0001
0100
0001
,  // measure 86
0010
0000
0001
0000
0100
0010
0100
0000
,  // measure 87
0110
0000
1000
0001
0000
0010
0100
0020
,  // measure 88
0000
0000
0000
0000
0000
0000
0000
0030
;
