#VERSION:0.83;
#TITLE:LOVE & PEACE;
#SUBTITLE:;
#ARTIST:sifow;
#TITLETRANSLIT:;
#SUBTITLETRANSLIT:;
#ARTISTTRANSLIT:;
#GENRE:;
#ORIGIN:;
#CREDIT:hooky;
#BANNER:LOVE & PEACE.png;
#BACKGROUND:LOVE & PEACE-bg.png;
#PREVIEWVID:;
#JACKET:LOVE & PEACE-jacket.png;
#CDIMAGE:600x600bf.jpg;
#DISCIMAGE:279295.jpg;
#LYRICSPATH:;
#CDTITLE:;
#MUSIC:LOVE & PEACE.ogg;
#OFFSET:0.000000;
#SAMPLESTART:48.299999;
#SAMPLELENGTH:17.280001;
#SELECTABLE:YES;
#BPMS:0.000=145.000;
#STOPS:;
#DELAYS:;
#WARPS:;
#TIMESIGNATURES:0.000=4=4;
#TICKCOUNTS:0.000=4;
#COMBOS:0.000=1;
#SPEEDS:0.000=1.000=0.000=0;
#SCROLLS:0.000=1.000;
#FAKES:;
#LABELS:0.000=Song Start;
#BGCHANGES:0.000=LOVE & PEACE.avi=1.000=0=0=1=====,
99999=-nosongbg-=1.000=0=0=0 // don't automatically add -songbackground-
;
#KEYSOUNDS:;
#ATTACKS:
;

//---------------dance-single - ----------------
#NOTEDATA:;
#CHARTNAME:;
#STEPSTYPE:dance-single;
#DESCRIPTION:;
#CHARTSTYLE:;
#DIFFICULTY:Hard;
#METER:11;
#RADARVALUES:0.536868,0.531083,0.453561,0.064794,0.023141,406.000000,357.000000,49.000000,7.000000,0.000000,0.000000,0.000000,0.000000,0.000000,0.536868,0.531083,0.453561,0.064794,0.023141,406.000000,357.000000,49.000000,7.000000,0.000000,0.000000,0.000000,0.000000,0.000000;
#CREDIT:;
#NOTES:
// measure 0
0000
0000
0000
0000
,  // measure 1
0000
0000
0000
0000
,  // measure 2
0000
0000
0000
0000
,  // measure 3
0000
0000
0000
0000
,  // measure 4
0000
0000
0000
0000
,  // measure 5
0002
1000
0000
1000
0000
1000
0003
1000
,  // measure 6
0010
0100
0000
0100
0001
0010
0000
0100
,  // measure 7
2000
0010
0000
0010
0000
0010
3000
0010
,  // measure 8
0100
0001
0000
0001
0010
0100
1000
0010
,  // measure 9
0100
0100
0010
0000
0100
0001
0010
0000
,  // measure 10
0010
0000
0001
0000
1000
0000
0010
0000
0100
0010
0100
0000
0001
0000
0000
0000
,  // measure 11
0001
0010
0100
0000
1000
0001
0100
0000
,  // measure 12
0001
0010
0001
0100
0001
1000
0001
0100
,  // measure 13
0001
0001
0010
0010
0100
1000
0100
1000
,  // measure 14
0010
0000
0000
0000
0110
0000
0000
0100
0001
0000
0010
0000
0001
0000
0001
0000
,  // measure 15
0100
0010
1000
0100
1000
1000
0001
1000
,  // measure 16
0001
0000
0000
0000
0011
0000
0000
0100
0001
0000
0010
0000
0001
0000
0000
0000
,  // measure 17
0001
0100
0001
0010
0010
0000
0010
0001
,  // measure 18
0000
0001
1000
0000
0010
0100
0010
0010
,  // measure 19
0100
0100
0001
0010
0001
1000
0010
0100
,  // measure 20
0010
0000
0000
0100
0010
0000
0010
0000
0000
0010
0000
0000
0101
0000
0000
0000
,  // measure 21
0100
0001
0010
0001
0100
0001
0001
1000
,  // measure 22
0100
1000
0010
0100
0001
0010
1000
0100
,  // measure 23
0001
0100
0010
0000
0100
0001
1000
0001
,  // measure 24
0101
0000
1100
0000
0100
0010
0001
0000
,  // measure 25
1000
0001
1000
0001
0010
0010
0010
0100
,  // measure 26
0000
0010
0000
0000
0001
0001
0001
0001
,  // measure 27
1000
1000
1000
1000
0010
0010
0010
0010
,  // measure 28
0100
0010
0010
1000
0100
1000
0001
0100
,  // measure 29
0210
0301
2002
3003
,  // measure 30
0110
0000
0110
0000
0010
1000
0010
0100
,  // measure 31
0001
0001
1000
1000
0001
0010
0001
0010
,  // measure 32
0011
0000
1010
0000
1000
0100
0001
0100
,  // measure 33
1000
0001
1000
1000
0001
0000
0011
0000
,  // measure 34
0101
0000
0101
0000
0100
0010
0100
0000
,  // measure 35
0100
0010
1000
1000
0001
1000
0001
0001
,  // measure 36
0011
0000
1010
0000
0010
0100
0001
1000
,  // measure 37
0001
0100
0000
0001
0010
0000
0101
0001
,  // measure 38
1010
0000
0011
0000
0100
0001
0100
0010
,  // measure 39
1000
1000
0001
0010
0001
0001
1000
0001
,  // measure 40
0101
0000
1100
0000
0001
0010
1000
0010
,  // measure 41
0001
1000
0000
0001
1000
0001
1100
0000
,  // measure 42
1001
0000
1001
0000
0010
0100
0010
1000
,  // measure 43
0010
0100
0001
1000
1000
1000
0001
0001
,  // measure 44
1100
0000
0101
0000
0100
0010
1000
0001
,  // measure 45
1000
0010
0000
1000
0010
0000
0100
0100
,  // measure 46
0001
0001
0101
0000
0100
1010
0000
1000
,  // measure 47
1100
1100
1010
1001
,  // measure 48
0100
0000
0110
0000
0100
0011
0000
0100
,  // measure 49
0101
0000
0001
0000
0010
0011
0000
0011
,  // measure 50
1000
0000
1100
0000
0001
0011
0000
0000
,  // measure 51
0001
0001
0101
1001
,  // measure 52
0100
0000
0110
0000
0010
1010
0000
0100
,  // measure 53
0110
0000
1010
0000
1100
1010
0000
1010
,  // measure 54
0010
0100
0001
0100
,  // measure 55
0010
1000
0100
1000
0010
0100
0001
0010
,  // measure 56
0001
0001
0010
0001
,  // measure 57
0001
0100
0010
1000
0100
0100
1000
0010
,  // measure 58
0100
0100
0001
0100
,  // measure 59
0010
0100
0001
0010
0001
0010
0100
0100
,  // measure 60
0010
0001
1000
0010
,  // measure 61
0010
0100
0001
0001
0010
0001
1000
0100
,  // measure 62
0220
0000
0000
0000
,  // measure 63
0000
0000
0000
0330
;
