#TITLE:gigadelic (かめりあ's "The TERA" RMX);
#SUBTITLE:;
#ARTIST:かめりあ;
#TITLETRANSLIT:;
#SUBTITLETRANSLIT:;
#ARTISTTRANSLIT:;
#GENRE:;
#CREDIT:;
#MUSIC:gigadelic (Camellia's ''The TERA'' RMX).ogg;
#BANNER:gigadelic (Camellia's ''The TERA'' RMX).png;
#BACKGROUND:gigadelic (Camellia's ''The TERA'' RMX)-bg.png;
#CDTITLE:;
#SAMPLESTART:20.973;
#SAMPLELENGTH:15.000;
#SELECTABLE:YES;
#OFFSET:-0.003;
#BPMS:0.000=183.000;
#STOPS:;
#JACKET:gigadelic (Camellia's ''The TERA'' RMX)-jacket.png;
#BGCHANGES:;
#FGCHANGES:;

//--------------- dance-single - forcednature ----------------
#NOTES:
     dance-single:
     forcednature:
     Beginner:
     5:
     0,0,0,0,0:
0000
0000
0000
0000
,
0000
0000
0000
0000
,
0000
0000
0000
0000
,
0000
0000
0000
0000
,
0000
0000
0000
0000
,
0000
0000
0000
0000
,
0000
0000
0000
0000
,
0000
0000
0000
0000
,
1001
0000
0000
0000
,
0000
0000
0000
0000
,
1001
0000
0000
0000
,
0000
0000
0000
0000
,
1001
0000
0000
0000
,
1001
0000
0000
0000
,
1001
0000
1001
0000
,
1001
0000
1001
0000
,
0000
0010
0000
0100
,
0000
0010
0000
0100
,
0000
1000
0000
0001
,
0000
1000
1001
0000
,
0000
0001
0000
1000
,
0000
0001
0000
1000
,
0000
0010
0000
0100
,
0000
0010
0110
0000
,
0000
0100
0000
0001
,
0000
0100
0000
1000
,
0000
0100
0000
0010
,
0000
0100
0110
0000
,
1000
0000
0001
0010
,
0000
1000
0000
0010
,
0000
0001
0000
0010
,
0000
1000
1001
0000
,
1000
0000
1001
0000
,
0000
0000
0110
0000
,
0000
0000
1001
0000
,
0000
0000
0110
0000
,
0000
0000
1001
0000
,
0000
0000
0110
0000
,
0000
0000
1001
0000
,
0110
0000
1001
0000
,
0010
0010
1001
0000
,
0000
0000
1001
0000
,
0010
0010
1001
0000
,
0000
0000
1001
0000
,
0100
0100
1001
0000
,
0000
0000
1001
0000
,
0100
0100
1001
0000
,
1001
0000
1001
0000
,
0020
0030
0000
0000
,
0200
0300
0000
0000
,
0020
0030
0000
0000
,
0000
0000
0000
0000
,
2000
3000
0000
0000
,
0002
0003
0000
0000
,
0200
0300
0000
0000
,
0020
0130
0100
0000
,
1001
0000
0000
0000
,
0010
0000
1000
0000
,
1001
0000
0000
0000
,
0010
0000
0001
0001
,
1001
0100
1001
0100
,
1001
0100
1001
0100
,
0010
0010
0010
0010
,
0010
0010
0020
0030
,
0110
1001
0000
1001
,
0000
0110
0000
0110
,
0000
1001
0000
1001
,
0000
0110
0000
0110
,
0000
1001
0000
1001
,
0000
0110
0000
0110
,
0000
1001
0000
1001
,
0000
0110
1001
0000
,
1001
0110
0000
1001
,
0000
0110
0000
1001
,
0000
0110
0000
1001
,
0000
0110
0000
1001
,
0000
0110
0000
1001
,
0000
0110
0000
1001
,
0000
0110
0000
1001
,
0000
0110
1001
0000
,
1001
1001
1001
1001
,
1001
1001
1001
1001
,
1001
1001
1001
1001
,
1001
1001
1001
1001
,
1001
1001
1001
1001
,
1001
1001
1001
1001
,
1001
1001
1001
1001
,
1001
1001
1001
1001
,
2002
0000
0000
3003
,
1001
0000
0000
0000
;

//--------------- dance-single - forcednature ----------------
#NOTES:
     dance-single:
     forcednature:
     Easy:
     7:
     0,0,0,0,0:
0000
0000
0000
0000
,
0000
0000
0000
0000
,
0000
0000
0000
0000
,
0000
0000
0000
0000
,
0000
0000
0000
0000
,
0000
0000
0000
0000
,
0000
0000
0000
0000
,
0000
1001
0000
0000
,
0010
0000
0000
0000
,
0000
0000
0000
0000
,
1001
0000
0000
0000
,
0000
0000
0010
0010
,
1001
0000
0000
0000
,
1001
0000
0100
0000
,
1001
0000
1001
0000
,
1001
1001
1001
0000
,
1000
0001
1000
0001
,
1000
0001
1000
0001
,
0010
1000
0010
1000
,
0010
1000
0010
0000
,
0001
1000
0001
1000
,
0001
1000
0001
1000
,
0010
0001
0010
0001
,
0010
0001
0010
0000
,
1000
0100
1000
0100
,
1000
0100
1000
0100
,
0001
1000
0001
1000
,
0001
1000
0001
0000
,
0100
0100
0010
0010
,
0100
0100
0010
0010
,
0100
0100
0010
0010
,
0100
0100
0010
0000
,
1001
1001
1001
0000
,
0000
0000
0100
0100
,
1001
1001
1001
0000
,
0000
0000
0010
0010
,
1001
1001
1001
0000
,
0000
0000
0100
0100
,
1001
1001
1001
0000
,
0110
0000
0110
0000
,
1001
1001
1001
0000
,
0010
0010
0010
0000
,
1001
1001
1001
0000
,
0100
0100
0100
0000
,
1001
1001
1001
0000
,
0010
0010
0010
0000
,
1001
1001
1001
0000
,
0110
0000
0110
0000
,
2000
0000
3000
0000
,
0002
0000
0003
0000
,
0200
0000
0000
0000
,
0300
0000
0000
0000
,
0020
0000
0030
0000
,
2000
0000
3000
0000
,
0200
0000
0300
0000
,
0010
0001
0001
0001
,
1002
0000
0003
0000
,
0200
0000
0310
0000
,
2001
0000
3000
0000
,
0100
0000
0010
0001
,
1001
0000
0110
0000
,
1001
0000
0110
0000
,
1001
1001
1001
1001
,
1001
1001
1001
0000
,
0100
1001
0100
1001
,
0100
1001
0100
1001
,
0010
1001
0010
1001
,
0010
1001
0010
1001
,
0100
1001
0010
1001
,
0100
1001
0010
1001
,
0100
1001
0010
1001
,
0100
1001
0010
0000
,
1000
1001
0001
1001
,
1000
1001
0001
1001
,
1000
1001
0001
1001
,
1000
1001
0001
1001
,
1000
1001
0001
1001
,
1000
1001
0001
1001
,
0001
1001
1000
1001
,
0001
1001
1001
0000
,
0110
0110
0110
0110
,
1001
1001
1001
1001
,
0110
0110
0110
0110
,
1001
1001
1001
1001
,
0110
0110
1001
1001
,
0110
0110
1001
1001
,
0110
1001
0110
1001
,
0110
1001
0110
1001
,
2002
0000
0000
3003
,
1001
0000
0000
0000
;

//--------------- dance-single - forcednature ----------------
#NOTES:
     dance-single:
     forcednature:
     Medium:
     10:
     0,0,0,0,0:
0000
0000
0000
0000
,
0000
0000
0000
0000
,
0000
0000
0000
0000
,
0000
0000
0000
0000
,
0000
0000
0000
0000
,
0000
0000
0000
0000
,
0000
0000
0000
0000
,
0000
0000
0000
1001
0000
0000
0010
0000
0010
0000
0010
0000
,
0010
0000
0000
0000
,
0100
0000
0000
0000
,
1001
0000
0000
0000
,
2002
0000
0000
0000
0000
3003
1001
0000
0000
0110
0000
0000
,
1001
0000
0000
0000
,
1001
0000
0000
0000
,
1001
0100
1001
0100
,
1001
1001
2002
3003
,
1100
0110
1000
0101
,
0010
1001
0010
0101
,
1001
1100
0010
1001
,
0100
0011
1001
0000
,
0110
1100
0010
1001
,
0100
0011
1000
0110
,
1100
0001
1010
0100
,
0110
0000
0000
0001
0000
0000
2002
0000
0000
0000
3003
0000
,
1001
1100
0010
1001
,
0100
0011
1001
0100
,
1010
0110
1000
0011
,
0100
1001
0110
0000
,
0100
0000
0100
0000
0100
0000
0010
0000
0000
1001
0000
0000
,
0010
0101
0110
1010
,
0100
1100
1001
0011
,
0100
0000
0000
0101
0000
0000
0220
0000
0000
0000
0330
0000
,
1000
0001
2002
0000
,
3003
0000
0000
0100
0000
0000
0210
0000
0010
0000
0010
0000
,
0310
1000
0220
0000
,
0330
0000
0000
0001
0000
0000
1002
0000
0000
1000
0000
0013
,
0001
0010
2002
0000
,
3003
0000
0000
0000
0000
0000
1000
0000
0000
0000
0000
0000
0210
0000
0000
0000
0010
0000
0000
0000
0010
0000
0000
0300
,
0010
0001
0202
0303
,
0011
0100
1010
0100
,
1001
0000
0000
0100
0000
0000
1001
0000
0001
0000
1000
0000
,
0001
0000
1000
0000
0001
0000
2002
0000
0000
3003
0000
0000
,
0100
0000
0000
0010
0000
0000
1002
0000
1000
0000
0010
0000
,
0103
0010
0220
0330
,
0110
0000
0000
1000
0000
0000
0110
0000
0100
0000
0010
0000
,
0100
0000
0010
0000
0100
0000
0220
0000
0000
0330
0000
0000
,
1000
0001
0220
0330
,
0102
0103
2100
3100
,
2002
0000
0000
3003
,
2000
0000
0000
3000
,
0020
0000
0000
0000
,
0000
0000
0000
0030
,
0200
0000
0000
0300
,
0002
0000
0000
0003
,
0020
0000
0000
0030
,
0100
0000
0000
1001
0000
0000
0100
0000
0100
0000
0100
0000
,
0120
0000
0000
0030
,
0200
0300
1001
0000
,
0210
0000
0000
0300
,
0010
0000
1001
0110
,
0110
0000
1001
0000
,
0110
0000
1001
0000
,
1001
1001
1001
1001
,
2002
0000
0000
3003
0000
0000
0100
0010
0100
0010
0000
0000
,
1100
1001
0100
1001
,
0100
1001
0100
1001
,
0011
1001
0100
1001
,
0100
1001
1001
1001
,
0011
1001
0100
1001
,
0100
1001
0100
1001
,
1010
1001
0100
1001
,
0100
1001
1001
0110
,
0101
1100
0101
1100
,
0101
1100
0101
1100
,
1010
0011
1010
0011
,
1010
0011
1010
0011
,
1100
0101
0110
1001
,
1010
0011
0110
1001
,
1100
1010
0110
0011
,
0101
0011
1100
1001
,
0100
0010
0100
0010
0000
0000
0110
0000
0000
1001
0000
0000
,
1000
0001
1000
0001
0000
0000
1100
0000
0000
0011
0000
0000
,
0001
0100
0001
0100
0000
0000
0110
0000
0000
1001
0000
0000
,
1000
0100
1000
0100
0000
0000
0110
0000
0000
1100
0000
0000
,
0001
1000
0001
1000
0000
0000
0110
0000
0000
1001
0000
0000
,
1000
0010
1000
0010
0000
0000
0110
0000
0000
1001
0000
0000
,
0001
0010
0001
0010
0000
0000
0100
1000
0100
1000
0000
0000
,
0010
0100
0010
0100
0000
0000
0001
1000
0001
1000
0000
0000
,
0110
1001
1001
1001
,
0110
0000
0000
0000
;

//--------------- dance-single - forcednature ----------------
#NOTES:
     dance-single:
     forcednature:
     Hard:
     13:
     0,0,0,0,0:
0000
0000
0000
0000
,
0000
0000
0000
0000
,
0000
0000
0000
0000
,
0000
0000
0000
0000
,
0000
0000
0000
0000
,
0000
0000
0000
0000
,
0000
0000
0000
0000
,
0000
0000
0000
1000
0000
0000
0001
0000
0000
0000
0000
0000
0101
0000
0000
0000
1100
0000
0000
0000
0101
0000
0000
0000
,
0110
0000
0000
0000
,
0000
0000
0000
0000
0000
0000
0000
0000
0000
0000
0000
0000
0000
0000
0000
0000
0000
0000
0000
0000
0000
0000
0000
0000
0000
0000
0000
0000
0000
0000
0000
0000
0000
0000
0000
0000
0000
0000
0000
0000
0000
0000
0000
0000
0000
0000
0000
0000
0000
0000
0000
0000
0000
0000
0000
0000
0000
0000
0000
0000
0000
0000
0000
0000
0000
0000
0000
0000
0000
0000
0000
0000
0000
0000
0000
0000
0000
0000
0000
0000
0000
0000
0000
0000
0000
0000
0000
0000
0000
0000
0000
0000
0000
0000
0000
0000
2000
0000
0000
0000
0000
0000
0000
0000
0000
0000
0000
0000
0000
0000
0000
0000
0000
0000
0000
0000
0000
0000
0000
0000
0000
0000
0000
0000
0000
0000
0000
0000
0000
0000
0000
0000
0000
0000
0000
0000
0000
0000
0000
0000
0000
0000
0000
0000
0000
0000
0000
0000
0000
0000
0000
0000
0000
0000
0000
0000
0000
0000
0000
0000
0000
0000
0000
0000
0000
0000
0000
0000
0000
0000
0000
0000
0000
3000
0000
0000
0000
0000
0000
0000
0000
0000
0000
0000
0000
0000
0000
0000
0000
0000
0000
0000
,
1001
0000
0000
0000
,
0002
0000
0000
0000
0000
0000
0000
0000
0000
0000
0000
0000
0000
0000
0000
0000
0000
0000
0000
0000
0000
0000
0000
0000
0000
0000
0000
0000
0000
0000
0000
0000
0000
0000
0000
0000
0000
0000
0000
0000
0000
0000
0000
0000
0000
0000
0000
0000
0000
0000
0000
0000
0000
0000
0000
0000
0000
0000
0000
0000
0000
0000
0000
0000
0000
0000
0000
0000
0000
0000
0000
0000
0100
0000
0000
0000
0000
0003
0000
0000
0000
0000
0000
0000
0000
0000
0000
0000
0000
0000
0000
0000
0000
0000
0000
0000
0001
0000
0000
0000
0000
0000
0000
0000
0000
0000
0000
0000
0000
0000
0000
0000
0000
0000
0000
0000
0000
0000
0000
0000
0000
0000
0000
0000
0000
0000
0000
0000
0000
0000
0000
0000
0000
0000
0000
0000
0000
0000
0000
0000
0000
0000
0000
0000
0011
0000
0000
0000
0000
0000
0000
0000
0000
0000
0000
0000
0000
0000
0000
0000
0000
0000
0000
0000
0000
0000
0000
0000
0000
0000
0000
0000
0000
0000
0000
0000
0000
0000
0000
0000
0000
0000
0000
0000
0000
0000
0000
0000
0000
0000
0000
0000
,
1100
0000
1000
0010
0000
0010
0100
0000
0100
0001
0000
0001
,
0011
0000
0010
0100
0000
0100
1000
0000
1000
0001
0000
0001
,
0100
0001
1000
0010
1000
0100
0010
0001
0100
0010
1000
0100
,
0010
0001
0100
0010
1000
0001
0100
0000
0000
1001
0000
0000
,
0110
0000
0000
0101
0000
0000
0001
0000
0000
1100
0000
1000
,
0010
0000
0100
0001
0000
0000
0010
0000
0000
1100
0000
1000
,
0010
0000
0000
0110
0000
0000
0001
0000
0000
1100
0000
1000
,
0001
1000
0001
0010
0000
0100
1000
0000
0000
0000
0000
0000
,
0110
0000
0000
0101
0000
0000
0010
0000
0000
1001
0000
0001
,
0010
0000
0100
1000
0000
0000
0001
0000
0000
0101
0000
1000
,
0001
0000
0000
1010
0000
0000
0100
0000
0000
1001
0000
0001
,
0010
0001
1000
0100
0000
0010
0001
1000
0001
1000
0001
1000
,
0001
0000
0000
0110
0000
0000
1000
0000
0000
1100
0000
0001
,
1000
0000
0100
0010
0000
0000
0100
0000
0000
1001
0000
0001
,
0010
0000
0000
1001
0000
0000
0100
0000
0000
1010
0000
0001
,
0100
0010
1000
0100
0000
0010
0001
0000
0000
0000
0000
0000
,
1000
0010
0100
0001
0100
0010
1000
0000
0000
0101
0000
0001
,
0010
0000
0001
0100
0000
0000
0010
0000
0000
1001
0000
1000
,
0100
0000
0000
0011
0000
0000
0100
0000
0000
1010
0000
0001
,
0010
0001
1000
0100
0000
0010
0100
0000
0000
0000
0000
0000
,
0110
0000
1000
0100
0001
0100
2000
0000
0000
0000
0000
0000
,
3000
0000
0000
0010
0100
0001
0100
0000
0110
0000
1010
0000
,
1001
0000
1000
0001
0010
1000
0020
0000
0000
0000
0000
0000
,
0230
0000
0000
1300
0000
0010
0100
0000
0000
0001
0000
0010
,
0001
0000
0100
1000
0100
0001
0020
0000
0000
0000
0000
0000
,
0030
0000
0000
0100
1000
0100
0010
0000
1010
0000
0011
0000
,
0101
0000
0000
0000
1000
0000
0010
0000
1000
0000
0100
0000
0002
0000
0000
0000
0000
0000
0000
0000
0000
0103
0000
0000
,
1001
0000
0000
0001
0000
0001
0010
0000
0000
1000
0000
1000
,
0010
0000
0001
1000
0010
1000
0100
0000
0110
0000
0011
0000
,
1001
0000
0000
0000
1100
0000
0000
0000
1001
0000
0000
0000
2020
0000
0000
0000
0000
0000
0000
0000
0000
3030
0000
0000
,
0001
0000
0100
1000
0100
0001
0200
0000
0010
0000
0010
0000
,
0302
0000
0000
0000
0000
0000
0000
0000
0000
0003
0000
0000
0001
0000
0000
0000
0000
0000
0000
0000
0001
0000
0000
0000
0100
0000
0000
0000
0010
0000
0000
0000
1000
0000
0000
0000
0100
0000
0000
0000
0000
0000
0000
0000
0010
0000
0000
0000
,
0001
0000
0010
1000
0010
0100
1000
0000
1010
0000
0011
0000
,
0101
0000
0000
0000
1100
0000
0000
0000
1001
0000
0000
0000
0220
0000
0000
0000
0000
0000
0000
0000
0000
0330
0000
0000
,
0001
0000
1000
0100
0010
0100
1000
0001
1000
0001
1000
0001
,
0100
0001
0000
1001
0000
0001
0100
0010
0000
1001
0000
1000
,
0200
0000
0000
0000
0000
0000
0000
0300
,
0020
0000
0000
0000
0000
0000
0000
0030
,
0002
0000
0000
0000
,
0000
0000
0000
0000
0000
0000
0000
0003
,
2000
0000
0000
0000
0000
0000
0000
3000
,
0020
0000
0000
0000
0000
0000
0000
0030
,
0200
0000
0000
0000
0000
0000
0000
0300
,
0001
0000
0000
1000
0000
0000
0101
0000
0000
0000
0000
0000
0110
0000
0000
0000
1001
0000
0000
0000
0110
0000
0000
0000
,
1002
0000
0000
0000
0000
0000
0000
0003
,
2000
0000
0000
3000
0020
0000
0000
0030
,
1002
0000
0000
0000
0000
0000
0000
0003
,
2000
0000
0000
0000
0000
0000
0000
0000
0000
3100
0000
0000
1100
0000
0000
0000
0000
0000
1000
0000
0000
0000
1000
0000
,
0001
0100
1001
0010
,
1001
0100
1001
0010
,
1000
0001
1000
0001
1000
0001
1000
0001
1000
0001
1000
0001
,
1000
0000
0000
0010
0000
0000
0100
0001
0100
0001
0000
0000
,
1100
0000
0000
0011
0000
0000
0100
0000
0000
1001
0000
0001
,
1000
0000
0001
0100
0000
0000
0010
0000
0000
1001
0000
1000
,
0100
0000
0000
0110
0000
0000
0001
0000
0000
1001
0000
1000
,
0010
0100
0001
0100
0000
0010
1000
0000
0100
0010
0000
0001
,
0100
0000
0000
0110
0000
0000
0001
0000
0000
1100
0000
0001
,
0010
0000
0100
1000
0000
0000
0010
0000
0000
1001
0000
1000
,
0001
0000
0000
0110
0000
0000
0001
0000
0000
1001
0000
1000
,
0100
0000
0010
0000
0001
0000
0100
0000
0000
0000
0010
0000
2000
0000
3000
0000
0002
0000
0200
0000
0000
0303
0000
0000
,
0001
0000
0000
0110
0000
0000
1000
0000
0000
1001
0000
1000
,
0010
0000
1000
0100
0000
0000
0010
0000
0000
1001
0000
0001
,
0100
0000
0000
0110
0000
0000
0001
0000
0000
1010
0000
1000
,
0100
0010
0100
1000
0000
0010
0100
0000
0001
0100
0000
0010
,
1000
0000
0000
1001
0000
0000
0010
0000
0000
1001
0000
0001
,
0100
0000
0010
1000
0000
0000
0100
0000
0000
1001
0000
0010
,
0100
0000
0000
1001
0000
0000
0001
0000
0000
0110
0000
1000
,
0010
1000
0100
0010
0000
0001
0100
0000
0000
0000
0000
0000
,
0010
1000
0001
0100
1000
0100
0001
0000
0110
0000
1001
0000
,
1000
0100
0010
0100
1000
0001
0100
1000
0100
0001
0100
0010
,
0100
0001
0010
1000
0010
0100
1000
0000
1010
0000
0101
0000
,
0001
0000
0010
0001
0010
0200
1000
0000
0300
0100
0010
0100
,
0010
1000
0010
0001
1000
0010
0100
0000
0101
0000
1010
0000
,
0001
0010
1000
0010
0100
1000
0010
0100
0001
1000
0100
0001
,
0100
0010
0001
1000
0010
0100
1000
0000
1100
0000
0101
0000
,
1000
0001
0100
1000
0100
0001
1000
0010
0001
0010
1000
0100
,
0210
0000
0000
0000
0000
0000
0000
0000
0000
0300
1000
0000
0010
0000
0100
0000
0001
0000
1000
0000
0001
0000
0010
0000
,
2000
0000
0000
0000
,
3000
0000
0000
0000
;

//--------------- dance-single - forcednature ----------------
#NOTES:
     dance-single:
     forcednature:
     Challenge:
     17:
     0,0,0,0,0:
0000
0000
0000
0000
,
0000
0000
0000
0000
,
0000
0000
0000
0000
,
0000
0000
0000
0000
,
0000
0000
0000
0000
,
0000
0000
0000
0000
,
0000
0000
0000
0000
,
0000
0000
0000
1000
0001
1000
0001
0000
0000
1000
0010
1000
0010
0000
0000
0000
0110
0000
0000
0000
0101
0000
0000
0000
,
1001
0000
1000
0100
0000
1000
0010
0000
1000
0001
0000
0100
,
0001
0000
0010
0001
0000
1000
0020
0000
0000
0100
0030
0000
,
1001
0000
0001
0010
0000
0001
0100
0000
0001
1000
0000
0001
,
0200
0000
0000
0000
0000
0000
0010
0000
0300
0100
0001
0100
0001
0000
1000
0000
0010
0000
1010
0000
0000
0000
0000
0000
,
0101
0000
0001
1000
0000
0100
1000
0000
0001
0010
0000
0001
,
1001
0000
1000
0010
0000
1000
0001
0000
0100
0010
0000
0100
,
0001
1000
0010
1000
0100
0010
0100
1000
0001
0010
0100
1000
,
0001
0100
0001
1000
0010
0100
0002
0000
0003
2001
0000
3000
,
1100
0000
0000
0011
0000
0000
1000
0100
0010
0100
0000
1000
,
0001
0000
0100
0001
1000
0100
1000
0000
0000
0101
0000
1000
,
0010
0000
0000
0110
0000
0000
0001
0010
0100
1000
0000
0100
,
0010
0100
1000
0010
0000
0100
0002
0000
0000
0000
0000
0003
,
0110
0000
0000
1001
0000
0000
0001
0010
0001
1000
0000
0100
,
1000
0000
0001
0010
0000
0001
1000
0000
0010
1000
0000
0001
,
0100
0000
0000
0110
0000
0000
0001
0100
0010
1000
0000
0100
,
0010
0100
1000
0001
0000
1000
0010
0100
0010
0100
0010
0100
,
0001
0000
0000
0011
0000
0000
1000
0100
0010
0001
0000
1000
,
0010
0000
1000
0001
0000
0010
0001
0000
0000
0110
0000
1000
,
0001
0000
0000
0101
0000
0000
0001
0010
0100
1000
0000
0010
,
0100
0001
1000
0100
0000
0010
0002
0000
0000
0000
0000
0003
,
1000
0000
0001
1000
0001
0000
1000
0000
0001
0000
1000
0000
0010
0000
0100
0000
0001
0000
1000
0000
0000
0000
0100
0000
,
1000
0000
0010
0100
0000
0001
0010
0000
0001
1000
0000
0010
,
0100
0000
0000
1001
0000
0000
1000
0100
1000
0010
0000
0100
,
0001
0010
0001
1000
0000
0100
2000
0000
0000
0000
0000
3000
,
0011
0000
0001
0010
0001
1000
0200
0000
0000
0000
0000
0000
,
0300
0000
0000
1000
0010
0100
0001
0000
0101
0000
1001
0000
,
1100
0000
1000
0001
0100
0010
2000
0000
0000
0000
0000
0000
,
3002
0000
0000
0013
0000
0010
0100
0000
0000
1000
0000
1000
,
0010
0000
0100
0001
1000
0100
2000
0000
0000
0000
0000
0000
,
3000
0000
0000
0001
0100
0001
1000
0000
1010
0000
1001
0000
,
0101
0000
0000
0000
0001
0000
0010
0000
0100
0000
1000
0000
0020
0000
0000
0000
0000
0000
0000
0000
0030
0100
0001
0100
,
0001
0000
0000
1001
0000
0100
0010
0000
0000
1001
0000
1000
,
0010
0000
1000
0100
1000
0001
0100
0000
0101
0000
1001
0000
,
1010
0000
1001
0000
0101
0000
0120
0000
0000
0000
0030
0000
,
1001
0000
0001
0010
0100
1000
0200
0000
0001
0000
1000
0000
,
0320
0000
0000
0000
0000
0000
0031
0000
0000
0000
0001
0000
0100
0000
0010
1000
0010
1000
0010
0000
0000
0000
0100
0000
,
0001
0000
0010
0001
0010
0100
1000
0000
1100
0000
0110
0000
,
0011
0000
0110
0000
1100
0000
1002
0000
0000
0000
0000
0003
,
1000
0000
0001
0100
0001
1000
0010
0100
0010
0100
0010
0100
,
0010
1000
0000
1001
0000
0001
0010
0100
0000
1001
0000
1000
,
0200
0000
0000
0000
,
0020
0300
0000
0000
0000
0000
0000
0000
,
0002
0030
0000
0000
0000
0000
0000
0000
,
0000
0000
0000
0000
,
0200
0003
0000
0000
0000
0000
0000
0000
,
0020
0300
0000
0000
0000
0000
0000
0000
,
2000
0030
0000
0000
0000
0000
0000
0000
,
3001
0000
0000
1000
0001
1000
0001
0000
0000
1000
0100
1000
0100
0000
0000
0000
0011
0000
0000
0000
1100
0000
0000
0000
,
1001
0000
0000
1000
0010
1000
0010
0100
0001
1000
0100
1000
,
0001
0010
0001
1000
0100
0010
0001
0100
0010
1000
0100
0010
,
0001
0100
0010
1000
0001
1000
0010
1000
0001
0010
0001
1000
,
0100
0000
0010
0000
0100
0000
1000
0000
0001
0100
0001
0100
0001
0000
1000
0000
0010
0000
1000
0000
0100
0000
0010
0000
,
0001
0100
0010
1000
0100
0010
0001
0100
0010
1000
0100
0010
,
0001
0010
0100
1000
0010
0100
0001
0010
0100
1000
0010
0100
,
0001
1000
0100
1000
0001
0100
0001
1000
0010
1000
0001
0010
,
0002
0000
0000
0000
0000
0000
0000
0000
0000
0003
0000
0000
0100
0000
0010
0000
0100
0000
0010
0000
0000
0000
0000
0000
,
1001
0000
0000
1000
0100
1000
0010
0100
0001
0010
0001
0100
,
0010
1000
0100
0001
0100
0010
0001
1000
0010
0100
0001
1000
,
0010
0000
0010
0100
1000
0100
0001
1000
0100
0010
1000
0010
,
0001
1000
0010
0100
0001
1000
0100
0010
1000
0010
0001
1000
,
0010
0000
0010
0100
0001
0100
1000
0100
0010
1000
0100
0001
,
0100
0010
0001
1000
0010
0100
0001
1000
0100
0010
0001
1000
,
0010
0000
0010
1000
0100
0010
0100
1000
0010
0100
1000
0100
,
0001
0000
1000
0000
0100
0000
0010
0000
1000
0000
0010
0000
0001
0000
1000
0000
0001
0000
1000
0001
1000
0001
1000
0001
,
1000
0000
1000
0010
0100
0001
0100
1000
0100
0010
1000
0100
,
0010
1000
0010
0001
1000
0010
0100
0001
0100
1000
0100
0010
,
1000
0000
1000
0100
0010
0001
0010
1000
0010
0001
1000
0010
,
0100
0001
1000
0100
0010
1000
0010
0001
0100
0010
1000
0001
,
0100
0000
0100
0001
0100
1000
0100
0010
0100
0001
0100
1000
,
0100
0010
1000
0100
0010
0100
1000
0001
0100
0010
1000
0100
,
0010
0000
0010
0001
1000
0010
1000
0001
0010
0100
1000
0010
,
0001
0010
1000
0100
0010
1000
0010
0001
1000
0010
0000
0000
,
1000
0001
1000
0001
1000
0001
1000
0000
0010
0000
0100
0000
0001
0000
0000
0000
1001
0000
0000
0000
1010
0000
0000
0000
,
0001
0010
0001
0000
1000
0000
0100
0000
0000
0000
0010
0000
0100
0000
1000
0000
0010
0000
0001
0000
0010
0000
1000
0000
,
0001
0100
0010
1000
0100
0010
0001
0000
0101
0000
1001
0000
,
2000
0000
0100
0000
3010
2000
0001
0001
3001
1000
1000
1000
,
0010
0100
1000
0100
0001
1000
0100
0000
0011
0000
1100
0000
,
0001
1000
0001
0000
1000
0000
0010
0000
0100
0000
0001
0000
1000
0000
0100
0000
0001
0000
0100
0000
0010
0000
0001
0000
,
1000
0010
0100
0001
0100
1000
0100
0000
0110
0000
1001
0000
,
0001
0000
1000
0100
1000
0000
0010
0000
0100
0001
0100
0000
0010
0000
1000
0001
1000
0000
0100
0000
1000
0001
1000
0000
,
2002
0000
0000
0000
0000
0000
0000
0000
3003
1000
0001
1000
0001
0000
0100
0000
0010
0000
1000
0000
0100
0000
2000
0000
,
0002
3000
0000
0000
,
0003
0000
0000
0000
;

//--------------- dance-double - forcednature ----------------
#NOTES:
     dance-double:
     forcednature:
     Easy:
     7:
     0,0,0,0,0:
00000000
00000000
00000000
00000000
,
00000000
00000000
00000000
00000000
,
00000000
00000000
00000000
00000000
,
00000000
00000000
00000000
00000000
,
00000000
00000000
00000000
00000000
,
00000000
00000000
00000000
00000000
,
00000000
00000000
00000000
00000000
,
00000000
00011000
00000000
00000000
,
00011000
00000000
00000000
00000000
,
00000000
00000000
00000000
00000000
,
00011000
00000000
00000000
00000000
,
00010000
00000000
00001000
00011000
,
00011000
00000000
00000000
00000000
,
00011000
00000000
00011000
00000000
,
00011000
00000000
00011000
00000000
,
00011000
00011000
00011000
00000000
,
00010000
00001000
00010000
00001000
,
00010000
00001000
00010000
00001000
,
00000100
00000001
00000100
00000001
,
00000100
00000001
00000100
00000000
,
00000001
00001000
00000001
00001000
,
00000001
00001000
00000001
00001000
,
00000100
00010000
00000100
00010000
,
00000100
00010000
00001000
00000000
,
01000000
00010000
01000000
00010000
,
01000000
00010000
01000000
00010000
,
00100000
10000000
00100000
10000000
,
00100000
10000000
00100000
00000000
,
01000000
01000000
00100000
10000000
,
00010000
01000000
00100000
10000000
,
00010000
01000000
00010000
00100000
,
01000000
10000000
00100000
00000000
,
00010000
00001000
00011000
00000000
,
00000000
00000000
00011000
00000000
,
00010000
00001000
00011000
00000000
,
00000000
00000000
00011000
00000000
,
00001000
00010000
00011000
00000000
,
00000000
00000000
00011000
00000000
,
00001000
00010000
00011000
00000000
,
00011000
00000000
00011000
00000000
,
00010000
00001000
00011000
00000000
,
00011000
00000000
00011000
00000000
,
00001000
00010000
00011000
00000000
,
00011000
00000000
00011000
00000000
,
00010000
00001000
00011000
00000000
,
00011000
00000000
00011000
00000000
,
00001000
00010000
00011000
00000000
,
00011000
00000000
00011000
00000000
,
00020000
00000000
00030000
00000000
,
00000200
00000000
00000300
00000000
,
00000020
00000000
00000000
00000000
,
00000030
00000000
00000000
00000000
,
00002000
00000000
00003000
00000000
,
02000000
00000000
03000000
00000000
,
00200000
00000000
00300000
00000000
,
00020000
00000000
00030000
00000000
,
00021000
00000000
00030000
00000000
,
00002000
00000000
00013000
00000000
,
00021000
00000000
00030000
00000000
,
00020000
00000000
00031000
00011000
,
00011000
00000000
00011000
00000000
,
00011000
00000000
00011000
00000000
,
00011000
00011000
00011000
00011000
,
00011000
00011000
00022000
00033000
,
00010000
00011000
00001000
00011000
,
00010000
00011000
00001000
00011000
,
00000010
00001001
00000100
00001001
,
00000010
00001001
00000100
00001001
,
00001000
00011000
00010000
00011000
,
00001000
00011000
00010000
00011000
,
00100000
10010000
01000000
10010000
,
00100000
10010000
01000000
10010000
,
00100000
10010000
01000000
10010000
,
00100000
10010000
01000000
10010000
,
00010000
00011000
00001000
00011000
,
00010000
00011000
00001000
00011000
,
00000010
00001001
00000100
00001001
,
00000010
00001001
00000100
00001001
,
00001000
00011000
00010000
00011000
,
00001000
00011000
00010000
00011000
,
00011000
00011000
00011000
00011000
,
00001000
00011000
00011000
00011000
,
00010000
00011000
00011000
00011000
,
00001000
00011000
00010000
00011000
,
00011000
00011000
00011000
00011000
,
00011000
00011000
00011000
00011000
,
00011000
00011000
00011000
00011000
,
00011000
00011000
00011000
00011000
,
00022000
00000000
00000000
00033000
,
00011000
00000000
00000000
00000000
;

//--------------- dance-double - forcednature ----------------
#NOTES:
     dance-double:
     forcednature:
     Medium:
     10:
     0,0,0,0,0:
00000000
00000000
00000000
00000000
,
00000000
00000000
00000000
00000000
,
00000000
00000000
00000000
00000000
,
00000000
00000000
00000000
00000000
,
00000000
00000000
00000000
00000000
,
00000000
00000000
00000000
00000000
,
00000000
00000000
00000000
00000000
,
00000000
00000000
00000000
00011000
00000000
00000000
00010000
00000000
00001000
00000000
00010000
00000000
,
00001000
00000000
00000000
00000000
,
01000000
00000000
00000000
00000000
,
01100000
00000000
00000000
00000000
,
10010000
00000000
01100000
10010000
,
10010000
00000000
00000000
00000000
,
01100000
00000000
00010000
00000000
,
00011000
00011000
00011000
00011000
,
00011000
00011000
00022000
00033000
,
00011000
00001100
00010000
00000110
,
00001000
00000101
00000010
00001001
,
00000110
00001100
00000010
00001001
,
00000100
00001100
00000101
00000000
,
00000110
00001100
00010000
00101000
,
00100000
01010000
00100000
11000000
,
10010000
01010000
00100000
10010000
,
01000000
10010000
11000000
00000000
,
01100000
01010000
00100000
10010000
,
01000000
10100000
01000000
00110000
,
10010000
10100000
01000000
01100000
,
00010000
01100000
10010000
00000000
,
11000000
01010000
00110000
00011000
,
00100000
00011000
00000100
00011000
,
00000100
00001010
00001000
00000011
,
00000100
00001001
00000110
00001001
,
00000001
00000000
00000100
00000001
00000100
00000001
00000200
00000000
00000000
00000000
00000000
00000000
,
00000300
00000000
00000000
00000100
00000000
00000000
00000210
00000000
00000010
00000000
00000010
00000300
,
00000110
00000000
00001000
00000100
00001000
00000100
00002000
00000000
00000000
00000000
00000000
00000000
,
00023000
00000000
00000000
00031000
00000000
00001000
00010000
00000000
00000000
01000000
00000000
00000000
,
01100000
00000000
10000000
00010000
10000000
00010000
20000000
00000000
00000000
00000000
00000000
00000000
,
00000000
30000000
00000000
00100000
00000000
00100000
10000000
00000000
01000000
00000000
00100000
00000000
,
00110000
00000000
00000000
00000000
00100000
00000000
00001000
00000000
00100000
00000000
00001000
00000000
00200000
00000000
00000000
00000000
00000000
00000000
00000000
00300000
00000000
00000000
00000000
00000000
,
00110000
00001000
00010010
00001000
,
00000110
00000000
00000000
00001100
00000000
00000000
00001001
00000000
00000100
00000000
00000100
00000000
,
00000010
00000000
00000010
00000000
00000100
00000000
00000110
00000000
00000000
00000000
00000000
00000000
,
00001001
00001000
00001010
00000000
,
00000110
00000101
00001100
00000000
,
00001010
00000000
00000000
00001000
00000000
00000000
00000100
00000000
00010000
00000000
00000100
00000000
,
00010000
00000000
00000100
00000000
00010000
00000000
00011000
00000000
00000000
00000000
00000000
00000000
,
01100000
00010000
01100000
00000000
,
11000000
10010000
01010000
10010000
,
02100000
00000000
00000000
03000000
,
00020000
00000000
00000000
00030000
,
00002000
00000000
00000000
00000000
,
00000000
00000000
00003000
00000000
,
00000002
00000000
00000000
00000003
,
00000020
00000000
00000000
00000030
,
00000200
00000000
00000000
00000300
,
00010000
00000000
00000000
00011000
00000000
00000000
01000000
00000000
01000000
00000000
01000000
00000000
,
01200000
00000000
00000000
00300000
,
20000000
30000000
01100000
00000000
,
10020000
00000000
00000000
00030000
,
00002000
00003000
00000110
00001001
,
00002001
00003000
00000110
00000000
,
00001002
00000003
00000110
00000000
,
00001001
00001001
00001001
00001001
,
00000220
00000000
00000000
00000330
00000000
00000000
00000001
00001000
00000001
00001000
00000000
00000000
,
00000101
00000102
00001003
00002100
,
00003010
00001002
00000103
00000110
,
00001100
00021000
01030000
00210000
,
01300000
10100000
10010000
01100000
,
01010000
00120000
00031000
00020100
,
00031000
00001002
00000103
00000011
,
00001010
00002001
00003100
00001020
,
00000130
00000011
00001001
00001100
,
00001010
00000102
00000103
00000201
,
00000301
00001020
00001030
00001100
,
00000011
00002001
00003100
00001020
,
00001030
00001001
00000101
00001100
,
00010010
00012000
00103000
02100000
,
13000000
20010000
30010000
01010000
,
11000000
02100000
03100000
10010000
,
11000000
10010000
00110000
01100000
,
10000000
00010000
10000000
00010000
00000000
00000000
01010000
00000000
00000000
01100000
00000000
00000000
,
10000000
00100000
10000000
00100000
00000000
00000000
01100000
00000000
00000000
01010000
00000000
00000000
,
00100000
00010000
00100000
00010000
00000000
00000000
01010000
00000000
00000000
11000000
00000000
00000000
,
00010000
00100000
00010000
00100000
00000000
00000000
00011000
00000000
00000000
00000000
00000000
00000000
,
00010000
00001000
00010000
00001000
00000000
00000000
00010000
00000100
00010000
00000100
00000000
00000000
,
00001000
00000010
00001000
00000010
00000000
00000000
00000100
00000001
00000100
00000001
00000000
00000000
,
00000010
00000100
00000010
00000100
00000000
00000000
00010000
00001000
00010000
00001000
00000000
00000000
,
01100000
00000000
10000000
00010000
00000000
10000000
00010000
00000000
10000000
00010000
00000000
10000000
,
00020000
00030000
10010000
10010000
,
01100000
00000000
00000000
00000000
;

//--------------- dance-double - forcednature ----------------
#NOTES:
     dance-double:
     forcednature:
     Hard:
     13:
     0,0,0,0,0:
00000000
00000000
00000000
00000000
,
00000000
00000000
00000000
00000000
,
00000000
00000000
00000000
00000000
,
00000000
00000000
00000000
00000000
,
00000000
00000000
00000000
00000000
,
00000000
00000000
00000000
00000000
,
00000000
00000000
00000000
00000000
,
00000000
00000000
00000000
00010000
00000000
00000000
00001000
00000000
00000000
00000000
00000000
00000000
00011000
00000000
00000000
00000000
00001100
00000000
00000000
00000000
01010000
00000000
00000000
00000000
,
00011000
00000000
00000000
00000000
,
00000000
00000000
00000000
00000000
00000200
00000000
00000000
00000300
,
00001001
00000000
00000000
00000000
,
00020000
00000000
00000000
00000000
00000000
00000000
00000000
00000000
00000000
00000000
00000000
00000000
00000000
00000000
00000000
00000000
00000000
00000000
00000000
00000000
00000000
00000000
00000000
00000000
00000000
00000000
00000000
00000000
00000000
00000000
00000000
00000000
00000000
00000000
00000000
00000000
00000000
00000000
00000000
00000000
00000000
00000000
00000000
00000000
00000000
00000000
00000000
00000000
00000000
00000000
00000000
00000000
00000000
00000000
00000000
00000000
00000000
00000000
00000000
00000000
00000000
00000000
00000000
00000000
00000000
00000000
00000000
00000000
00000000
00000000
00000000
00000000
00100000
00000000
00000000
00000000
00000000
00030000
00000000
00000000
00000000
00000000
00000000
00000000
00000000
00000000
00000000
00000000
00000000
00000000
00000000
00000000
00000000
00000000
00000000
00000000
00010000
00000000
00000000
00000000
00000000
00000000
00000000
00000000
00000000
00000000
00000000
00000000
00000000
00000000
00000000
00000000
00000000
00000000
00000000
00000000
00000000
00000000
00000000
00000000
00000000
00000000
00000000
00000000
00000000
00000000
00000000
00000000
00000000
00000000
00000000
00000000
00000000
00000000
00000000
00000000
00000000
00000000
00000000
00000000
00000000
00000000
00000000
00000000
10100000
00000000
00000000
00000000
00000000
00000000
00000000
00000000
00000000
00000000
00000000
00000000
00000000
00000000
00000000
00000000
00000000
00000000
00000000
00000000
00000000
00000000
00000000
00000000
00000000
00000000
00000000
00000000
00000000
00000000
00000000
00000000
00000000
00000000
00000000
00000000
00000000
00000000
00000000
00000000
00000000
00000000
00000000
00000000
00000000
00000000
00000000
00000000
,
01010000
00000000
00010000
00100000
00000000
00100000
00001000
00000000
00001000
00010000
00000000
00000100
,
00010100
00000000
00010000
00000010
00000000
00000010
00000100
00000000
00000100
00000001
00000000
00000001
,
00000010
00000100
00001000
00000100
00010000
00001000
00100000
00010000
01000000
00100000
10000000
01000000
,
00100000
00010000
01000000
00001000
00010000
00000100
00001000
00000000
00000000
00011000
00000000
00000000
,
01100000
00000000
00000000
00011000
00000000
00000000
00000010
00000000
00000000
00001001
00000000
00000001
,
00000100
00000000
00000010
00001000
00000000
00000000
00000100
00000000
00000000
00011000
00000000
00001000
,
00100000
00000000
00000000
01100000
00000000
00000000
10000000
00000000
00000000
01010000
00000000
10000000
,
00010000
10000000
00010000
01000000
00000000
00001000
00010000
00000000
00000000
00000000
00000000
00000000
,
00001100
00000000
00000000
00000101
00000000
00000000
00000010
00000000
00000000
00001001
00000000
00000001
,
00000100
00000000
00000010
00001000
00000000
00000000
00000100
00000000
00000000
00011000
00000000
00100000
,
00010000
00000000
00000000
01100000
00000000
00000000
10000000
00000000
00000000
01100000
00000000
00010000
,
00100000
01000000
00100000
00001000
00000000
00010000
00000100
00001000
00000100
00001000
00000100
00001000
,
00000100
00000000
00000000
00001001
00000000
00000000
00000010
00000000
00000000
00001100
00000000
00000001
,
00001000
00000000
00000100
00010000
00000000
00000000
00001000
00000000
00000000
01100000
00000000
10000000
,
00010000
00000000
00000000
01100000
00000000
00000000
00010000
00000000
00000000
00011000
00000000
00010000
,
00001000
00000100
00000001
00001000
00000000
00000100
00010000
00000000
00000000
00000000
00000000
00000000
,
00001000
00100000
01000000
10000000
01000000
00100000
00001000
00000000
00000000
00011000
00000000
00010000
,
00000100
00000000
00001000
00000001
00000000
00000000
00000100
00000000
00000000
00001001
00000000
00000001
,
00000010
00000000
00000000
00001100
00000000
00000000
00010000
00000000
00000000
01100000
00000000
10000000
,
00100000
01000000
00010000
00100000
00000000
01000000
10000000
00000000
00000000
00000000
00000000
00000000
,
10010000
00000000
10000000
01000000
00010000
00001000
00000200
00000000
00000000
00000000
00000000
00000000
,
00000300
00000000
00000000
00000001
00000010
00000100
00001000
00000000
00001100
00000000
00011000
00000000
,
00110000
00000000
00010000
00100000
01000000
10000000
00200000
00000000
00000000
00000000
00000000
00000000
,
00320000
00000000
00000000
00031000
00000000
00000100
00000001
00000000
00000000
00001000
00000000
00000100
,
00010000
00000000
00001000
00100000
00010000
01000000
00200000
00000000
00000000
00000000
00000000
00000000
,
00300000
00000000
00000000
01000000
00010000
00100000
00001000
00000000
00011000
00000000
00001100
00000000
,
00000101
00000000
00000000
00000000
00000001
00000000
00000010
00000000
00000001
00000000
00000100
00000000
00002000
00000000
00000000
00000000
00000000
00000000
00000000
00000000
00000000
00003100
00000000
00000000
,
00001001
00000000
00000000
00010000
00000000
00010000
00001000
00000000
00000000
10000000
00000000
10000000
,
00100000
00000000
01000000
00010000
00100000
00001000
00010000
00000000
00011000
00000000
00001100
00000000
,
00001001
00000000
00000000
00000000
00000101
00000000
00000000
00000000
00001001
00000000
00000000
00000000
00002020
00000000
00000000
00000000
00000000
00000000
00000000
00000000
00000000
00003030
00000000
00000000
,
00000001
00000000
00000100
00001000
00010000
00100000
00020000
00000000
00100000
00000000
00100000
00000000
,
00032000
00000000
00000000
00013000
00000000
00010000
00001000
00100000
00010000
10000000
00000000
01000000
,
00100000
00000000
01000000
10000000
00010000
00100000
01000000
00000000
11000000
00000000
00110000
00000000
,
00011000
00000000
00000000
00000000
00001100
00000000
00000000
00000000
00000011
00000000
00000000
00000000
00002002
00000000
00000000
00000000
00000000
00000000
00000000
00000000
00000000
00003003
00000000
00000000
,
00000001
00000000
00001000
00000100
00000010
00000100
00001000
00000001
00001000
00000001
00001000
00000001
,
00000100
00000001
00000000
00001100
00000000
00010000
00001000
00100000
00000000
01100000
00000000
01000000
,
20000000
00000000
00000000
00000000
00000000
00000000
00000000
30000000
,
00200000
00000000
00000000
00000000
00000000
00000000
00000000
00300000
,
00020000
00000000
00000000
00000000
,
00000000
00000000
00000000
00000000
00000000
00000000
00000000
00030000
,
00002000
00000000
00000000
00000000
00000000
00000000
00000000
00003000
,
00000200
00000000
00000000
00000000
00000000
00000000
00000000
00000300
,
00000002
00000000
00000000
00000000
00000000
00000000
00000000
00000003
,
00001000
00000000
00000000
00000001
00000000
00000000
00001100
00000000
00000000
00000000
00000000
00000000
00101000
00000000
00000000
00000000
00010100
00000000
00000000
00000000
00101000
00000000
00000000
00000000
,
00020100
00000000
00000000
00000000
00000000
00000000
00000000
00030000
,
00002000
00000000
00000000
00003000
00200000
00000000
00000000
00300000
,
10020000
00000000
00000000
00000000
00000000
00000000
00000000
00030000
,
02000000
00000000
00000000
00000000
00000000
00000000
00000000
00000000
00000000
03010000
00000000
00000000
01010000
00000000
00000000
00000000
00000000
00000000
00001000
00000000
00000000
00000000
00001000
00000000
,
00010000
00000100
00011000
00100000
,
00011000
00000010
00011000
01000000
,
00001000
00010000
00001000
00010000
00001000
00010000
00001000
00010000
00001000
00010000
00001000
00010000
,
00001000
00000000
00000000
00100000
00000000
00000000
00010000
01000000
00010000
01000000
00000000
00000000
,
00110000
00000000
00000000
00001100
00000000
00000000
00000010
00000000
00000000
00001001
00000000
00000001
,
00001000
00000000
00000001
00000100
00000000
00000000
00000010
00000000
00000000
00011000
00000000
00100000
,
01000000
00000000
00000000
10010000
00000000
00000000
00100000
00000000
00000000
10010000
00000000
10000000
,
01000000
00100000
00001000
00010000
00000000
00000100
00001000
00000000
00000010
00010000
00000000
00001000
,
01000000
00000000
00000000
00110000
00000000
00000000
10000000
00000000
00000000
01100000
00000000
00010000
,
10000000
00000000
01000000
00100000
00000000
00000000
00010000
00000000
00000000
01010000
00000000
00001000
,
00010000
00000000
00000000
00001100
00000000
00000000
00000001
00000000
00000000
00000110
00000000
00000001
,
00000100
00001000
00010000
00100000
00000000
10000000
00020000
00030000
02000000
00020000
00000000
03030000
,
00010000
00000000
00000000
00011000
00000000
00000000
00000100
00000000
00000000
00001001
00000000
00000001
,
00000010
00000000
00000001
00000100
00000000
00000000
00000010
00000000
00000000
00010100
00000000
00001000
,
00000001
00000000
00000000
00000110
00000000
00000000
00001000
00000000
00000000
00011000
00000000
00001000
,
00010000
00100000
10000000
01000000
00000000
00100000
00010000
00000000
01000000
00001000
00000000
00010000
,
00000100
00000000
00000000
00000110
00000000
00000000
00000001
00000000
00000000
00010010
00000000
00010000
,
00001000
00000000
00100000
00010000
00000000
00000000
01000000
00000000
00000000
10010000
00000000
00010000
,
01000000
00000000
00000000
00011000
00000000
00000000
00000100
00000000
00000000
00001010
00000000
00000001
,
00000010
00000001
00000100
00000010
00000000
00001000
00000100
00000000
00000000
00000000
00000000
00000000
,
00010000
00001000
00010000
01000000
10000000
00100000
00010000
00000000
01010000
00000000
10100000
00000000
,
10000000
01000000
00010000
00001000
00000010
00000001
00000100
00001000
00010000
00100000
10000000
01000000
,
00010000
00001000
00000010
00000001
00000100
00001000
00010000
00000000
01010000
00000000
00001010
00000000
,
00010000
00000000
00001000
00010000
00100000
02000000
10000000
00000000
03000000
01000000
00010000
00100000
,
00001000
00010000
00000100
00000010
00001000
00010000
00100000
00000000
10010000
00000000
01100000
00000000
,
10000000
01000000
00010000
00001000
00000100
00000001
00000010
00001000
00010000
00100000
10000000
01000000
,
00100000
00010000
01000000
00100000
10000000
01000000
00010000
00000000
00011000
00000000
00010100
00000000
,
00000001
00000100
00001000
00010000
00100000
10000000
01000000
00010000
00001000
00000010
00000001
00000100
,
00000210
00000000
00000000
00000000
00000000
00000000
00000000
00000000
00000000
00000300
00001000
00000000
00000010
00000000
00000100
00000000
00000001
00000000
00001000
00000000
00000001
00000000
00000010
00000000
,
00002000
00000000
00000000
00000000
,
00003000
00000000
00000000
00000000
;

//--------------- dance-double - forcednature ----------------
#NOTES:
     dance-double:
     forcednature:
     Challenge:
     17:
     0,0,0,0,0:
00000000
00000000
00000000
00000000
,
00000000
00000000
00000000
00000000
,
00000000
00000000
00000000
00000000
,
00000000
00000000
00000000
00000000
,
00000000
00000000
00000000
00000000
,
00000000
00000000
00000000
00000000
,
00000000
00000000
00000000
00000000
,
00000000
00000000
00000000
00001000
00010000
00001000
00010000
00000000
00000000
00000100
00001000
00000100
00001000
00000000
00000000
00000000
00010100
00000000
00000000
00000000
00101000
00000000
00000000
00000000
,
00011000
00000000
00001000
01000000
00000000
00100000
10000000
00000000
01000000
00100000
00000000
00010000
,
01000000
00000000
00001000
00100000
00000000
00010000
20000000
00000000
00000000
01000000
30000000
00000000
,
10010000
00000000
10000000
01000000
00000000
00100000
00001000
00000000
00010000
00000010
00000000
00000100
,
00000002
00000000
00000000
00000000
00000000
00000000
00000010
00000000
00000003
00000001
00000100
00000001
00000100
00000000
00000010
00000000
00001000
00000000
00001010
00000000
00000000
00000000
00000000
00000000
,
01010000
00000000
00001000
00010000
00000000
01000000
10000000
00000000
00100000
00010000
00000000
00001000
,
00011000
00000000
00010000
00000100
00000000
00001000
00000001
00000000
00000010
00000100
00000000
00010000
,
00001000
00100000
00010000
01000000
00100000
10000000
00010000
00100000
00001000
00010000
00000100
00001000
,
00000010
00000100
00000001
00001000
00000100
00010000
00002000
00000000
00003000
00021000
00000000
00030000
,
00010010
00000000
00000000
01001000
00000000
00000000
00001000
00010000
00000100
00001000
00000000
00000100
,
00010000
00000000
00001000
01000000
00100000
10000000
01000000
00000000
00000000
00110000
00000000
10000000
,
00010000
00000000
00000000
01100000
00000000
00000000
00010000
00100000
00001000
00010000
00000000
00000100
,
00001000
00000010
00000100
00000001
00000000
00001000
00000200
00000000
00000000
00000000
00000000
00000300
,
00000110
00000000
00000000
00001001
00000000
00000000
00001000
00000100
00010000
00001000
00000000
00100000
,
00010000
00000000
01000000
00100000
00000000
10000000
00010000
00000000
10000000
01000000
00000000
00100000
,
00010000
00000000
00000000
00011000
00000000
00000000
00000010
00010000
00001000
01000000
00000000
00010000
,
00100000
01000000
10000000
00010000
00000000
00100000
00001000
00010000
00001000
00010000
00001000
00010000
,
00001000
00000000
00000000
00000110
00000000
00000000
00000001
00000100
00000010
00001000
00000000
00000100
,
00010000
00000000
00001000
00100000
00000000
00010000
01000000
00000000
00000000
01100000
00000000
10000000
,
00010000
00000000
00000000
00011000
00000000
00000000
00010000
00000100
00001000
00000001
00000000
00000010
,
00000001
00001000
00000100
00010000
00000000
00001000
00200000
00000000
00000000
00000000
00000000
00300000
,
01000000
00000000
10000000
01000000
10000000
00000000
01000000
00000000
00100000
00000000
00010000
00000000
01000000
00000000
00001000
00000000
00010000
00000000
00000010
00000000
00000000
00000000
00000100
00000000
,
00000001
00000000
00000010
00000100
00000000
00001000
00000001
00000000
00001000
00000100
00000000
00010000
,
00001000
00000000
00000000
00110000
00000000
00000000
10000000
01000000
00100000
00010000
00000000
01000000
,
00001000
00010000
00000010
00000100
00000000
00000001
00002000
00000000
00000000
00000000
00000000
00003000
,
00001100
00000000
00010000
00001000
00100000
01000000
20000000
00000000
00000000
00000000
00000000
00000000
,
30000000
00000000
00000000
00100000
01000000
00010000
00100000
00000000
00110000
00000000
00011000
00000000
,
00001100
00000000
00001000
00000010
00000100
00000001
00002000
00000000
00000000
00000000
00000000
00000000
,
00003200
00000000
00000000
00010300
00000000
00001000
01000000
00000000
00000000
00010000
00000000
10000000
,
00100000
00000000
01000000
00001000
00010000
00000100
00002000
00000000
00000000
00000000
00000000
00000000
,
00003000
00000000
00000000
00000100
00001000
00000001
00000010
00000000
00000110
00000000
00010100
00000000
,
01001000
00000000
00000000
00000000
10000000
00000000
01000000
00000000
00100000
00000000
00010000
00000000
02000000
00000000
00000000
00000000
00000000
00000000
00000000
00000000
00000000
03010000
01000000
00010000
,
01000000
00000000
00000000
00011000
00000000
00000100
00000010
00000000
00000000
00011000
00000000
01000000
,
00100000
00000000
10000000
01000000
00100000
00010000
01000000
00000000
01001000
00000000
00010010
00000000
,
00010100
00000000
00000000
00000000
00101000
00000000
00000000
00000000
00011000
00000000
00000000
00000000
00020100
00000000
00000000
00000000
00000000
00000000
00000000
00000000
00000000
00030000
00000000
00000000
,
00011000
00000000
00010000
00000100
00001000
00000010
00000200
00000000
00001000
00000000
00000001
00000000
,
00000320
00000000
00000000
00000000
00000000
00000000
00001030
00000000
00000000
00000000
00000100
00000000
00010000
00000000
00001000
00100000
00001000
00100000
00001000
00000000
00000000
00000000
01000000
00000000
,
00010000
00000000
10000000
01000000
00100000
00010000
01000000
00000000
01010000
00000000
00011000
00000000
,
00001010
00000000
00011000
00000000
01010000
00000000
10020000
00000000
00000000
00000000
00000000
00030000
,
10000000
00000000
00010000
00100000
00001000
00010000
00000100
00001000
00000100
00001000
00000100
00001000
,
00000100
00000010
00000000
00001001
00000000
00000001
00000100
00000010
00000000
00011000
00000000
00001000
,
02000000
00000000
00000000
00000000
,
00200000
03000000
00000000
00000000
00000000
00000000
00000000
00000000
,
00020000
00300000
00000000
00000000
00000000
00000000
00000000
00000000
,
00000000
00000000
00000000
00000000
,
00002000
00030000
00000000
00000000
00000000
00000000
00000000
00000000
,
00000020
00003000
00000000
00000000
00000000
00000000
00000000
00000000
,
00000002
00000030
00000000
00000000
00000000
00000000
00000000
00000000
,
00000103
00000000
00000000
00000001
00001000
00000001
00001000
00000000
00000000
00000100
00010000
00000100
00010000
00000000
00000000
00000000
00011000
00000000
00000000
00000000
01010000
00000000
00000000
00000000
,
10100000
00000000
00000000
10000000
01000000
00100000
00010000
01000000
00001000
00010000
00000100
00001000
,
00000001
00000010
00000100
00001000
00000010
00000100
00000001
00001000
00000100
00010000
00001000
00100000
,
00010000
10000000
01000000
00100000
00010000
10000000
00100000
10000000
00010000
00100000
00001000
00010000
,
00000100
00000000
00001000
00000000
00000001
00000000
00000100
00000000
00000010
00001000
00000010
00001000
00000010
00000000
00000100
00000000
00000001
00000000
00001000
00000000
00000010
00000000
00010000
00000000
,
00001000
01000000
00010000
10000000
01000000
00100000
00010000
01000000
00100000
10000000
00010000
00100000
,
00001000
00010000
00000010
00001000
00000100
00000010
00000001
00000100
00000010
00001000
00000100
00010000
,
00001000
00100000
00010000
10000000
00100000
01000000
00010000
00100000
00001000
00010000
00000010
00000100
,
00000002
00000000
00000000
00000000
00000000
00000000
00000000
00000000
00000000
00000003
00000000
00000000
00001000
00000000
00000001
00000000
00000100
00000000
00000001
00000000
00000000
00000000
00000000
00000000
,
00011000
00000000
00000000
00001000
01000000
00010000
00100000
10000000
00100000
01000000
10000000
00010000
,
00100000
00001000
00010000
00000100
00001000
00000010
00000001
00000010
00001000
00000100
00001000
00000001
,
00000010
00000000
00000000
00000100
00010000
00001000
01000000
00010000
01000000
00100000
10000000
00100000
,
01000000
00001000
00010000
00000010
00001000
00000001
00001000
00000100
00000001
00000100
00000010
00000001
,
00001000
00000000
00000000
00000010
00000100
00000001
00001000
00000100
00010000
00001000
00100000
00010000
,
01000000
00100000
00010000
00100000
10000000
01000000
10000000
01000000
00100000
00001000
00010000
00000100
,
00001000
00000000
00000000
00000001
00000100
00001000
00000100
00000010
00001000
00000001
00001000
00000100
,
00000001
00000000
00000100
00000000
00001000
00000000
00000010
00000000
00000100
00000000
00010000
00000000
00001000
00000000
00100000
00000000
01000000
00000000
00010000
10000000
00010000
10000000
00010000
10000000
,
00010000
00000000
00000000
00100000
00010000
01000000
00001000
00010000
00000100
00001000
00000001
00000100
,
00001000
00010000
00100000
10000000
01000000
00100000
00001000
00010000
00000100
00010000
00001000
00100000
,
00010000
00000000
00000000
01000000
00100000
10000000
00100000
00010000
00001000
00010000
01000000
10000000
,
00100000
10000000
01000000
00100000
00001000
00010000
00000100
00000010
00000001
00000100
00000010
00001000
,
00000001
00000000
00000000
00000100
00000001
00001000
00000100
00010000
00001000
00100000
00010000
00100000
,
10000000
00100000
01000000
00010000
00001000
01000000
00010000
00100000
00001000
00010000
00000100
00001000
,
00000001
00000000
00000000
00000100
00000001
00000100
00001000
00010000
00100000
10000000
01000000
10000000
,
00010000
01000000
00010000
00100000
00001000
00000010
00000100
00001000
00000001
00000100
00000000
00000000
,
00000001
00001000
00000001
00001000
00000001
00001000
00000001
00000000
00000010
00000000
00000100
00000000
00001000
00000000
00000000
00000000
00011000
00000000
00000000
00000000
01010000
00000000
00000000
00000000
,
10000000
00100000
10000000
00000000
00010000
00000000
01000000
00000000
00000000
00000000
00001000
00000000
00010000
00000000
00000100
00000000
00001000
00000000
00000100
00000000
00010000
00000000
00001000
00000000
,
00100000
00001000
00010000
00000010
00000100
00000001
00001000
00000000
00010010
00000000
01001000
00000000
,
00002000
00000000
00100000
00000000
01003000
00002000
00010000
00010000
00013000
00001000
00001000
00001000
,
00100000
00001000
00010000
00000100
00010000
00001000
00100000
00000000
00110000
00000000
00001100
00000000
,
00000001
00001000
00000001
00000000
00000100
00000000
00000010
00000000
00001000
00000000
00000100
00000000
00010000
00000000
00001000
00000000
00100000
00000000
00010000
00000000
10000000
00000000
01000000
00000000
,
00100000
00010000
01000000
00001000
00010000
00000010
00001000
00000000
00000110
00000000
00001001
00000000
,
00000001
00000000
00001000
00000010
00001000
00000000
00000100
00000000
00010000
00000010
00010000
00000000
00001000
00000000
01000000
00010000
01000000
00000000
00100000
00000000
10000000
01000000
10000000
00000000
,
20020000
00000000
00000000
00000000
00000000
00000000
00000000
00000000
30030000
00010000
01000000
00010000
01000000
00000000
00001000
00000000
00010000
00000000
00000010
00000000
00000100
00000000
00000002
00000000
,
00002000
00000003
00000000
00000000
,
00003000
00000000
00000000
00000000
;
