#TITLE:a Showcage;
#SUBTITLE:;
#ARTIST:t+pazolite vs RoughSketch;
#TITLETRANSLIT:;
#SUBTITLETRANSLIT:;
#ARTISTTRANSLIT:;
#GENRE:;
#CREDIT:;
#BANNER:a Showcage.png;
#BACKGROUND:a Showcage-bg.png;
#LYRICSPATH:;
#CDTITLE:;
#MUSIC:a Showcage.ogg;
#OFFSET:-0.036000;
#SAMPLESTART:76.855026;
#SAMPLELENGTH:15.000000;
#SELECTABLE:YES;
#DISPLAYBPM:175.000000;
#BPMS:0.000000=175.000000
,287.000000=87.500000
,287.250000=175.000000
,287.500000=350.000000
,288.000000=175.000000
;
#STOPS:352.000000=0.343000
;
#BGCHANGES:;
#KEYSOUNDS:;
#ATTACKS:;

//---------------dance-single - ----------------
#NOTES:
     dance-single:
     :
     Hard:
     14:
     0.696848,0.736619,0.200993,0.347872,0.390389,560.000000,26.000000,45.000000,0.000000,0.000000,0.000000,0.696848,0.736619,0.200993,0.347872,0.390389,560.000000,26.000000,45.000000,0.000000,0.000000,0.000000:
0000
0000
0000
0000
,
0000
0000
0000
0000
,
0000
0000
0000
0000
,
0000
0000
0000
0000
,
0001
1000
0100
0010
0001
1000
0010
0100
,
0001
0100
0010
1000
0001
0010
0100
1000
,
0001
0001
0100
0010
1000
1000
0100
0010
,
0001
0011
2002
3003
,
1000
0000
0000
0001
1000
0000
0010
0000
0100
0000
0001
0000
0010
0000
0000
0000
,
0001
0000
0000
1000
0001
0000
0100
0000
0010
0000
1000
0000
0100
0000
0000
0000
,
1000
0100
1000
0000
1000
0000
0001
0000
0010
0000
0001
0000
1000
0000
0100
0000
,
1000
0001
0200
0000
0301
0100
0020
0000
,
1030
0000
0000
1000
0001
0000
0100
0000
0001
0000
0010
0000
0100
0000
0010
0000
,
0001
0000
0000
0001
1000
0000
0100
0000
1000
0000
0010
0000
0100
0000
0000
0000
,
0001
0100
0001
0000
0001
0000
0010
0000
0001
0000
0010
0000
0100
0000
1000
0000
,
0100
1000
0020
0000
1030
0001
0200
0000
,
0301
0100
0010
0100
0001
0100
1000
0100
,
0001
1000
0010
1000
0001
0100
0010
1000
,
1000
0100
0010
0100
1000
0001
0010
0001
,
1000
0100
0002
0000
0103
0010
0002
0000
,
1003
0100
0010
0100
1000
0001
0100
0001
,
1000
0010
0100
0010
1000
0001
0100
0010
,
1000
0010
1000
0000
0001
0100
0001
0000
1000
0000
0001
0000
1000
0000
0100
0000
,
0020
0000
0000
0000
0000
0000
0230
0000
0000
0310
0000
0010
,
0001
0000
0000
1100
0000
0000
0001
0000
0010
0100
0000
0010
,
0001
0000
0001
0000
0000
1001
0000
0000
0000
1000
0000
1000
,
0100
0000
0000
0011
0000
0000
0010
0000
0001
1000
0000
0100
,
0020
0000
0000
0100
0000
0000
0031
0000
0000
0010
0000
0001
,
1000
0000
0000
0101
0000
0000
1000
0000
0010
0100
0000
0010
,
1000
0000
1000
0000
0000
1001
0000
0000
0000
0001
0000
0001
,
0100
0000
0000
1010
0000
0000
0010
0000
1000
0001
0000
0100
,
0020
0000
0000
0100
0000
0000
1030
0000
0000
0010
0000
1000
,
0002
0000
0000
1003
0000
0000
0001
0000
0010
0001
0000
0001
,
2000
0000
0000
3001
0000
0000
1000
0000
1000
0010
0000
0010
,
0200
0000
0000
0310
0000
0100
0020
0000
0000
0130
0000
0010
,
1000
0000
0000
0000
0001
0000
0000
0000
0100
0000
0000
0000
0110
0000
0000
0000
0000
0000
0100
0000
0000
0010
0000
0000
,
1000
0010
0000
1010
0000
0011
0000
1001
,
1000
0001
1000
0100
1000
0001
1000
0010
,
1000
0000
1000
0000
0001
0000
0001
0000
1000
0100
1000
0100
0010
0001
0010
0001
,
1000
0000
0000
0001
0000
0000
1000
0000
0100
1000
0000
0001
0100
0001
0100
0000
,
0002
0000
2003
0000
,
3200
0000
0000
0000
0310
0001
1000
0001
,
0200
0000
0302
0000
,
0103
0000
0000
0001
0000
0000
1000
0000
0020
0000
0000
0000
0000
0000
0000
0000
,
2030
0000
3002
0000
,
0023
0000
0000
0000
0130
1000
0010
1000
,
0002
0000
0203
0000
,
0301
0000
0000
1000
0000
0000
0100
0000
0020
0000
0000
0000
0000
0000
0000
0000
,
0031
0000
0000
0001
1000
0000
0100
0000
1000
0000
0000
1000
0001
0000
0100
0000
,
0010
0000
0000
0110
0000
0000
1010
0000
0010
0000
1000
0000
0001
0000
0100
0000
,
0001
0000
0000
0001
0010
0000
0001
0000
1000
0000
0000
1000
0010
0000
1000
0000
,
0001
0000
0000
0011
0000
0000
0010
0000
0200
0000
0000
0000
0310
0000
0000
0000
,
0001
0000
0000
0011
0000
0000
0001
0000
1000
0000
0000
1010
0000
0000
1000
0000
,
0001
0000
0000
0101
0000
0000
0001
0000
0010
0000
0001
0000
1000
0000
0100
0000
,
0010
0000
0010
0001
1000
0000
1000
0001
1000
0010
1000
0010
0100
0000
0001
0000
,
1000
0000
0000
0000
0000
0000
0000
0000
0000
0001
0000
0000
0000
0000
0000
0000
0000
0000
0001
0000
0000
0000
0000
0000
0100
0000
0000
0000
0001
0000
0000
0000
1000
0000
0000
0000
0020
0000
0000
0000
0000
0000
0000
0000
0000
0000
0000
0000
,
1030
0000
1000
0001
0000
0000
1000
0000
0001
0000
0001
0010
0000
0000
0001
0000
,
0010
0000
0010
0100
0000
0000
0100
0000
0010
0000
0001
0000
1000
0000
0100
0000
,
1000
0000
1000
0001
0000
0000
1000
0000
0001
0000
0001
0010
0000
0000
0100
0000
,
0010
0000
0001
1000
0000
0000
1000
0000
0002
0000
0000
0000
0103
0000
0000
0000
,
0001
0000
0001
1000
0000
0000
0001
0000
1000
0000
1000
0010
0000
0000
1000
0000
,
0010
0000
0010
0100
0000
0000
0010
0000
1000
0000
0001
0000
0100
0000
0010
0000
,
1000
0000
1000
0001
0000
0000
1000
0000
0001
0000
0001
0010
0000
0000
0100
0000
,
1000
0000
0000
0001
0000
0000
0100
0000
0010
0000
0000
0000
1001
0000
0000
0000
,
1000
0100
0010
0100
1000
0001
0010
0001
,
1000
0000
0010
0000
0100
0000
0001
0000
1000
0000
0001
1000
0001
0000
0100
0000
,
0001
1000
0010
1000
0001
0010
0100
0010
,
0001
0000
1000
0100
0000
0100
0010
0000
0002
0000
0000
0000
1003
0000
1000
0000
,
0001
1000
0100
1000
0001
0010
1000
0010
,
0001
0000
1000
0000
0001
0000
0100
0000
0010
0000
1000
0001
1000
0000
0100
0000
,
1000
0001
0010
0001
1000
0100
0001
0100
,
0110
1001
0220
0330
,
1000
0000
1000
0100
0000
0000
1000
0000
0100
0000
0100
0010
0000
0000
0100
0000
,
0010
0000
0010
0001
0000
0000
0001
0000
0010
0000
0100
0000
1000
0000
0100
0000
,
0010
0000
0010
0001
0000
0000
0010
0000
0100
0000
0100
1000
0000
0000
0100
0000
,
0010
0000
0000
0001
0000
0000
1000
0000
0020
0000
0000
0000
0130
0000
0000
0000
,
0001
0000
0001
0100
0000
0000
0001
0000
0100
0000
0100
0010
0000
0000
0100
0000
,
0010
0000
0010
1000
0000
0000
1000
0000
0010
0000
0100
0000
0001
0000
0100
0000
,
0010
0000
1000
0010
0000
0000
1000
0000
0001
0000
0100
0001
0000
0000
0100
0000
,
0010
0000
0000
1000
0000
0000
0001
0000
0020
0000
0000
0000
0031
0000
1000
0000
,
0002
0000
0000
0000
,
1003
0000
0000
0000
0000
0000
0000
0000
0001
0000
0000
0000
0000
0000
0000
0000
0000
0000
0010
0000
0000
0000
0000
0000
0001
0000
0000
0000
1000
0000
0000
0000
0001
0000
0000
0000
0010
0000
0000
0100
0000
0000
0010
0000
0000
0100
0000
0000
,
2000
0000
0000
0000
,
3001
0000
0010
0001
0000
0001
1000
0000
0001
0010
0001
0000
1000
0100
1000
0000
,
0020
0000
0000
0000
,
1030
0000
0010
0000
1010
0000
0000
0001
1000
0000
0001
0000
0100
0000
0001
0000
,
0202
0303
2200
3300
,
1000
0000
0100
0000
0001
0000
0100
0000
1000
0100
0010
0001
1000
0100
0010
0001
,
0000
2002
0000
0000
,
0000
0000
0000
0000
,
0000
0000
0000
3003
;

//---------------dance-single - ----------------
#NOTES:
     dance-single:
     :
     Challenge:
     16:
     0.873545,0.947081,0.889006,0.247376,0.660956,644.000000,115.000000,32.000000,0.000000,0.000000,0.000000,0.873545,0.947081,0.889006,0.247376,0.660956,644.000000,115.000000,32.000000,0.000000,0.000000,0.000000:
0000
0000
0000
0000
,
0000
0000
0000
0000
,
0000
0000
0000
0000
,
0000
0000
0000
0000
,
0001
0000
1000
0001
0100
0000
0010
0000
1000
0000
0001
0010
0001
1000
0100
0000
,
0010
0000
0001
0000
1000
0000
1000
0000
0010
1000
0001
0100
0010
0000
0100
0000
,
0001
0000
0010
0000
0001
0000
1000
0100
0010
0000
0100
0000
1000
0000
0001
0000
,
0100
0010
0100
0000
2002
0000
3003
0000
,
1000
0000
0001
0100
0001
0000
1000
0000
0001
0010
0001
0000
1000
0000
0010
0000
,
0100
0000
0010
1000
0010
0000
0100
0000
0001
0010
0001
0000
0200
0000
0000
0000
,
0301
1000
0001
0010
0100
0000
0010
0000
0001
0000
0010
0000
1000
0000
0010
0000
,
0110
0010
0012
0000
1003
0010
2010
0000
,
3001
0000
1000
0010
1000
0000
0001
0000
1000
0100
1000
0000
0001
0000
0100
0000
,
0010
0000
0100
0001
0100
0000
0010
0000
1000
0100
1000
0000
0020
0030
0000
0010
,
1000
0001
0100
0000
0001
1000
0010
0000
0100
0000
0001
0000
1000
0000
0010
0000
,
0110
0010
2010
0000
3001
0100
0102
0000
,
1003
0000
0100
1000
0100
0000
0010
0000
0100
1000
0001
0000
0010
0000
0001
0000
,
1000
0000
0001
0010
0001
0000
1000
0000
0100
0010
0100
0000
1000
0000
1000
0000
,
0001
0010
0001
1000
0001
0000
0100
0000
0001
0000
0010
0000
0100
0000
0010
0000
,
0011
0001
2001
0000
3001
0100
0210
0000
,
0301
0000
1000
0010
1000
0000
0001
0000
0010
0001
1000
0000
0100
0000
0010
0000
,
0001
0000
0100
0010
0100
0000
0001
0000
1000
0100
1000
0000
0002
0003
0000
0001
,
0100
0010
1000
0000
0010
0100
0001
0000
1000
0000
0010
0000
0001
0000
0010
0000
,
2000
0000
0000
0010
0000
0000
3002
0000
0000
0013
0000
0010
,
0001
0000
0000
1100
0000
0000
0011
0000
1000
0100
0000
1000
,
0010
0000
1010
0000
0000
1001
0000
0000
0000
0001
0000
1000
,
0010
0000
0000
0101
0000
0000
0010
0000
1000
0100
0000
0001
,
0010
0000
0000
1001
0000
0000
0100
0010
0100
0010
0000
0010
,
1000
0000
0000
0101
0000
0000
1010
0000
1000
0001
0000
0001
,
0010
0000
0011
0000
0000
0110
0000
0000
0000
1000
0000
0001
,
0010
0000
0000
1100
0000
0000
0001
0000
1000
0010
0000
0001
,
0100
0000
0000
0110
0000
0000
1001
0000
0000
0001
0000
1000
,
0010
0000
0000
0101
0000
0000
0010
0000
1000
0001
0000
0010
,
0001
0000
0000
1100
0000
0000
0010
0000
0001
1000
0000
0010
,
0100
0000
0000
0001
0000
1000
0100
0000
0000
1000
0000
0001
,
0100
0000
0000
0000
0101
0000
0000
0000
0110
0000
0000
0000
1010
0000
0000
0000
0000
0000
0001
0000
0000
1000
0000
0000
,
0001
0101
0000
0011
0000
1010
0000
1100
,
0100
1000
0010
0100
0001
0010
0001
1000
,
0001
0000
1001
0000
1100
0000
0110
0000
0010
0001
0010
0100
1000
0001
1000
0010
,
0100
0000
0100
0001
0000
0001
1000
0000
0001
0100
0010
1000
0001
0000
0001
1000
,
0200
0000
0000
0000
,
0000
0000
0000
0000
,
0310
0000
0000
0011
0000
0000
0100
0000
1000
0000
0000
1010
0000
0000
0100
0000
,
0010
0000
0000
1001
0000
0000
0010
0000
0002
0000
0000
0000
0103
0000
0000
0000
,
0001
0000
0000
1010
0000
0000
1000
0000
0010
0000
0000
0011
0000
0000
0001
0000
,
1000
0000
0000
1100
0000
0000
0100
0000
1000
0000
0001
0000
0100
0000
0010
0000
,
0100
0000
0000
1010
0000
0000
1000
0000
0100
0000
0000
0011
0000
0000
0010
0000
,
0001
0000
0000
1001
0000
0000
1000
0000
0020
0000
0000
0000
0000
0000
0000
0000
,
0130
0000
0000
0101
0000
0000
1001
0000
1000
0000
0000
1100
0000
0000
1001
0000
,
0002
0003
0000
0020
0030
0000
0020
0030
0011
0000
1001
0000
1100
0000
0110
0000
,
0010
0000
0000
1100
0000
0000
1001
0000
0010
0000
0000
0101
0000
0000
1001
0000
,
0002
0003
0000
0200
0300
0000
0020
0030
0110
0000
0000
0000
1001
0000
0000
0000
,
1010
0010
0100
0001
0011
0010
0100
1000
,
1100
0000
0001
0000
0101
0000
1000
0000
1001
0000
0000
0011
0000
0000
1010
0000
,
0010
0000
1000
0001
0010
0000
0010
0001
1000
0001
1000
0010
0100
0000
0100
0001
,
1000
0000
1000
0000
1000
0000
0001
0100
0010
2000
0000
0000
,
3001
0000
0100
0001
0000
0001
1000
0000
0010
0000
1000
0001
0000
0001
0100
0000
,
0001
0000
0010
0001
0000
0001
1000
0000
0001
0000
0010
0000
0100
0000
1000
0000
,
0001
0000
0010
0001
0000
0001
0100
0000
0010
0000
1000
0001
0000
0001
0100
0000
,
0001
0000
0000
0101
0000
0000
1000
0000
0010
0100
0010
0000
1000
0000
0001
0000
,
1000
0000
0100
1000
0000
1000
0001
0000
0010
0000
0001
1000
0000
1000
0100
0000
,
1000
0000
0010
1000
0000
1000
0001
0000
1000
0000
0010
0000
0100
0000
0010
0000
,
1000
0000
0001
0010
0000
0010
0001
0000
0100
0000
0001
1000
0000
1000
0100
0000
,
1000
0000
0000
1100
0000
0000
0100
0000
0110
0000
0000
0000
0110
0000
0000
0000
,
1000
0000
0001
0010
0001
0000
0100
0000
0001
0000
1000
0100
1000
0000
0010
0000
,
1000
0000
0001
1000
0000
1000
0100
0000
0010
0000
0010
0000
0001
0000
0001
0000
,
1000
0000
0010
1000
0010
0000
0100
0000
0001
0000
0010
0001
0010
0000
0100
0000
,
1000
0000
0000
1100
0000
0000
0110
0000
0011
0000
0000
0000
1001
0000
0000
0000
,
0001
0000
1000
0010
0100
0000
0010
0000
1000
0000
0001
0100
0010
0000
0100
0000
,
0001
0000
1000
0001
0000
0001
0010
0000
0100
0000
0100
0000
1000
0000
1000
0000
,
0001
0000
0010
0001
1000
0000
0100
0000
1000
0000
0010
1000
0001
0000
0100
0000
,
0101
0001
1001
1000
1200
0000
0310
0000
,
1100
0000
0000
1001
0000
0000
1100
0000
0110
0000
0000
0011
0000
0000
0110
0000
,
1100
0000
0000
1001
0000
0000
0101
0000
0001
0000
0100
0000
1000
0000
0100
0000
,
0101
0000
0000
1001
0000
0000
0101
0000
0110
0000
0000
1010
0000
0000
0110
0000
,
0010
0000
0000
1000
0000
0000
0001
0000
0010
0001
0010
0100
1000
0000
0001
0000
,
0011
0000
0000
1001
0000
0000
0011
0000
0110
0000
0000
1100
0000
0000
0110
0000
,
0011
0000
0000
1001
0000
0000
1010
0000
1000
0000
0010
0000
0001
0000
0010
0000
,
1010
0000
0000
1001
0000
0000
1010
0000
0110
0000
0000
0101
0000
0000
0110
0000
,
0010
1000
0001
0000
0010
0001
1000
0000
0100
0000
0100
0000
0110
0000
0000
0000
,
0012
0000
0000
1000
0000
0000
0100
0000
2003
0000
0000
0010
0000
0000
3001
0000
,
0001
0000
0000
0000
0000
0000
0000
0000
0010
0000
0000
0000
0100
0000
0000
0000
0000
0000
0000
0000
0100
0000
0000
0000
1000
0000
0000
0100
0000
0000
0000
0000
0000
0100
0000
0000
1000
0000
0000
0001
0000
0000
1000
0000
0000
0010
0000
0000
,
0200
0000
0000
0010
0000
0000
0001
0000
0320
0000
0000
0100
0000
0000
1030
0000
,
1000
0000
0001
0100
0000
0100
0010
0000
1000
0010
0100
0010
1000
0001
0100
0001
,
0020
0000
0000
0001
0000
0000
0100
0000
0230
0000
0000
1000
0000
0000
0310
0000
,
0010
0000
0001
0000
1100
0000
0000
0100
1000
0000
0010
0000
0101
0000
0001
0000
,
1001
0000
0000
1010
0000
0000
1000
0000
1001
0000
0000
0011
0000
0000
0001
0000
,
1000
0100
0010
0000
0100
1000
0001
0000
1000
0100
0010
0001
1000
0001
1000
0010
,
0000
0202
0000
0000
,
0000
0000
0000
0000
,
0000
0000
0000
0303
;

//---------------dance-single - ----------------
#NOTES:
     dance-single:
     :
     Medium:
     10:
     0.468246,0.491079,0.394255,0.301489,0.069574,334.000000,51.000000,39.000000,0.000000,0.000000,0.000000,0.468246,0.491079,0.394255,0.301489,0.069574,334.000000,51.000000,39.000000,0.000000,0.000000,0.000000:
0000
0000
0000
0000
,
0000
0000
0000
0000
,
0000
0000
0000
0000
,
0000
0000
0000
0000
,
1000
0000
1000
0000
0001
0010
0100
0000
,
0001
0000
0001
0000
1000
0010
0100
0000
,
0010
1000
0001
0010
,
0100
0100
2002
3003
,
1000
0000
0100
0010
0000
0100
1000
0000
,
0001
0000
0100
0010
0000
0100
0000
0001
,
1000
0100
0001
0100
,
1000
1100
0001
0011
,
0001
0000
0100
0010
0000
0100
0001
0000
,
1000
0000
0100
0010
0000
0100
0000
1000
,
0001
0010
1000
0010
,
0001
1010
1000
0101
,
0001
0000
0100
0000
0010
1000
0010
0000
,
1000
0000
0010
0000
0100
0001
0100
0000
,
0001
0100
1000
0100
,
0001
1001
1000
0110
,
1000
0000
0100
0000
0010
0100
0010
0000
,
0001
0000
0100
0000
0010
0100
0010
0000
,
1000
0100
0010
0001
,
2000
0000
0002
3003
,
0001
0001
0101
0101
,
1001
1001
1010
1010
,
1000
1000
1100
1100
,
2002
0000
0000
3003
,
1000
1000
1100
1100
,
0110
0110
0011
0011
,
1001
1001
0101
0101
,
0220
0000
0000
0330
,
1000
0001
0100
0001
,
0001
1000
0100
1000
,
1000
0001
0100
1000
,
0100
0000
0000
0000
0100
0000
0000
0000
0100
0000
0000
0000
0100
0000
0000
0000
0000
0000
0100
0000
0000
1000
0000
0000
,
0020
0000
0000
0030
,
0000
0010
0000
1000
0000
0001
0000
0100
,
0001
1000
0001
1000
0001
1000
0100
0010
,
0002
0000
1003
1000
,
0200
0000
2300
0000
,
3200
0000
0310
0010
,
0002
0000
0203
0000
,
0320
0000
0130
0000
,
2000
0000
3002
0000
,
0203
0000
0301
0001
,
0020
0000
0230
0000
,
2300
0000
3001
0001
,
1001
0000
0000
0000
,
0001
0000
0000
0100
0000
0000
0010
0000
1000
0000
0010
0000
1000
0000
0001
0000
,
1000
0000
0000
0000
,
1000
0000
0000
0001
0000
0000
0010
0000
0200
0000
0000
0000
0000
0000
0000
0000
,
1300
0000
0101
0000
,
0011
0011
1100
1100
,
1000
0100
0010
0000
0001
0010
0100
0000
,
0110
0110
2002
3003
,
1000
0100
0010
0100
,
1000
0001
1000
0000
0010
0100
0010
0000
,
1000
0010
0100
0010
,
1000
0001
1000
0000
2002
0000
3003
0000
,
0001
1000
0100
1000
,
0001
1000
0001
0000
0010
0100
0010
0000
,
0001
0100
0010
0100
,
1001
0110
2002
3003
,
1000
0001
0100
0010
,
1000
0001
0100
0000
0001
1000
0010
0000
,
1000
0001
0010
0100
,
1100
0110
0022
0033
,
0001
1000
0100
0010
,
0001
1000
0100
0000
1000
0001
0010
0000
,
0001
1000
0010
0100
,
0010
0100
0010
0000
0220
0000
0330
0000
,
0001
0000
0000
0100
0000
0000
0100
0000
0010
0000
0000
0100
0000
0000
0100
0000
,
0001
0000
0000
0100
0000
0000
0100
0000
0010
0000
0000
0000
0010
0000
0000
0000
,
1000
0000
0000
0100
0000
0000
0100
0000
0010
0000
0000
0100
0000
0000
0100
0000
,
1000
0000
0000
0001
0000
0000
1000
0000
0020
0000
0000
0000
0030
0000
0000
0000
,
0100
0000
0000
0001
0000
0000
0001
0000
0100
0000
0000
0010
0000
0000
0010
0000
,
0100
0000
0000
0001
0000
0000
1000
0000
0100
0000
0000
0000
0100
0000
0000
0000
,
0010
0000
0000
0001
0000
0000
0001
0000
1000
0000
0000
0100
0000
0000
0100
0000
,
0010
0000
0000
0001
0000
0000
1000
0000
0020
0000
0000
0000
0000
0000
0000
0000
,
0130
0000
0000
0000
,
1000
0000
1000
0001
0000
0001
0020
0000
0000
0000
0000
0000
,
0130
0000
0000
0000
,
0100
1000
0001
0000
0010
0001
2000
0000
,
3100
0000
0000
0000
,
0101
0101
1010
1010
,
0110
0000
0110
0000
,
0010
1000
0001
0000
0001
1000
0100
0010
,
0000
2002
0000
0000
,
0000
0000
0000
0000
,
0000
0000
0000
3003
;

//---------------dance-single - ----------------
#NOTES:
     dance-single:
     :
     Easy:
     7:
     0.312532,0.280617,0.092766,0.177801,0.000000,248.000000,12.000000,23.000000,0.000000,0.000000,0.000000,0.312532,0.280617,0.092766,0.177801,0.000000,248.000000,12.000000,23.000000,0.000000,0.000000,0.000000:
0000
0000
0000
0000
,
0000
0000
0000
0000
,
0000
0000
0000
0000
,
0000
0000
0000
0000
,
1000
1000
0100
0100
,
1000
0001
0100
0010
,
0100
0001
1000
0100
,
0010
0010
0110
0000
,
0001
0000
0001
0000
,
0100
0000
0100
0000
,
0001
0001
0100
0100
,
0010
1000
0020
0030
,
1000
0000
1000
0000
,
0100
0000
0100
0000
,
1000
1000
0100
0100
,
0010
0100
1000
1000
,
0001
0000
0001
0000
,
0010
0000
0010
0000
,
0001
0001
0010
0010
,
0001
0010
0200
0300
,
1000
0000
1000
0000
,
0010
0000
0010
0000
,
1000
0010
0100
0001
,
0020
0030
0020
0030
,
0001
1000
0001
1000
,
0100
1000
0100
1000
,
0001
0010
0001
0010
,
0100
0010
0100
0100
,
1000
0001
1000
0001
,
1000
0010
1000
0010
,
0100
0001
0100
0001
,
0100
0010
0200
0300
,
0110
0000
0000
0000
,
1001
0000
0000
0000
,
0110
0000
0110
0000
,
0001
1000
0001
0000
,
2002
0000
0000
3003
,
0001
1000
0001
1000
,
0001
0100
0010
2000
,
0002
0000
0000
3003
,
0002
0000
0000
0000
,
0023
0000
0000
0000
,
0230
0000
0000
0000
,
1300
0000
1000
0000
,
2000
0000
0000
0000
,
3020
0000
0000
0000
,
0230
0000
0000
0000
,
0301
0000
0001
0000
,
1000
0000
0001
0000
,
0010
0010
0020
0030
,
0001
0000
1000
0000
,
0010
0010
0020
0030
,
1000
0000
0001
0000
,
0100
0000
0010
0000
,
1000
0000
0001
0000
,
0010
0010
0020
0030
,
0001
0010
0001
0010
,
0100
1000
0100
1000
,
0001
0010
0001
0010
,
0100
0100
0100
0000
,
1000
0010
1000
0010
,
0100
0001
0100
0001
,
1000
0010
1000
0010
,
0100
0100
0010
0000
,
1000
0001
0010
0001
,
1000
0001
0100
0001
,
1000
0001
0010
0001
,
1000
1000
1000
0000
,
0001
0100
0001
1000
,
0001
0010
0001
1000
,
0001
0100
0001
1000
,
0001
0001
0002
0003
,
1000
0010
0100
0001
,
0100
0010
1000
1000
,
0001
0010
0100
1000
,
0100
0010
0002
0003
,
0001
1000
0100
0010
,
0100
1000
0001
0001
,
1000
0001
0100
0010
,
0100
0001
2000
3000
,
1001
0000
0000
0000
,
1000
0100
0010
0100
,
0110
0000
0000
0000
,
0100
1000
0001
0100
,
1001
0000
0000
0000
,
0001
0001
1000
1000
,
0110
0000
0110
0000
,
0100
1000
0001
0010
,
0000
2002
0000
0000
,
0000
0000
0000
0000
,
0000
0000
0000
3003
;

//---------------dance-single - ----------------
#NOTES:
     dance-single:
     :
     Beginner:
     3:
     0.150192,0.170554,0.077305,0.007730,0.000000,125.000000,10.000000,1.000000,0.000000,0.000000,0.000000,0.150192,0.170554,0.077305,0.007730,0.000000,125.000000,10.000000,1.000000,0.000000,0.000000,0.000000:
// measure 0
0000
0000
0000
0000
,  // measure 1
0000
0000
0000
0000
,  // measure 2
0000
0000
0000
0000
,  // measure 3
0000
0000
0000
0000
,  // measure 4
1000
0000
0000
0000
,  // measure 5
0001
0000
0000
0000
,  // measure 6
1000
0000
1000
0000
,  // measure 7
0001
0000
0001
0000
,  // measure 8
1000
0000
0000
0000
,  // measure 9
0100
0000
0000
0000
,  // measure 10
0001
0000
0000
0000
,  // measure 11
0010
0000
0000
0000
,  // measure 12
0001
0000
0000
0000
,  // measure 13
0100
0000
0000
0000
,  // measure 14
1000
0000
0000
0000
,  // measure 15
0010
0000
0000
0000
,  // measure 16
1000
0000
0000
0000
,  // measure 17
0001
0000
0000
0000
,  // measure 18
0010
0000
0000
0000
,  // measure 19
0100
0000
0000
0000
,  // measure 20
0001
0000
0000
0000
,  // measure 21
1000
0000
0000
0000
,  // measure 22
0010
0000
0000
0000
,  // measure 23
0100
0000
0100
0000
,  // measure 24
0001
0000
0000
0000
,  // measure 25
0001
0000
0100
0000
,  // measure 26
0010
0000
0000
0000
,  // measure 27
0010
0000
0000
0000
,  // measure 28
0100
0000
0000
0000
,  // measure 29
0010
0000
1000
0000
,  // measure 30
0001
0000
0000
0000
,  // measure 31
0001
0000
0000
0000
,  // measure 32
0010
0000
0000
0000
,  // measure 33
0010
0000
0000
0000
,  // measure 34
0010
0000
0010
0000
,  // measure 35
0010
0010
0010
0000
,  // measure 36
1001
0000
0000
0000
,  // measure 37
0000
0000
0000
0000
,  // measure 38
0001
1000
0001
1000
,  // measure 39
0001
0000
0000
0000
,  // measure 40
1000
0000
0000
0000
,  // measure 41
0100
0000
0000
0000
,  // measure 42
0010
0000
0000
0000
,  // measure 43
0001
0000
0000
0000
,  // measure 44
0001
0000
0000
0000
,  // measure 45
0100
0000
0000
0000
,  // measure 46
0010
0000
0000
0000
,  // measure 47
1000
0000
0000
0000
,  // measure 48
1001
0000
0000
0000
,  // measure 49
0000
0000
0000
0000
,  // measure 50
0110
0000
0000
0000
,  // measure 51
0000
0000
0000
0000
,  // measure 52
1001
0000
0000
0000
,  // measure 53
0110
0000
0000
0000
,  // measure 54
0001
0000
1000
0000
,  // measure 55
0010
0010
0010
0000
,  // measure 56
1000
0000
1000
0000
,  // measure 57
1000
0000
1000
0000
,  // measure 58
0001
0000
1000
0000
,  // measure 59
0010
0000
0100
0000
,  // measure 60
0001
0000
0001
0000
,  // measure 61
0001
0000
0001
0000
,  // measure 62
1000
0000
0001
0000
,  // measure 63
0100
0000
0010
0000
,  // measure 64
1000
0000
1000
0000
,  // measure 65
1000
0000
1000
0000
,  // measure 66
0010
0000
1000
0000
,  // measure 67
0001
0000
0100
0000
,  // measure 68
0001
0000
0001
0000
,  // measure 69
0001
0000
0001
0000
,  // measure 70
0010
0000
0001
0000
,  // measure 71
2000
0000
0000
3000
,  // measure 72
1000
0000
0100
0000
,  // measure 73
1000
0000
0001
0000
,  // measure 74
1000
0000
0010
0000
,  // measure 75
0100
0000
0100
0000
,  // measure 76
0001
0000
0100
0000
,  // measure 77
0001
0000
1000
0000
,  // measure 78
0001
0000
0010
0000
,  // measure 79
0100
0100
0100
0000
,  // measure 80
1001
0000
0000
0000
,  // measure 81
1000
0000
0001
0000
,  // measure 82
0110
0000
0000
0000
,  // measure 83
0001
0000
1000
0000
,  // measure 84
1001
0000
0000
0000
,  // measure 85
0010
0000
0100
0000
,  // measure 86
0110
0000
0000
0000
,  // measure 87
0010
0010
0010
0000
,  // measure 88
0000
1001
0000
0000
;
