#VERSION:0.83;
#TITLE:SPARK IN THE NIGHT;
#SUBTITLE:;
#ARTIST:L.E.D.-G;
#TITLETRANSLIT:;
#SUBTITLETRANSLIT:;
#ARTISTTRANSLIT:;
#GENRE:EUPHORIC HARDSTYLE;
#ORIGIN:;
#CREDIT:;
#BANNER:SPARK IN THE NIGHT.png;
#BACKGROUND:SPARK IN THE NIGHT-bg.png;
#PREVIEWVID:;
#JACKET:SPARK IN THE NIGHT-jacket.png;
#CDIMAGE:;
#DISCIMAGE:;
#LYRICSPATH:;
#CDTITLE:;
#MUSIC:SPARK IN THE NIGHT.ogg;
#OFFSET:-1.500000;
#SAMPLESTART:58.480000;
#SAMPLELENGTH:12.000000;
#SELECTABLE:YES;
#BPMS:0.000=160.000;
#STOPS:;
#DELAYS:;
#WARPS:;
#TIMESIGNATURES:0.000=4=4;
#TICKCOUNTS:0.000=4;
#COMBOS:0.000=1;
#SPEEDS:0.000=1.000=0.000=0;
#SCROLLS:0.000=1.000;
#FAKES:;
#LABELS:0.000=Song Start;
#BGCHANGES:;
#KEYSOUNDS:;
#ATTACKS:
;

//---------------dance-single - ----------------
#NOTEDATA:;
#CHARTNAME:;
#STEPSTYPE:dance-single;
#DESCRIPTION:;
#CHARTSTYLE:;
#DIFFICULTY:Hard;
#METER:10;
#RADARVALUES:0.389288,0.511042,0.185980,0.331530,0.198109,337.000000,314.000000,23.000000,41.000000,0.000000,0.000000,0.000000,0.000000,0.000000,0.389288,0.511042,0.185980,0.331530,0.198109,337.000000,314.000000,23.000000,41.000000,0.000000,0.000000,0.000000,0.000000,0.000000;
#CREDIT:Pandemonium X;
#NOTES:
0000
0000
0000
0000
,
0000
0000
0000
0000
,
0000
0000
0000
0000
,
0000
0000
0000
0000
,
1000
0020
0000
0030
0100
0010
1000
0001
,
0010
0200
0000
0300
0010
0001
1000
0100
,
0010
0000
0010
0000
0100
0000
0100
1000
,
0001
0100
0001
0100
0010
1000
0010
0100
,
1001
0000
0000
0000
,
0000
0000
0000
0000
,
0000
0000
0000
0000
,
0000
0000
0001
1000
,
0020
0000
1030
0100
,
0020
0000
0130
1000
,
0002
0000
1003
0001
,
0200
0300
0001
1000
,
0020
0000
1030
0100
,
0020
0030
0100
2000
,
0002
0000
0000
0000
,
3003
0000
0002
2003
,
3002
0103
0020
2030
,
3200
0310
0200
2300
,
3020
0130
0002
2003
,
3200
0310
0200
2300
,
3020
0130
0020
2030
,
3002
1003
0002
0203
,
0020
0000
0000
0000
,
0000
0000
0000
0330
,
1000
1000
0001
0001
,
1000
0001
1000
0001
,
0100
0100
0010
0010
,
0100
0010
0100
0010
,
1001
0010
0100
0010
,
1001
0000
0100
0000
0010
0000
0100
1000
,
1001
0000
0000
0001
1001
0000
0000
1000
,
1001
0110
1001
0110
,
0020
0000
0000
0000
,
0000
0000
0030
0000
,
1000
0000
0000
0001
0000
0000
0100
0000
0000
0001
0000
0000
0010
0000
0100
0000
,
1000
0000
0000
1000
0000
0000
0100
0000
0000
0010
0000
0000
0010
0000
0100
0000
,
1000
0000
0000
0001
0000
0000
0100
0000
0000
0001
0000
0000
0010
0000
0100
0000
,
1000
0000
0000
1000
0000
0000
0001
0000
0000
0001
0000
0000
0100
0000
0010
0000
,
1000
0000
0000
1000
0000
0000
1000
0000
0001
0000
0000
0001
0000
0000
0001
0000
,
0100
0000
0000
0100
0000
0000
0100
0000
0010
0000
0000
0010
0000
0000
0010
0000
,
0100
0000
0000
0100
0000
0000
0001
0000
0010
0000
0000
0010
0000
0000
0100
0000
,
1000
0000
0000
1000
0000
0000
1000
0000
0001
0000
0000
0001
0000
0000
0001
0000
,
0100
0000
0000
0001
0000
0000
0010
0000
0000
0100
0000
0000
0010
0000
0100
0000
,
1000
0000
0000
0100
0000
0000
1000
0000
0000
0010
0000
0000
0100
0000
0001
0000
,
0010
0000
0000
0001
0000
0000
0100
0000
0000
0001
0000
0000
1000
0000
0100
0000
,
0010
0000
0000
0100
0000
0000
1000
0000
0000
0010
0000
0000
0100
0000
0001
0000
,
1000
0000
0000
1000
0000
0000
0010
0000
0100
0000
0000
0100
0000
0000
0001
0000
,
0010
0000
0000
0010
0000
0000
0001
0000
1000
0000
0000
1000
0000
0000
0001
0000
,
0100
0000
0000
0100
0000
0000
0010
0000
1000
0000
0000
1000
0000
0000
0010
0000
,
0100
0000
0000
0100
0000
0000
0100
0000
0010
0000
0000
0010
0000
0000
0010
0000
,
1001
0000
0000
0000
,
0000
0000
0000
0000
,
0000
0000
0000
0000
,
0000
0000
0000
0000
,
1001
0000
0000
0000
,
1001
0000
0000
0000
0000
0000
0000
1000
,
1001
0000
0000
0001
1001
0000
0000
1000
,
1001
0110
1001
0110
,
1001
0000
0000
0000
0000
0000
0000
0000
0000
0000
1000
0001
1000
0000
0000
0000
,
0201
0000
0310
1000
0200
0000
0301
0010
,
1000
0010
0001
2000
0000
0000
3010
0000
,
0101
0000
0100
0001
0020
0000
0130
0010
,
0001
1000
0001
0200
0000
0000
0301
0000
,
0100
0000
0000
0100
0000
0000
0010
0000
1000
0000
0000
1000
0000
0000
0100
0000
,
0010
0000
0000
0010
0000
0000
0001
0000
0100
0000
0000
0100
0000
0000
0001
0000
,
1000
0000
0000
0100
0000
0000
0010
0000
0100
0000
0000
1000
0000
0000
0001
0000
,
0100
0000
0000
0010
0000
0000
1000
0000
0100
0000
0000
1000
0000
0000
0001
0000
,
0100
0000
0010
1000
0200
0000
0310
0100
,
1000
0100
0010
0001
2000
0000
3010
0000
,
1001
0000
0001
1000
0020
0000
0130
0001
,
0010
0100
1000
0020
0000
0000
0130
0000
,
0001
0000
0000
0001
0000
0000
1000
0000
0010
0000
0000
0010
0000
0000
0100
0000
,
0001
0000
0000
0001
0000
0000
0010
0000
0100
0000
0000
0100
0000
0000
0010
0000
,
0001
0000
0000
1000
0000
0000
0100
0000
1000
0000
0000
0010
0000
0000
0100
0000
,
0001
0000
0000
1000
0000
0000
0001
0000
0100
0000
0000
0010
0000
0000
1000
0000
,
1001
0000
0000
0000
;

//---------------dance-single - ----------------
#NOTEDATA:;
#CHARTNAME:;
#STEPSTYPE:dance-single;
#DESCRIPTION:;
#CHARTSTYLE:;
#DIFFICULTY:Easy;
#METER:5;
#RADARVALUES:0.257600,0.383281,0.210239,0.024258,0.000000,223.000000,197.000000,26.000000,3.000000,0.000000,0.000000,0.000000,0.000000,0.000000,0.257600,0.383281,0.210239,0.024258,0.000000,223.000000,197.000000,26.000000,3.000000,0.000000,0.000000,0.000000,0.000000,0.000000;
#CREDIT:Pandemonium X;
#NOTES:
// measure 0
0000
0000
0000
0000
,  // measure 1
0000
0000
0000
0000
,  // measure 2
0000
0000
0000
0000
,  // measure 3
0000
0000
0000
0000
,  // measure 4
1000
0100
1000
0010
,  // measure 5
0100
0001
0010
0100
,  // measure 6
1000
1000
0001
0001
,  // measure 7
0100
0010
1000
0001
,  // measure 8
1001
0000
0000
0000
,  // measure 9
0000
0000
0000
0000
,  // measure 10
0000
0000
0000
0000
,  // measure 11
0000
0000
1000
0100
,  // measure 12
0010
0000
0100
1000
,  // measure 13
0001
0000
1000
0001
,  // measure 14
0100
0000
0010
1000
,  // measure 15
0100
0000
1000
0001
,  // measure 16
0100
0000
0001
1000
,  // measure 17
0100
0000
0010
0100
,  // measure 18
2000
0000
0000
0000
,  // measure 19
3000
0000
0001
1000
,  // measure 20
0010
0000
0100
0001
,  // measure 21
0010
0000
0100
0010
,  // measure 22
0001
0000
1000
0001
,  // measure 23
0100
0000
0010
1000
,  // measure 24
0100
0000
0010
0001
,  // measure 25
0100
0000
0010
1000
,  // measure 26
0002
0000
0000
0000
,  // measure 27
0000
0000
0000
0000
,  // measure 28
1003
0000
1000
0000
,  // measure 29
1000
0000
1000
0000
,  // measure 30
0001
0000
0001
0000
,  // measure 31
0001
0000
0001
0000
,  // measure 32
1001
0000
0000
0000
,  // measure 33
0110
0000
0000
0000
,  // measure 34
1001
0000
0110
0000
,  // measure 35
1001
0110
1001
0110
,  // measure 36
0000
0000
0000
0000
,  // measure 37
0000
0000
0000
0000
,  // measure 38
1000
0100
0010
0001
,  // measure 39
1000
1000
0001
0001
,  // measure 40
0100
0010
1000
0010
,  // measure 41
0100
0100
0001
0001
,  // measure 42
1000
0100
1000
0001
,  // measure 43
1000
0010
1000
0001
,  // measure 44
0100
0001
0010
0001
,  // measure 45
0100
0000
0000
0000
,  // measure 46
1001
0001
1000
0010
,  // measure 47
0100
0100
0010
0010
,  // measure 48
1000
0010
0100
0001
,  // measure 49
0010
0010
0100
0100
,  // measure 50
0010
0001
0010
0100
,  // measure 51
0010
0001
0010
0100
,  // measure 52
0010
0000
0001
0000
,  // measure 53
1000
0000
0010
0000
,  // measure 54
0110
0000
0100
0000
,  // measure 55
0001
0000
1000
0000
,  // measure 56
0200
0000
0000
0000
,  // measure 57
0000
0000
0000
0300
,  // measure 58
1001
0000
0000
0000
,  // measure 59
0110
0000
0000
0000
,  // measure 60
1001
0000
0110
0000
,  // measure 61
1001
0110
1001
0110
,  // measure 62
0000
0000
0000
0000
,  // measure 63
1000
0100
0001
0100
,  // measure 64
1000
1000
1000
1001
,  // measure 65
0110
0001
0100
0001
,  // measure 66
1000
0100
0000
0010
,  // measure 67
0100
1000
0010
0100
,  // measure 68
0010
0001
0010
0100
,  // measure 69
0001
0100
0010
1000
,  // measure 70
0001
0000
1000
0000
,  // measure 71
1000
0001
0010
0001
,  // measure 72
0100
0010
1000
0000
,  // measure 73
0100
1000
0010
0100
,  // measure 74
0001
1000
0001
0000
,  // measure 75
1000
0000
0001
0000
,  // measure 76
0100
0000
0010
0000
,  // measure 77
0110
0000
1001
0000
,  // measure 78
0110
0000
1001
0000
,  // measure 79
0110
0000
0000
0000
;

//---------------dance-single - ----------------
#NOTEDATA:;
#CHARTNAME:;
#STEPSTYPE:dance-single;
#DESCRIPTION:;
#CHARTSTYLE:;
#DIFFICULTY:Medium;
#METER:7;
#RADARVALUES:0.329220,0.511042,0.250669,0.161722,0.032344,285.000000,254.000000,31.000000,20.000000,0.000000,0.000000,0.000000,0.000000,0.000000,0.329220,0.511042,0.250669,0.161722,0.032344,285.000000,254.000000,31.000000,20.000000,0.000000,0.000000,0.000000,0.000000,0.000000;
#CREDIT:Pandemonium X;
#NOTES:
// measure 0
0000
0000
0000
0000
,  // measure 1
0000
0000
0000
0000
,  // measure 2
0000
0000
0000
0000
,  // measure 3
0000
0000
0000
0000
,  // measure 4
1000
0200
0000
0000
1300
0000
0001
0000
,  // measure 5
0100
0020
0000
0000
0130
0000
0001
0000
,  // measure 6
1000
0002
0000
0000
0013
0000
0100
0000
,  // measure 7
1000
0100
0020
0001
,  // measure 8
0130
0000
0000
0000
,  // measure 9
0000
0000
0000
0000
,  // measure 10
0000
0000
0000
0000
,  // measure 11
0000
0000
0001
1000
,  // measure 12
0002
0000
0103
0001
,  // measure 13
0200
0000
0310
1000
,  // measure 14
0020
0000
1030
0001
,  // measure 15
2000
3000
0100
1000
,  // measure 16
0020
0000
0130
0001
,  // measure 17
2000
3000
0001
0200
,  // measure 18
0020
0000
0000
0000
,  // measure 19
0330
0000
0100
0010
,  // measure 20
1000
1000
0001
0001
,  // measure 21
1000
0001
1000
0001
,  // measure 22
0100
0100
0010
0010
,  // measure 23
0100
0010
0100
0010
,  // measure 24
1000
0010
0100
0001
,  // measure 25
0010
0100
1000
0002
,  // measure 26
2000
0000
0000
0000
,  // measure 27
0000
0000
0000
3003
,  // measure 28
0001
0000
1000
0000
,  // measure 29
0010
1000
0010
0100
,  // measure 30
0001
0000
0010
0000
,  // measure 31
0100
0010
0001
1000
,  // measure 32
1001
0001
0100
0010
,  // measure 33
1001
0000
1000
0000
0100
0000
0010
0100
,  // measure 34
1100
0000
0000
1000
1100
0000
0000
0100
,  // measure 35
1100
0011
1100
0011
,  // measure 36
0000
0000
0000
0000
,  // measure 37
0000
0000
0000
0000
,  // measure 38
0001
0100
0001
1000
,  // measure 39
0100
0000
0010
0000
0100
0000
1000
0010
,  // measure 40
0100
0010
1000
0001
,  // measure 41
0010
0000
0100
0000
0010
0000
0001
0010
,  // measure 42
0100
0000
0010
0000
0001
0000
0100
1000
,  // measure 43
0100
0000
0001
0000
0010
0000
0100
0010
,  // measure 44
0001
1000
0001
0100
,  // measure 45
0102
0013
2100
3010
,  // measure 46
1001
1000
0100
1000
,  // measure 47
0010
0000
0100
0000
0001
0000
0010
0100
,  // measure 48
1000
0100
0010
0001
,  // measure 49
0100
0000
1000
0000
0100
0000
0010
1000
,  // measure 50
0002
0013
0020
0130
,  // measure 51
0200
1300
2000
3001
,  // measure 52
1001
0010
1001
0100
,  // measure 53
0001
0000
0000
0100
0000
0000
0010
0000
1000
0000
0000
0100
0000
0000
0010
0000
,  // measure 54
0100
0000
0000
0000
,  // measure 55
0000
0000
0000
0000
,  // measure 56
0000
0000
0000
0000
,  // measure 57
0000
0000
0000
0000
,  // measure 58
1001
0000
0000
0000
,  // measure 59
1001
0000
0000
0000
0000
0000
0000
0001
,  // measure 60
1001
0000
0000
1000
1001
0000
0000
0001
,  // measure 61
1001
0110
1001
0110
,  // measure 62
0000
0000
0000
0000
,  // measure 63
0001
0000
0100
0010
1000
0000
1000
0010
,  // measure 64
0100
0001
0010
0100
0000
0000
0010
0000
,  // measure 65
0001
0000
0010
0100
1000
0000
0100
0010
,  // measure 66
0001
1000
0001
0100
,  // measure 67
0101
0001
1001
1000
,  // measure 68
1100
1000
1001
0001
,  // measure 69
0101
0001
1001
1000
,  // measure 70
1100
0000
0000
0100
0000
0000
0100
0000
0010
0000
0000
0010
0000
0000
0001
0000
,  // measure 71
1001
0000
0001
1000
0010
0000
1000
0010
,  // measure 72
0100
0010
1000
0001
,  // measure 73
0110
0000
0010
0001
0100
0000
0010
0100
,  // measure 74
0001
0100
1000
0100
,  // measure 75
0001
0000
0100
0000
,  // measure 76
0001
0000
1000
0000
,  // measure 77
0001
0000
0000
0001
0000
0000
0001
0000
0100
0000
0000
0100
0000
0000
0100
0000
,  // measure 78
0010
0000
0000
0100
0000
0000
0001
0000
1000
0000
0000
0100
0000
0000
0010
0000
,  // measure 79
0011
0000
0000
0000
;

//---------------dance-single - ----------------
#NOTEDATA:;
#CHARTNAME:;
#STEPSTYPE:dance-single;
#DESCRIPTION:;
#CHARTSTYLE:;
#DIFFICULTY:Beginner;
#METER:3;
#RADARVALUES:0.112050,0.255521,0.105119,0.000000,0.000000,97.000000,84.000000,13.000000,0.000000,0.000000,0.000000,0.000000,0.000000,0.000000,0.112050,0.255521,0.105119,0.000000,0.000000,97.000000,84.000000,13.000000,0.000000,0.000000,0.000000,0.000000,0.000000,0.000000;
#CREDIT:Pandemonium X;
#NOTES:
// measure 0
0000
0000
0000
0000
,  // measure 1
0000
0000
0000
0000
,  // measure 2
0000
0000
0000
0000
,  // measure 3
0000
0000
0000
0000
,  // measure 4
1000
0000
0000
0000
,  // measure 5
0001
0000
0000
0000
,  // measure 6
0100
0000
0000
0000
,  // measure 7
0010
0000
0000
0000
,  // measure 8
1001
0000
0000
0000
,  // measure 9
0000
0000
0000
0000
,  // measure 10
0000
0000
0000
0000
,  // measure 11
0000
0000
0000
0000
,  // measure 12
1000
0000
0000
0000
,  // measure 13
0000
0000
0000
0000
,  // measure 14
0001
0000
0000
0000
,  // measure 15
0000
0000
0000
0000
,  // measure 16
0100
0000
0000
0000
,  // measure 17
0000
0000
0000
0000
,  // measure 18
0010
0000
0000
0000
,  // measure 19
0000
0000
0000
0000
,  // measure 20
1000
0000
0000
0000
,  // measure 21
0001
0000
0000
0000
,  // measure 22
0100
0000
0000
0000
,  // measure 23
0010
0000
0000
0000
,  // measure 24
1000
0000
0000
0000
,  // measure 25
0001
0000
0000
0000
,  // measure 26
0110
0000
0000
0000
,  // measure 27
0000
0000
0000
0000
,  // measure 28
1000
0000
0000
0000
,  // measure 29
0001
0000
0000
0000
,  // measure 30
1000
0000
0000
0000
,  // measure 31
0001
0000
0000
0000
,  // measure 32
0110
0000
0000
0000
,  // measure 33
0010
0000
0000
0000
,  // measure 34
1001
0000
1000
0000
,  // measure 35
0001
0001
0001
0001
,  // measure 36
0000
0000
0000
0000
,  // measure 37
0000
0000
0000
0000
,  // measure 38
0100
0000
0000
0000
,  // measure 39
0010
0000
0000
0000
,  // measure 40
1000
0000
0000
0000
,  // measure 41
0100
0000
0000
0000
,  // measure 42
1000
0000
0000
0000
,  // measure 43
0001
0000
0000
0000
,  // measure 44
0100
0000
0000
0000
,  // measure 45
1001
0000
0000
0000
,  // measure 46
0010
0000
0000
0000
,  // measure 47
1000
0000
0000
0000
,  // measure 48
0100
0000
0000
0000
,  // measure 49
1000
0000
0000
0000
,  // measure 50
0001
0000
0000
0000
,  // measure 51
0100
0000
0000
0000
,  // measure 52
0010
0000
1000
0000
,  // measure 53
0001
0000
1000
0000
,  // measure 54
0010
0000
0000
0000
,  // measure 55
0000
0000
0000
0000
,  // measure 56
0000
0000
0000
0000
,  // measure 57
0000
0000
0000
0000
,  // measure 58
1001
0000
0000
0000
,  // measure 59
0010
0000
0000
0000
,  // measure 60
1001
0000
0110
0000
,  // measure 61
1000
1000
1000
1000
,  // measure 62
0000
0000
0000
0000
,  // measure 63
1001
0000
0110
0000
,  // measure 64
1000
1000
1000
0000
,  // measure 65
0001
0000
1000
0000
,  // measure 66
0001
0000
0000
0000
,  // measure 67
0100
0000
0000
0000
,  // measure 68
0010
0000
0000
0000
,  // measure 69
1000
0000
0000
0000
,  // measure 70
0100
0000
1000
0000
,  // measure 71
1001
0000
0001
0000
,  // measure 72
0100
0100
0100
0000
,  // measure 73
1001
0000
1000
0000
,  // measure 74
0010
0010
0010
0000
,  // measure 75
1000
0000
0000
0000
,  // measure 76
0001
0000
0000
0000
,  // measure 77
0100
0000
0000
0000
,  // measure 78
0010
0000
0100
0000
,  // measure 79
1001
0000
0000
0000
;
