#TITLE:Red+White=Kawaii;
#SUBTITLE:;
#ARTIST:こすも8 bit;
#TITLETRANSLIT:;
#SUBTITLETRANSLIT:;
#ARTISTTRANSLIT:Cosmo 8bit;
#GENRE:;
#CREDIT:;
#BANNER:[Week 6] - Red+White=Kawaii-bn.png;
#BACKGROUND:[Week 6] - Red+White=Kawaii-bg.png;
#LYRICSPATH:;
#CDTITLE:;
#MUSIC:[Week 6] - Red+White=Kawaii.mp3;
#OFFSET:0.835000;
#SAMPLESTART:86.032997;
#SAMPLELENGTH:15.002000;
#SELECTABLE:YES;
#BPMS:0.000000=209.973999
;
#STOPS:
;
#BGCHANGES:;
#KEYSOUNDS:;
#ATTACKS:;

//---------------dance-single - ----------------
#NOTES:
     dance-single:
     :
     Hard:
     18:
     0.999335,1.155901,0.291116,0.282554,0.479485,817.000000,783.000000,34.000000,33.000000,0.000000,0.000000,0.999335,1.155901,0.291116,0.282554,0.479485,817.000000,783.000000,34.000000,33.000000,0.000000,0.000000:
// measure 0
0000
0000
0000
0000
,  // measure 1
0000
0000
0000
0000
,  // measure 2
0100
0000
1000
0001
0010
0000
0100
0000
0010
0000
0001
0000
0010
0000
0100
0000
,  // measure 3
1000
0010
0100
1000
0100
0001
0010
0100
,  // measure 4
0010
0000
0001
1000
0100
0000
0010
0000
0100
0000
1000
0001
0100
0000
0010
0000
,  // measure 5
1000
0000
0001
1000
0000
0001
1000
0000
0100
0000
0010
0001
0100
0000
0010
0000
,  // measure 6
0100
0000
0010
1000
0001
0000
0010
0000
0100
0000
1000
0000
0001
0000
0100
0000
,  // measure 7
0010
1000
0100
0010
0002
0010
0010
0013
,  // measure 8
0100
0000
1000
0001
0010
0000
0100
0000
0010
0000
0001
1000
0010
0000
0100
0000
,  // measure 9
0010
0000
1000
0001
0100
0000
0001
1000
0010
0100
0001
0010
0100
0000
0100
0000
,  // measure 10
0010
0001
0100
0010
1000
0001
0100
0010
,  // measure 11
0100
0001
0010
0100
1000
0100
0001
0100
,  // measure 12
1000
0000
0001
0100
0010
0000
1000
0000
0200
0000
0010
0000
1000
0000
1300
0000
,  // measure 13
0001
0000
1000
0010
0100
0000
0001
0010
0200
0000
1000
0000
1000
0000
1300
0000
,  // measure 14
0010
0000
0100
0001
0010
0000
0100
0000
1000
0000
0010
0000
0001
0000
0020
0000
,  // measure 15
0000
0000
1030
0001
0010
0000
0100
0000
0010
0000
0001
0000
0010
0000
0100
0000
,  // measure 16
1000
0100
1000
0100
1000
0000
0010
0000
0100
0001
0100
0001
0100
0000
0010
0000
,  // measure 17
1000
0001
1000
0001
1000
0000
0010
1000
0010
0000
0010
0000
0100
0000
0100
0000
,  // measure 18
0010
1000
0010
0020
0000
0130
0001
0010
,  // measure 19
0100
0010
0001
0100
0010
1000
0100
0000
,  // measure 20
0110
0000
0110
0000
0110
0000
0110
0000
0010
0100
0010
0100
0010
0100
0010
0100
,  // measure 21
0020
0031
0100
1000
0100
0001
0010
0000
,  // measure 22
0200
0000
0000
0000
1300
0000
0010
0100
,  // measure 23
0010
1000
0100
0010
0000
0001
0010
0100
,  // measure 24
1000
0000
0001
0000
0010
0000
0100
0010
0001
0000
0001
0000
0100
0000
0020
0000
,  // measure 25
0000
0000
0130
0000
0001
0000
1000
0000
0001
0010
0100
1000
0100
0000
0010
0000
,  // measure 26
0001
0100
0010
1000
0000
1000
0010
0100
,  // measure 27
0001
0000
1000
0000
0100
0000
0010
0000
0000
0000
0010
0000
0100
0000
1000
0010
,  // measure 28
0100
0000
0010
0000
1000
0000
0100
0000
0010
0001
0010
0001
0010
0000
0100
1000
,  // measure 29
0100
0000
1000
0000
1000
0000
0010
0100
0000
0000
0001
0000
0001
0000
0001
0000
,  // measure 30
0100
0000
0100
0000
0100
0000
0100
0000
0010
0000
1000
0000
1000
0000
1000
0001
,  // measure 31
0100
0100
0100
0200
0000
0301
0001
0001
,  // measure 32
1001
1000
1000
1000
1001
0001
0001
2001
,  // measure 33
0000
0000
3001
0000
0010
0000
0100
0000
1000
0010
1000
0010
1000
0000
0100
0000
,  // measure 34
0010
0001
0100
0010
0000
0110
0110
0000
,  // measure 35
0100
0000
0001
0000
0010
0000
0100
0000
0000
0000
0110
0000
0110
0000
0100
1000
,  // measure 36
0010
0000
0100
0000
0001
0000
0010
0000
0100
0000
0001
0000
0100
0000
1000
0010
,  // measure 37
0100
0000
0001
0010
0100
0000
1000
0010
0100
0001
0100
0010
0100
0000
0100
0000
,  // measure 38
1001
1001
0000
0110
0110
0000
0001
0100
,  // measure 39
0010
1000
0001
0010
0100
1000
0010
0100
0001
1000
0010
0100
0001
0000
0000
0000
,  // measure 40
1001
1001
0000
0110
0110
0000
1000
0010
,  // measure 41
1000
0000
0000
0000
0001
0000
0100
0000
0010
1000
0010
1000
0010
0000
0100
0000
,  // measure 42
1001
0000
0110
0110
0000
1001
1001
0000
,  // measure 43
0100
0000
1000
0000
0010
0000
1000
0000
0001
0010
0100
0010
0001
0000
1000
0100
,  // measure 44
0010
0100
1000
0000
0001
0100
0010
0100
0001
0000
1000
0010
0100
0010
1000
0000
,  // measure 45
0001
0010
0100
0000
1000
0000
0100
0000
1200
0000
0000
0000
0310
0000
0110
0000
,  // measure 46
0000
0001
1000
0002
0000
0000
0000
0000
,  // measure 47
0010
0000
0000
0000
1003
0000
0000
0001
2000
0000
0000
0000
0100
0000
0000
0000
,  // measure 48
0001
3010
0102
1000
,  // measure 49
0013
0000
0100
0000
1000
0000
0010
0000
1000
0000
0000
0001
0100
0000
0010
0000
,  // measure 50
1000
0001
0100
0020
0030
0010
0100
0001
,  // measure 51
0100
0000
0010
0000
1000
0000
0100
0000
0020
0000
0000
0000
0000
0000
0130
1000
,  // measure 52
0100
0010
0000
0001
0000
1000
0001
0100
,  // measure 53
0010
0001
0010
0000
1000
0001
0100
0010
,  // measure 54
1000
0001
0010
0100
1000
0010
0000
0200
,  // measure 55
0000
0301
0010
0100
0020
0000
0000
0000
,  // measure 56
0031
0000
1000
0020
0000
0000
0000
0000
,  // measure 57
1030
0100
0010
0100
1000
0001
0100
0010
,  // measure 58
1000
1000
0000
0200
0000
0000
0000
0000
,  // measure 59
0000
1300
1000
0001
0100
0010
1000
0100
,  // measure 60
0010
1000
0010
0001
0100
0000
0100
0001
,  // measure 61
0000
0000
0100
0000
0001
0000
0010
0000
0100
0000
1000
0100
1000
0000
0010
0000
,  // measure 62
0100
0001
0100
0000
0010
0000
1000
0000
0100
0000
0000
0000
0100
0000
1000
0000
,  // measure 63
0000
0000
0001
0000
0100
0000
0010
0000
0100
0001
0010
0000
0100
0000
1000
0100
,  // measure 64
0010
0000
0001
0000
0100
0001
0010
0000
0100
0000
1000
0001
0010
0000
0100
0000
,  // measure 65
1100
1000
1001
0001
0011
0000
0000
0000
,  // measure 66
0011
0000
0000
0010
0001
0010
0001
0000
0000
0000
0000
0000
,  // measure 67
1100
0000
0000
0000
0000
0000
0100
0000
1000
0000
0100
0000
1000
0000
0000
0010
0000
0000
0100
0000
0000
2000
0000
0000
,  // measure 68
0000
3100
0010
1000
0001
0010
0100
0002
,  // measure 69
0000
0103
0010
0001
1000
0010
0100
2000
,  // measure 70
0000
0000
3100
0000
0001
0000
0100
0000
0010
0000
1000
0001
0100
0000
2000
0000
,  // measure 71
0000
0000
3100
0000
0010
0000
1000
0000
0001
0000
0010
0001
0100
0000
0010
0000
,  // measure 72
0100
0000
0001
0010
0100
0000
1000
0000
0001
0000
1000
0000
0100
0000
0001
0000
,  // measure 73
0100
1000
0010
0100
0010
0010
0010
0010
,  // measure 74
0100
0000
0100
0000
0010
0000
0010
0000
1000
0001
0100
0010
1000
0100
0010
0001
,  // measure 75
0100
0001
1000
0010
1000
0000
0001
0000
0100
0000
0010
0000
0010
0000
0010
0000
,  // measure 76
0200
0000
1000
0000
0010
0000
0301
0020
,  // measure 77
0000
0000
0001
0000
0130
1000
0001
0010
,  // measure 78
0100
0000
0000
1000
0010
0000
0100
0000
0001
0000
0010
0000
0100
0000
0020
0000
,  // measure 79
0000
0031
0100
0100
0010
0010
1000
0000
,  // measure 80
2001
0000
0000
0000
0000
0000
3010
1000
0001
0000
0100
0000
0000
0000
0020
0000
,  // measure 81
0000
0130
0001
0000
0010
0000
0001
0000
,  // measure 82
1000
0010
0100
0010
1000
0100
0001
0100
,  // measure 83
0010
0000
0002
0000
0000
0000
1003
0000
0000
0000
1000
0100
1000
0100
1000
0000
,  // measure 84
0200
0000
0010
0000
0301
0000
0100
0020
,  // measure 85
0000
0000
0001
0000
0130
1000
0001
0010
,  // measure 86
0100
1000
0010
0100
0001
0010
0000
0002
,  // measure 87
0000
0000
0000
0000
0000
1003
0010
1000
,  // measure 88
0100
0000
0010
0001
0010
0000
0100
0000
1000
0001
1000
0000
0010
0000
0100
0001
,  // measure 89
0100
0100
0010
0010
1000
1000
0100
0100
,  // measure 90
1000
0000
0001
0100
0001
0000
0010
0000
0100
1000
0100
0000
0010
0000
0001
0100
,  // measure 91
0001
0000
0100
0000
0010
0000
0010
0000
1000
0000
1000
0000
0100
0000
0100
0010
,  // measure 92
0100
1000
0010
0100
1000
0100
0001
0010
,  // measure 93
0100
0000
0001
0000
0100
0010
0100
0010
0100
0000
1000
0000
0001
0000
0100
0000
,  // measure 94
0010
0100
0010
0100
0010
0000
1000
0100
1000
0100
1000
0000
0010
0100
0010
0000
,  // measure 95
1000
0001
1000
0001
1000
0000
0100
1000
0100
1000
0100
0000
1000
0001
1000
0000
,  // measure 96
0100
0010
0001
0100
1000
0100
0001
1000
,  // measure 97
0010
0100
0001
0010
1000
0010
0001
0100
,  // measure 98
0010
0000
1000
0000
0001
0000
0010
0000
0001
1000
0010
0100
0001
0010
0100
1000
,  // measure 99
0010
0100
0001
0010
0100
0001
0100
0000
,  // measure 100
1100
0000
0000
0000
;
