#TITLE:お願いマッスル;
#SUBTITLE:;
#ARTIST:紗倉ひびき (CV Fairouz Ai), 街雄鳴造 (CV Ishikawa Kaito);
#TITLETRANSLIT:Onegai Muscle;
#SUBTITLETRANSLIT:;
#ARTISTTRANSLIT:Hibiki Sakura (CV Fairouz Ai), Naruzou Machio (CV Ishikawa Kaito);
#GENRE:;
#CREDIT:;
#BANNER:Onegai Muscle.png;
#BACKGROUND:Onegai Muscle-bg.png;
#LYRICSPATH:;
#CDTITLE:;
#MUSIC:Onegai Muscle.ogg;
#OFFSET:0.460000;
#SAMPLESTART:59.573181;
#SAMPLELENGTH:14.545456;
#SELECTABLE:YES;
#BPMS:0.000000=132.000000
;
#STOPS:
;
#BGCHANGES:;
#KEYSOUNDS:;
#ATTACKS:;

//---------------dance-single - ----------------
#NOTES:
     dance-single:
     :
     Challenge:
     14:
     0.652915,0.741890,0.170856,0.000000,0.539265,428.000000,412.000000,16.000000,0.000000,0.000000,0.000000,0.652915,0.741890,0.170856,0.000000,0.539265,428.000000,412.000000,16.000000,0.000000,0.000000,0.000000:
// measure 0
0000
0000
0000
0000
,  // measure 1
0000
0000
0000
0000
,  // measure 2
0000
0000
0000
0000
,  // measure 3
0000
0000
0000
0000
,  // measure 4
0000
0000
0000
0000
,  // measure 5
0000
0000
0000
0000
1000
0100
0010
0000
0001
0000
1000
0000
0000
0000
0110
0000
,  // measure 6
0000
0001
0010
0100
1000
0000
0010
1000
,  // measure 7
0100
0000
0010
0100
1000
0001
0100
0000
0010
0000
0100
0010
1000
0001
0010
0000
,  // measure 8
0100
0000
1000
0001
0000
0100
0010
0000
0010
0000
0100
0000
0001
0000
0000
0000
,  // measure 9
0010
0000
0100
1000
0010
0000
0100
0000
0010
0000
0100
0001
0010
0000
0100
0000
,  // measure 10
0010
0000
0010
0100
0010
0001
0100
0010
0100
0000
0100
0000
0100
0000
0000
0000
,  // measure 11
0010
0000
0010
1000
0100
0000
0000
0000
0010
0000
0010
0001
0100
0000
0000
0000
,  // measure 12
0010
0100
0001
0010
0100
0000
1000
0000
0001
0010
0100
0000
1000
0000
0010
0100
,  // measure 13
0010
0000
1000
0100
0010
0000
0001
0000
0100
0000
0001
0010
0100
0000
1000
0000
,  // measure 14
0010
0000
1000
0001
0010
0100
0010
0000
0001
0010
0100
1000
0010
0000
0000
0000
,  // measure 15
1000
0100
0001
0000
0100
1000
0010
0000
1000
0100
0001
0000
0100
1000
0010
0000
,  // measure 16
1000
0000
0010
1000
0100
0010
0001
0100
0010
0100
0001
0010
0100
1000
0001
0100
,  // measure 17
0010
0010
0010
0010
,  // measure 18
0010
0000
0010
0000
0010
0110
0101
1001
,  // measure 19
1000
1000
1000
1000
,  // measure 20
1000
0000
1000
0000
1000
1001
1100
0110
,  // measure 21
0100
0100
0100
0100
,  // measure 22
0100
0000
0100
0000
0100
0110
1100
1001
,  // measure 23
0001
0000
0001
0000
1000
0000
1000
0000
0010
0100
0010
0100
0001
0000
0001
0000
,  // measure 24
1000
0000
1000
0000
0100
0000
0001
0100
1000
0000
0010
0100
0000
0010
1000
0100
,  // measure 25
0010
0010
0100
1000
0010
0010
0100
1000
,  // measure 26
0100
0000
0010
0100
0001
0000
0010
0000
0100
0000
0010
0100
1000
0000
0010
0000
,  // measure 27
0100
0010
0100
0010
0100
0001
0010
0100
,  // measure 28
1000
0000
0010
0000
0001
0000
0010
0000
1000
0000
1000
0001
0010
0100
1000
0000
,  // measure 29
0001
0001
1000
1000
0010
0100
0001
0010
,  // measure 30
0100
0000
0010
0001
1000
0000
0010
0000
0100
0000
0010
1000
0001
1000
0100
0010
,  // measure 31
0100
0000
1000
0001
1000
0000
0010
0100
0010
0000
1000
0001
1000
0100
0010
0001
,  // measure 32
1000
0000
0000
0110
,  // measure 33
1001
0000
0000
0000
0001
0010
0100
1000
0001
0000
0100
0000
0010
0000
0001
0000
,  // measure 34
1000
0001
0010
1000
0001
0010
0100
1000
,  // measure 35
0001
0000
0000
0000
1000
0100
0010
0001
1000
0000
0010
0000
0100
0000
1000
0000
,  // measure 36
0001
0000
1000
0000
0100
0000
0010
0000
1000
0000
0001
0000
0010
0000
0100
1000
,  // measure 37
0010
0000
0000
0000
1000
0010
0100
0001
1000
0000
0100
0000
0010
0000
1000
0000
,  // measure 38
0001
1000
0010
0100
1000
0001
0100
0100
,  // measure 39
1000
0000
1000
0100
0001
0010
0100
0000
0001
0000
0001
0100
1000
0010
0100
0000
,  // measure 40
0010
0000
1000
0001
0000
0010
0100
0000
0010
0000
0001
1000
0000
0010
0100
0000
,  // measure 41
0001
0000
0010
0100
0001
0000
0100
0000
1000
0000
0010
0100
1000
0000
0100
0000
,  // measure 42
0001
0000
0010
0100
1000
0100
0010
0000
0011
0000
0110
0000
1100
0000
0000
0000
,  // measure 43
0001
0000
1000
0100
0010
0000
1000
0000
0001
0000
0100
0010
0001
0010
0100
1000
,  // measure 44
0010
0000
1000
0000
0100
0000
0010
0100
0010
0001
0100
0001
0010
0000
0100
0010
,  // measure 45
0001
0000
1000
0010
0000
0001
0000
0010
1000
0000
0001
0010
0100
0000
0010
0000
,  // measure 46
0001
1000
0010
0001
0000
0001
0010
1000
0001
0100
0010
0100
0001
0000
0000
0000
,  // measure 47
1000
0100
0001
0000
0100
1000
0010
0000
1000
0100
0001
0000
0100
1000
0010
0000
,  // measure 48
0100
0000
0001
1000
0100
0010
0001
0100
0010
0000
0001
0010
1000
0100
0010
0000
,  // measure 49
1001
0000
0000
0000
1000
0100
0010
0000
0001
0000
1000
0000
0000
0000
0000
0000
;
