#TITLE:Let's Wait Awhile;
#SUBTITLE:;
#ARTIST:Janet Jackson;
#TITLETRANSLIT:;
#SUBTITLETRANSLIT:;
#ARTISTTRANSLIT:;
#CREDIT:;
#BANNER:Let's Wait Awhile.png;
#BACKGROUND:Let's Wait Awhile-bg.png;
#LYRICSPATH:;
#CDTITLE:;
#MUSIC:Let's Wait Awhile.ogg;
#OFFSET:-0.599;
#SAMPLESTART:33.679;
#SAMPLELENGTH:12.000;
#SELECTABLE:YES;
#BPMS:0.000=86.380;
#STOPS:;
#BGCHANGES:;

//---------------dance-single - ----------------
#NOTES:
     dance-single:
     :
     Hard:
     11:
     0.332,0.357,0.145,0.051,0.213:
0000
0000
0000
0000
,
0000
0000
0000
0000
,
0000
0000
0000
0000
,
0000
0000
0000
0000
0000
0000
0000
0001
,
1000
0010
1000
0010
0000
0100
0000
0001
,
0000
1000
0000
0100
0000
0000
0000
1000
,
0001
0010
0001
0010
0000
1000
0000
0010
,
0000
0100
0000
1000
0000
0010
0100
0010
,
0100
0001
0010
0001
0000
0100
0000
1000
,
0000
0100
0000
0010
1000
0001
1000
0001
,
0100
0000
0010
1000
0000
0100
0000
0000
,
0001
0000
0100
1000
0001
0000
0001
0000
,
1000
0000
0010
1000
0010
0000
0200
0000
0000
0000
0301
0000
1000
0000
0000
0000
,
0100
0000
0010
0001
0010
0000
1000
0000
0000
0000
1000
0000
0010
0000
0001
0000
,
0001
0010
0100
2000
0000
3000
1000
0010
,
2000
3100
0002
0013
,
1000
0000
1000
0100
0010
0000
0010
0000
,
0001
0000
0001
0100
0010
0000
0010
1000
,
0001
0100
0001
0100
0000
1000
0000
0100
,
0000
0010
1000
1000
0000
0100
0001
0001
,
0100
0010
0001
1000
0010
1000
0000
0100
,
0000
0001
0100
1000
0000
0001
0001
0001
,
1000
0010
1000
0010
1000
0100
0000
0010
0000
0000
0001
0000
1000
0000
0001
0000
,
0100
0000
0000
0000
0000
0000
0010
0000
1000
0000
1000
0200
0000
0000
0300
0000
,
0100
1000
0100
1000
0100
0010
0000
0001
0000
0000
1000
0000
1001
0000
0000
0000
,
1001
0000
0001
0000
0100
0000
0000
0100
0010
0000
0000
0010
0000
0000
1000
0000
,
1001
0000
0001
0000
0100
0000
0000
0001
0000
0000
1000
0000
0100
0000
0000
0000
,
1100
0100
1000
1000
0010
0100
0001
1000
,
0010
1000
0001
0100
0001
1000
0100
0000
0000
0000
0100
0000
0010
0000
0000
0000
,
0001
0000
0100
1000
0100
0001
1000
0001
,
0010
0001
1000
0100
1000
0001
0100
0000
0100
0000
0001
0000
1000
0000
0000
0000
,
0010
0000
1000
0100
0000
0001
0100
1000
,
0010
1000
0001
0010
0100
1000
0010
0000
1000
0000
0100
0000
0010
0000
0001
0000
,
0011
0001
0100
0000
1100
1000
0010
0000
,
0010
0001
0100
0110
0000
0000
1001
0000
,
0000
0000
1000
0000
2000
0000
0000
0000
3000
0000
0001
0000
0002
0000
0000
1000
,
0003
0010
1000
0100
0010
0001
0000
1000
0000
1000
0000
0001
0100
0001
1000
0000
,
0010
0000
0000
0100
0001
1000
0000
0010
0000
1000
0100
0001
0000
0100
0000
1000
,
0000
0010
0100
0001
0010
0001
0000
0100
0000
0100
0000
1000
0100
0010
0100
0000
,
0001
0000
0000
0010
0001
1000
0000
0010
0000
1000
0100
0001
0000
0100
0000
1000
,
0000
0010
0100
1000
0100
0001
0000
0010
0000
0010
0000
0001
0100
0010
1000
0000
,
1001
0001
0010
0000
0110
0100
1000
0000
,
1000
0010
0100
0101
0000
0001
1001
1000
,
1000
1100
1100
0000
0000
1001
1001
0000
,
0001
0000
0011
0001
0100
0000
0100
0000
,
1000
0000
1100
0100
0010
0000
0010
0000
,
0100
0000
0110
1000
0001
0000
1000
0000
,
1001
0000
0000
0000
;

//---------------dance-single - ----------------
#NOTES:
     dance-single:
     :
     Medium:
     8:
     0.216,0.238,0.014,0.014,0.018:
0000
0000
0000
0000
,
0000
0000
0000
0000
,
0000
0000
0000
0000
,
0000
0000
0000
0000
0000
0000
0000
0100
,
1000
0100
1000
0100
0000
1000
0000
0001
,
0000
0001
0000
0000
0000
0000
0000
0100
,
0001
0100
0001
0100
0000
0010
0000
1000
,
0000
0001
0000
0100
0000
0000
0001
0000
,
1000
0010
1000
0010
0000
0100
0000
0002
,
0000
0003
0000
0000
0001
0000
1000
0000
,
0100
0000
1000
0001
0000
0100
0000
0000
,
1000
0000
0000
0100
0000
0000
0000
0000
,
0001
0010
0100
1000
0000
1000
0001
0000
,
0100
0000
0010
1000
0000
1000
0100
1000
,
1000
0010
0100
0001
0000
0000
0000
0000
,
0010
0001
0100
0010
,
1000
0000
0000
1000
0000
0000
0000
0000
,
0100
0000
0000
0010
0000
0000
0000
0010
,
0001
0010
0001
0010
0000
1000
0000
0010
,
0000
0100
0000
1000
0000
0001
0000
0001
,
0100
0001
0100
0001
1000
0001
0000
0010
,
0000
0001
0000
0000
0000
0000
0000
0000
,
1000
0000
0010
0000
0100
0000
0000
0001
0000
0000
0001
0000
0000
0000
0000
0000
,
0001
0000
0000
0000
0000
0000
0010
0000
0100
0000
0000
0100
0000
0000
0000
0000
,
1000
0000
0010
0000
0100
0000
0000
0001
0000
0000
0002
0000
0000
0000
0003
0000
,
0000
0000
0001
0000
0001
0000
0000
0000
0100
0000
0000
0100
0000
0000
0010
0000
,
1000
0000
1000
0000
0001
0000
0000
0010
0000
0000
0001
0000
0000
0000
0000
0000
,
1000
0100
1000
0100
1000
0010
1000
0010
,
1000
0001
0100
0010
1000
0000
0100
0000
,
0001
0000
0100
1000
0000
1000
0100
0010
,
0010
0001
1000
0010
0100
0001
0100
0000
,
0001
0000
0010
0100
0000
0100
1000
0010
,
0010
1000
0001
0100
0001
1000
0001
0010
,
1000
0010
0001
0100
,
0010
0000
0000
1000
0000
0000
1001
0000
,
0000
1000
1000
0000
0000
0001
0001
0000
,
0010
0010
0001
0001
1000
1000
0100
1000
,
0000
0000
0010
1000
0001
0100
0001
0000
,
0010
0010
0001
0001
1000
1000
0100
1000
,
0000
0000
0010
1000
0001
0100
0001
0000
,
0010
0010
0001
0001
0100
0100
0010
1000
,
0001
0010
0100
1000
,
0001
0000
0000
0100
0000
0000
0010
0000
,
0000
1000
1000
0000
0000
1000
1000
0000
,
0100
0000
0000
0010
0000
0000
0000
0000
,
0001
0000
0000
1000
0000
0000
0000
0000
,
0100
0000
1000
0010
0000
1000
0000
0000
,
1001
0000
0000
0000
;

//---------------dance-single - ----------------
#NOTES:
     dance-single:
     :
     Easy:
     4:
     0.121,0.153,0.058,0.000,0.000:
0000
0000
0000
0000
,
0000
0000
0000
0000
,
0000
0000
0000
0000
,
0000
0000
0000
0000
,
1000
0000
1000
0001
,
0100
0000
0000
0000
,
0001
0000
0001
1000
,
0100
1000
0001
0000
,
1000
0000
0010
1000
,
0001
0000
0010
0000
,
0100
0000
0000
0000
,
0000
0000
0000
0000
,
1000
0000
0000
1000
0000
0000
0000
0000
,
0000
0010
0000
0100
,
0001
0000
0000
0001
0000
0000
0000
0000
,
0010
0001
1000
0010
,
0100
0000
0000
0000
,
0001
0000
0000
0000
,
1000
1000
0000
0010
,
1000
0001
0010
0001
,
1000
0000
0001
0100
,
0001
0000
0000
0010
,
1001
0000
0000
0000
,
1010
0000
0000
0000
,
0101
0000
0000
0000
,
1001
0000
0000
0000
,
1010
0000
0000
0000
,
0010
1000
0100
0001
,
0010
0000
0000
1001
0000
0000
0000
0000
,
0000
0001
0100
0010
,
1000
0000
0000
1001
0000
0000
0000
0000
,
1000
0010
0100
0001
,
1000
0000
0000
1001
0000
0000
0000
0000
,
0001
0010
1000
0100
,
0001
0000
0000
1000
0000
0000
0100
0000
,
0000
1000
1000
0000
0000
0001
0001
0000
,
0001
0100
1000
0100
,
0000
0001
1000
0001
,
1000
0010
0001
0010
,
0000
1000
0001
1000
,
0001
0010
1000
0010
,
0001
0100
0010
1000
,
0001
0000
0000
1000
0000
0000
0100
0000
,
0000
1000
1000
0000
0000
0001
0001
0000
,
0100
0000
0000
0010
0000
0000
0000
0000
,
1000
0000
0000
0100
0000
0000
0000
0000
,
0010
0000
0000
0001
0000
0000
0000
0000
,
1000
0000
0000
0000
;

//---------------dance-double - ----------------
#NOTES:
     dance-double:
     :
     Hard:
     12:
     0.355,0.408,0.202,0.094,0.224:
00000000
00000000
00000000
00000000
,
00000000
00000000
00000000
00000000
,
00000000
00000000
00000000
00000000
,
00000000
00000000
00000000
00000000
00000000
00000000
00000000
00010000
,
00000100
00001000
00000100
00001000
00000000
00000001
00000000
00000100
,
00000000
00000010
00000000
00010000
00000000
00000000
00000000
00001000
,
01000000
00010000
01000000
00010000
00000000
00200000
00000000
10300000
,
00000000
00200000
00000000
00302000
00000000
00013000
00001000
00010000
,
00000100
00001000
00000001
00001000
00000000
00002000
00000000
00003002
,
00000000
00000203
00000000
00000310
00010000
00001000
00100000
00010000
,
01000000
00000000
00100000
10000000
00000000
01000000
00000000
00000000
,
01010000
00000000
00010000
01000000
10000000
00000000
00010000
00000000
,
10000000
00000000
00010000
01000000
00010000
00000000
00100000
00000000
00000000
00000000
00001000
00000000
00010000
00000000
00000000
00000000
,
00000010
00000000
00000100
00000001
00000100
00000000
00000020
00000000
00000000
00000000
00001030
00000000
00000001
00000000
00000100
00000000
,
00001000
00010000
01000000
10000000
00000000
00100000
10000000
01000000
,
11000000
00000000
00000000
10000000
01000000
00000000
00000000
01000000
00010000
00000000
00000000
00010000
00001000
00000000
00000000
00001000
,
00000100
00000000
00000100
00000001
00001000
00000000
00001000
00000000
,
00000100
00000000
00000100
00000010
00000001
00000000
00000001
00000100
,
00000001
00000010
00000001
00000010
00000000
00001000
00000000
00010000
,
00000000
01000000
00000000
20000000
00000000
30100000
10000000
01000000
,
10000000
00100000
01000000
00010000
00100000
00001000
00000000
00020000
,
00000000
00030100
00001000
00000001
00000000
00000100
00000100
00000100
,
00000001
00000100
00000001
00000100
00000001
00000100
00000000
00000010
00000000
00000000
00001000
00000000
00000100
00000000
00010000
00000000
,
00011000
00000000
00000000
00000000
00000000
00000000
00010000
00000000
00001000
00000000
00100000
02000000
00000000
00000000
00000000
00000000
,
13000000
00100000
10000000
00100000
10000000
00100000
00000000
01000000
00000000
00000000
00010000
00000000
00100000
00000000
00001000
00000000
,
00010000
00000000
00000010
00000000
00001000
00000000
00000001
00000010
00000100
00000000
00000000
00010000
00000000
00000000
00001000
00000000
,
00100000
00000000
00010000
00000000
01000000
00000000
00000000
00100000
00000000
00000000
10000000
00000000
01000000
00000000
00010000
00000000
,
00001000
00000010
00000001
00000100
00001000
00010000
00100000
10000000
,
01000000
00010000
00001000
00000010
00000100
00001000
00000001
00000000
00000100
00000000
00001000
00000000
00010000
00000000
00000000
00000000
,
00100000
00010000
00001000
00000000
00000010
00001000
00010000
01000000
,
10000000
00100000
01000000
00001000
00010000
00000100
00001000
00000000
00000001
00000000
00000100
00000000
00000101
00000000
00000000
00000000
,
00000001
00001000
00000100
00010000
00001000
00100000
00010000
10000000
,
00100000
10000000
01000000
00010000
00001000
00000010
00000100
00000000
00001000
00000000
00000001
00000000
00000101
00000000
00000100
00000000
,
00000110
00000010
00010000
00000000
00011000
00100000
00010000
00000000
,
10010000
10000000
00100000
01100000
00000000
00000000
01010000
00000000
,
00000000
00000000
00011000
00000000
00022000
00000000
00000000
00000000
00033000
00000000
00000110
00000000
00000110
00000000
00000000
00000001
,
00000000
00000010
00000100
00010000
00001000
00100000
00000000
00010000
10000000
01000000
00000000
10000000
00100000
01000000
00010000
00000000
,
10010000
00000000
00000000
10000000
01000000
00100000
00000000
00001000
00000000
00010000
00000100
00002000
00000000
00003000
00000000
00001001
,
00000000
00000001
00000010
00000001
00000100
00001000
00000000
00010000
01000000
00100000
00000000
00010000
10000000
00100000
10000000
00000000
,
10010000
00000000
00000000
10000000
00100000
01000000
00000000
00001000
00000000
00010000
00000100
00000010
00000000
00001000
00000000
00001010
,
00000000
00000010
00000100
00001000
00010000
00100000
00000000
01000000
10000000
00010000
00000000
01000000
00001000
00010000
00000100
00000000
,
00000110
00000010
00000001
00000000
00000101
00000100
00001000
00000000
,
00011000
00100000
00010000
10010000
00000000
00000000
11000000
00000000
,
00000000
00110000
00110000
00000000
00000000
00011000
00011000
00000000
,
00010000
00000000
00010000
00000010
00001000
00000000
00001000
00000000
,
00000001
00000000
00000001
00000100
00000010
00000000
00000010
00000000
,
00010000
00000000
00010000
00001000
00100000
00000000
01000000
00000000
,
10010000
00000000
00000000
00000000
;

//---------------dance-single - ----------------
#NOTES:
     dance-single:
     :
     Beginner:
     1:
     0.057,0.119,0.007,0.000,0.000:
0000
0000
0000
0000
,
0000
0000
0000
0000
,
0000
0000
0000
0000
,
0000
0000
0000
0000
,
1000
0000
0000
0000
,
0000
0000
0000
0000
,
1000
0000
0000
0000
,
0000
0000
0000
0000
,
0010
0000
0000
0000
,
0000
0000
0000
0000
,
0100
0000
0000
0000
,
0000
0000
0000
0000
,
0001
0000
0000
0000
,
0000
1000
0000
1000
,
1000
0000
0000
0000
,
0100
0000
0010
0000
,
0001
0000
0000
0000
,
1000
0000
0000
0000
,
0010
0000
0000
0000
,
0000
0000
0000
0000
,
0100
0000
0000
0000
,
0000
0000
0000
0000
,
0001
0000
0000
0000
,
1000
0000
0000
0000
,
0100
0000
0000
0000
,
0010
0000
0000
0000
,
0001
0000
0000
0000
,
0100
0000
0010
0000
,
1001
0000
0000
0000
,
0000
1000
0000
0001
,
0001
0000
0000
0000
,
0000
0010
0000
0010
,
0010
0000
0000
0000
,
0100
0100
0100
0000
,
1000
0000
0000
1000
,
0000
0000
0000
0000
,
0001
0001
0001
0001
,
0000
0000
0000
0000
,
0100
0100
0100
0100
,
0000
0000
0000
0000
,
1000
1000
1000
1000
,
1000
0000
0100
0000
,
0001
0000
0000
0000
,
0000
1000
0000
0001
,
0001
0000
0000
0000
,
0010
0000
0000
0000
,
0100
0000
0000
0000
,
0001
0000
0000
0000
;

//---------------dance-double - ----------------
#NOTES:
     dance-double:
     :
     Medium:
     9:
     0.236,0.255,0.058,0.029,0.072:
00000000
00000000
00000000
00000000
,
00000000
00000000
00000000
00000000
,
00000000
00000000
00000000
00000000
,
00000000
00000000
00000000
00000000
,
00010000
00001000
00010000
00001000
00000000
00000100
00000000
00000001
,
00000000
00001000
00000000
00000000
00000000
00000000
00000000
00000000
,
00000001
00000100
00000001
00000100
00000000
00000010
00000000
00001000
,
00000000
00000100
00000000
00010000
00000000
00001000
00010000
00001000
,
00010000
00100000
00010000
00001000
00000000
00000100
00000000
00000001
,
00000000
00000010
00000000
00000100
00010000
00000000
00010000
00001000
,
01000000
00000000
00100000
10000000
00000000
00010000
00000000
00000000
,
00100000
00000000
00000000
01000000
00000000
00000000
00000000
00000000
,
00100000
00001000
00010000
00000020
00000000
00000000
00000030
00000000
,
00000000
00000000
00000100
00000001
00000000
00000001
00000100
00000010
,
00000010
00010000
00001000
00200000
00000000
00000000
00300000
00000000
,
00010000
01000000
10000000
00100000
,
00010000
00000000
00000000
00010000
00000000
00000000
00000000
00000000
,
01000000
00000000
00000000
00100000
00000000
00000000
00000000
00000000
,
10000000
00010000
01000000
00010000
00000000
00100000
00000000
01000000
,
00000000
00010000
00000000
00001000
00000000
00000010
00000001
00000010
,
00000001
00000100
00000001
00000100
00001000
00000100
00000000
00010000
,
00000000
00100000
00000000
01000000
00000000
00000000
10000000
00000000
,
11000000
00000000
10000000
00010000
01000000
00001000
00010000
00000000
,
00011000
00000000
00000000
00001000
00010000
00000010
00000100
00000000
,
00000101
00000000
00000001
00000010
00000001
00000100
00000010
00000000
,
00001010
00000000
00000010
00000000
00010000
00000000
00000000
00000000
00001000
00000000
00000000
00100000
00000000
00000000
00010000
00000000
,
10000000
00000000
00100000
00000000
01000000
00000000
00000000
00001000
00000000
00000000
00010000
00000000
00000100
00000000
00000000
00000000
,
00000010
00000001
00000010
00000001
00001000
00000010
00010000
00001000
,
00100000
00010000
01000000
00100000
10000000
00000000
01000000
00000000
,
00010000
00000000
01000000
10000000
00000000
10000000
00100000
01000000
,
01000000
00001000
00010000
00000100
00000010
00000010
00000001
00000000
,
00000100
00000000
00001000
00010000
00000000
01000000
10000000
00100000
,
00100000
10000000
00010000
00100000
00001000
00010000
00001000
00000000
,
00000100
00000001
00000010
00001000
,
00011000
00000000
00000000
00110000
00000000
00000000
10010000
00000000
,
00000000
00000000
10000000
00000000
20000000
00000000
00000000
00000000
30000000
00000000
00010000
00000000
00020000
00000000
00000000
10030000
,
00000000
10000000
00000000
00100000
00000000
00100000
00000000
01000000
00000000
00001000
00000000
00000000
00010000
00000000
00000100
00000000
,
00000010
00000000
00000000
00000000
00000010
00000000
00000001
00000000
00001000
00000000
00000001
00000000
00000010
00000000
00000000
00000010
,
00000000
00000010
00000000
00000001
00000000
00000001
00000000
00000100
00000000
00000010
00000000
00000000
00010000
00000000
00001000
00000000
,
00100000
00000000
00000000
00000000
00100000
00000000
00010000
00000000
10000000
00000000
00100000
00000000
10000000
00000000
00000000
00100000
,
00000000
00100000
00000000
10000000
00000000
10000000
00000000
00010000
00000000
01000000
00000000
00000000
00001000
00000000
00010000
00000000
,
00000010
00001000
00000010
00000000
00000100
00000001
00000100
00000000
,
00000001
00000010
00000001
00000100
00000000
00000000
00001000
00000000
,
00000000
00010000
00010000
00000000
00000000
00001000
00001000
00000000
,
00100000
00000000
00000000
00010000
00000000
00000000
00000000
00000000
,
10000000
00000000
00000000
01000000
00000000
00000000
00000000
00000000
,
00100000
00000000
00001000
00010000
00000000
00001000
00000000
00000000
,
00011000
00000000
00000000
00000000
;

//---------------dance-double - ----------------
#NOTES:
     dance-double:
     :
     Easy:
     5:
     0.154,0.187,0.094,0.058,0.004: // measure 1
00000000
00000000
00000000
00000000
,  // measure 2
00000000
00000000
00000000
00000000
,  // measure 3
00000000
00000000
00000000
00000000
,  // measure 4
00000000
00000000
00000000
00000000
,  // measure 5
00010000
00000000
00001000
00010000
,  // measure 6
00000010
00000000
00000000
00000000
,  // measure 7
00000100
00000000
00000001
00000010
,  // measure 8
00000001
00000100
00000010
00001000
,  // measure 9
00000010
00000000
00010000
00001000
,  // measure 10
00100000
00010000
10000000
01000000
,  // measure 11
10000000
00000000
00000000
00000000
,  // measure 12
10010000
00000000
00000000
00000000
,  // measure 13
10000000
00000000
00000000
01000000
00000000
00000000
00000000
00000000
,  // measure 14
00000000
00010000
00000000
00001000
,  // measure 15
00000010
00000000
00000000
00000001
00000000
00000000
00000000
00000000
,  // measure 16
00000010
00000001
00000100
00000010
,  // measure 17
00010000
00000000
00000000
00010000
00000000
00000000
00000000
00000000
,  // measure 18
00001000
00000000
00000000
00001000
00000000
00000000
00000000
00000000
,  // measure 19
00100000
00010000
00100000
01000000
,  // measure 20
10000000
01000000
00100000
00001000
,  // measure 21
00010000
00010000
00000010
00001000
,  // measure 22
00000001
00000010
00000000
00000000
,  // measure 23
00000011
00000001
00000100
00000000
,  // measure 24
00000101
00000000
00000100
00001000
,  // measure 25
00011000
00010000
01000000
00000000
,  // measure 26
11000000
00000000
00000000
00000000
10000000
00000000
00000000
00000000
00100000
00000000
00000000
00100000
00000000
00000000
02000000
00000000
,  // measure 27
00000000
00000000
03000000
00000000
,  // measure 28
00002000
00000000
00003020
00000032
,  // measure 29
00000103
00000000
00000000
00000110
00000000
00000000
00000000
00000000
,  // measure 30
00000010
00010000
00001000
00100000
,  // measure 31
00010000
00000000
00000000
10010000
00000000
00000000
00000000
00000000
,  // measure 32
10000000
00100000
01000000
00001000
,  // measure 33
00010000
00000000
00000000
00011000
00000000
00000000
00000000
00000000
,  // measure 34
00010000
00000100
00000001
00000100
,  // measure 35
00000010
00000000
00000000
00000001
00000000
00000000
00000101
00000000
,  // measure 36
00000000
00000001
00000002
00000000
00000003
00001000
00002000
00000000
,  // measure 37
00003001
00000100
00001000
00010000
,  // measure 38
01000000
10000000
00100000
10000000
,  // measure 39
10000000
01000000
00010000
00001000
,  // measure 40
00000100
00000001
00000010
00000001
,  // measure 41
00000001
00000010
00001000
00010000
,  // measure 42
00100000
10000000
00010000
01000000
,  // measure 43
00001000
00000000
00000000
00010000
00000000
00000000
00001100
00000000
,  // measure 44
00000000
00001000
00002000
00000000
00003000
00000001
00000002
00000000
,  // measure 45
00000103
00000000
00000000
00000110
00000000
00000000
00000000
00000000
,  // measure 46
00010000
00000000
00000000
00011000
00000000
00000000
00000000
00000000
,  // measure 47
00100000
00000000
00000000
01000000
00000000
00000000
00000000
00000000
,  // measure 48
10010000
00000000
00000000
00000000
;
