#TITLE:Jesus is the One (I Got Deprerssion);
#SUBTITLE:;
#ARTIST:Zack Fox & Kenny Beats;
#TITLETRANSLIT:;
#SUBTITLETRANSLIT:;
#ARTISTTRANSLIT:;
#GENRE:Hip-Hop;
#CREDIT:;
#BANNER:Jesus is the One (I Got Deprerssion)-bn.png;
#BACKGROUND:Jesus is the One (I Got Deprerssion)-bg.png;
#LYRICSPATH:;
#CDTITLE:cdtitle.png;
#MUSIC:Jesus is the One (I Got Deprerssion).ogg;
#OFFSET:-0.003000;
#SAMPLESTART:69.602997;
#SAMPLELENGTH:19.200001;
#SELECTABLE:YES;
#BPMS:0.000000=100.000000
;
#STOPS:164.000000=9.000000
;
#BGCHANGES:
;
#KEYSOUNDS:;
#ATTACKS:;

//---------------dance-single - cause i got depression \:(----------------
#NOTES:
     dance-single:
     Don't Over Think Shit:
     Hard:
     14:
     0.648826,0.652216,0.328215,0.283862,0.895938,512.000000,475.000000,37.000000,32.000000,0.000000,0.000000,0.648826,0.652216,0.328215,0.283862,0.895938,512.000000,475.000000,37.000000,32.000000,0.000000,0.000000:
// measure 0
0000
0000
0000
0000
,  // measure 1
1100
0000
1000
0100
0001
0100
1000
0000
0001
0000
1000
0010
0100
0010
0001
0010
,  // measure 2
0100
0000
0000
0000
0000
0000
0001
0000
0000
0010
0000
0000
1000
0000
0000
0010
0000
0000
0001
0000
0000
0100
0000
0000
0001
0000
0000
0010
0000
0000
0100
0000
0000
0010
0000
0000
0001
0000
0000
0000
1000
0000
0000
0000
0001
0000
0000
0000
,  // measure 3
1001
0000
0001
1000
0010
0100
0001
1000
0010
1000
0100
0001
0100
1000
0010
1000
,  // measure 4
0001
0000
0000
0000
0100
0000
0001
0000
0100
0000
0010
0100
0010
0000
0100
0000
0001
0000
0010
0000
1000
0000
0001
0000
0100
0000
1000
0000
0001
0000
1000
0000
,  // measure 5
0200
0300
0200
0300
0200
0300
0200
0300
0200
0300
0200
0300
0200
0300
0000
0000
,  // measure 6
2000
0000
3200
0000
0320
0000
0032
2003
,  // measure 7
0020
0000
0000
0000
0030
0000
3000
0000
0000
0000
0001
1000
0001
1000
0001
0000
,  // measure 8
0200
0000
0000
0000
0300
0100
0001
2000
0001
0000
0000
0000
3000
0000
0000
0000
,  // measure 9
0010
0000
1000
0000
0001
0010
0001
0100
0000
0000
0010
0100
0000
0000
0000
0000
,  // measure 10
0002
0000
0023
0000
0230
0000
2300
3002
,  // measure 11
0100
0000
1000
0000
0103
0001
1000
0001
0000
0000
0010
0100
0010
0100
0000
0000
,  // measure 12
1010
0000
1000
0001
0011
0000
0010
0100
1010
0000
1000
0001
0011
0000
0010
0100
,  // measure 13
1010
0000
0000
0000
0000
0000
1000
0000
0000
0001
0000
0000
0100
0000
0000
1000
0000
0000
0100
0000
0000
0001
0000
0000
0010
0000
0000
0000
0001
0000
0000
0000
1000
0000
0000
0000
0010
0000
0000
0000
0000
0000
0100
0000
0000
0010
0000
0000
,  // measure 14
1000
0000
0000
0010
0000
0000
0100
0000
0000
0001
0000
0000
1000
0000
0000
0000
0000
0000
0010
0000
0000
0000
0000
0000
0100
0000
0000
0000
0010
0000
0000
0000
1000
0000
0000
0000
0001
0000
0000
0000
0000
0000
0010
0000
0000
0001
0000
0000
,  // measure 15
0010
0100
1000
0001
0100
0000
0010
0100
0001
1000
0010
1000
0002
0003
0020
0030
,  // measure 16
0100
0000
0000
0000
0010
0000
0001
1000
0001
0000
1000
0000
0100
0000
0000
0000
1000
0000
0000
0000
1100
0000
0100
0000
0020
0000
0030
0000
0200
0000
0300
0000
,  // measure 17
1010
0000
0000
0000
0000
0000
0010
0000
0000
1000
0000
0000
0001
0000
0000
0000
0000
0000
0100
0000
0000
0010
0000
0000
0100
0000
0000
0000
0000
0000
0001
0000
0000
0000
0000
0000
0010
0000
0000
0000
0100
0000
0000
0000
0000
0010
0000
0000
,  // measure 18
0100
0000
0000
0000
1000
0000
0000
0000
0000
0001
0000
0000
1000
0000
0000
0100
0000
0000
1000
0000
0000
0000
0000
0000
0010
0000
0000
0000
0000
0000
0101
0000
0000
0000
0000
0000
0001
0000
0000
0000
0000
0000
1000
0000
0000
0000
0000
0000
,  // measure 19
1100
0000
0000
0000
0000
0000
0000
0000
0000
0000
0000
0000
0000
0000
0000
0000
0000
0000
0000
0000
0000
0000
0000
0000
1000
0000
0000
0000
0000
0000
0000
0000
0000
0000
0000
0000
0100
0000
0000
0000
0000
0000
0000
0000
0000
0000
0000
0000
0010
0000
0000
0000
0000
0000
0000
0000
0000
0000
0000
0000
0000
0000
0000
0000
0100
0000
0000
0000
0000
0000
0000
0000
0000
0000
0000
0000
0000
0000
0000
0000
0000
0000
0000
0000
0010
0000
0000
0000
0000
0000
0000
0000
0000
0000
0000
0000
0001
0000
0000
0000
0000
0000
0000
0000
0000
0000
0000
0000
0000
0000
0000
0000
0100
0000
0000
0000
0000
0000
0000
0000
0000
0000
0000
0000
0000
0000
0000
0000
0000
0000
0000
0000
0010
0000
0000
0000
0000
0000
0000
0000
0000
0000
0000
0000
0100
0000
0000
0000
0000
0000
0010
0000
0000
0000
0000
0000
0100
0000
0000
0000
0000
0000
0010
0000
0000
0000
0000
0000
0100
0000
0000
0000
0000
0000
0000
0000
0000
0000
0000
0000
0000
0000
0000
0000
0000
0000
0000
0000
0000
0000
0000
0000
,  // measure 20
1010
0000
1000
0001
0011
0000
0010
0100
1010
0000
1000
0001
0011
0000
0010
0100
,  // measure 21
1010
1000
0010
0100
0010
1000
0001
0100
0001
0000
1000
0000
0001
0010
0100
0000
,  // measure 22
0010
0000
0000
0000
0000
0000
0001
0000
0000
0000
0000
0000
1000
0000
0000
0000
0000
0000
0010
0000
0000
1000
0000
0000
0001
0000
0000
0000
1000
0000
0100
0000
0000
0000
0000
0000
1000
0000
0000
0000
0001
0000
0000
0000
0010
0000
0000
0000
,  // measure 23
0100
0000
0010
0000
0000
0000
0010
0000
0001
0000
1000
0000
0001
0000
0100
0000
0010
0000
0000
0100
0010
0000
0000
1000
0000
0000
0001
0000
0010
0000
0001
0000
,  // measure 24
1000
0001
0000
0000
0011
0010
0100
1000
0001
1000
0010
1000
0001
0010
0100
0000
,  // measure 25
1010
0000
1000
0000
0010
0000
1000
0000
0001
0000
0000
0000
0000
0000
0000
0020
0000
0000
0000
0000
0130
0000
0000
0000
0100
0000
0000
0000
0010
0001
0010
0001
,  // measure 26
0020
0000
0100
0100
0000
0000
0000
0130
0000
0000
0010
0000
1001
0000
0001
1000
,  // measure 27
0001
0000
0010
0010
0100
0000
0000
1000
0000
0000
1100
0000
0001
0000
1000
0010
,  // measure 28
1010
0000
1000
0001
0011
0000
0010
0100
1010
0000
1000
0001
0011
0000
0010
0100
,  // measure 29
1010
0000
1000
0000
0010
0000
0100
0000
0010
0000
0000
0000
1000
0000
0100
0000
0010
0000
0000
0100
0010
0000
0001
0000
1000
0000
0000
0000
0001
0000
0000
0000
,  // measure 30
0020
0000
0000
0000
0000
0000
0100
0000
0000
0100
0000
0000
0000
0000
0000
0000
0000
0000
0000
0000
0000
0130
0000
0000
0010
0000
0000
0000
0001
0000
0000
0000
0000
1000
0000
0000
0001
0000
0000
0000
0000
0000
0010
0000
0000
0000
0000
0000
,  // measure 31
0101
0000
0100
0000
0001
0000
1000
0000
0001
0000
0000
0010
0000
0000
0000
0100
0010
0000
0100
0000
1000
0000
0001
0000
0100
0000
0001
0000
1000
0000
0001
0000
,  // measure 32
2000
0000
0000
0000
0000
0000
0010
0000
0000
0010
0000
0000
0000
0000
0000
0000
0000
0000
0000
0000
0000
3010
0000
0000
1000
0000
0000
0000
0100
0000
0000
0000
0000
0010
0000
0000
0000
0000
0001
0000
0000
0000
1000
0000
0000
0000
0000
0000
,  // measure 33
1001
0001
1000
0001
0010
1000
0010
0001
0100
0001
1000
0100
0010
0002
0003
1000
,  // measure 34
0000
0000
0001
0000
0000
0000
0100
0000
0000
0100
0000
0000
0001
0000
0000
0000
0000
0000
0000
0000
0000
1000
0000
0000
0100
0000
0000
0000
1000
0000
0000
0000
0000
0001
0000
0000
0100
0000
0000
0000
0000
0000
0001
0000
0000
0000
0000
0000
,  // measure 35
0102
0000
0003
0000
0100
0000
0010
0000
1000
0000
0000
0000
0100
0000
1000
0000
0000
0000
0000
0010
0100
0001
0100
0000
0010
0000
1000
0000
0100
0000
1000
0000
,  // measure 36
1010
0000
1000
0001
0011
0000
0010
0100
1010
0000
1000
0001
0011
0000
0010
0100
,  // measure 37
1010
0000
0000
0000
1000
0000
1000
0000
0001
0000
1000
0000
0001
0000
0000
0000
0010
0000
0100
0000
1000
0000
0001
0000
1000
0000
0000
0000
0010
0100
0010
0100
,  // measure 38
0020
0000
1000
1000
0000
0000
2000
3000
1030
0010
0001
0010
0100
0000
0001
0100
,  // measure 39
0001
0000
1000
1000
0100
0010
0100
1000
0000
0000
1010
0000
0001
1000
0001
1000
,  // measure 40
0000
0000
0010
0010
1010
0000
0000
0000
0000
0000
4000
0000
3100
0000
4000
0100
,  // measure 41
3000
0000
0000
0001
0000
0000
0100
0000
0000
0001
0000
0000
0101
0000
0000
0000
0000
0000
0001
0000
0000
0100
0000
0000
0010
0000
0000
0000
0100
0000
0000
0000
0000
0010
0000
0000
0100
0000
0000
0001
0000
0000
0000
0000
0000
1000
0000
0000
,  // measure 42
0010
0000
0000
0000
0000
0000
1000
0000
0000
0000
0000
0000
0010
0000
0000
0000
0000
0000
1000
0000
0000
0000
0000
0000
0010
0000
0000
0000
0000
0000
0000
0000
0000
0000
0000
0000
1000
0000
0000
0000
0000
0000
0000
0000
0000
0000
0000
0000
0000
0000
0000
0000
0000
0000
0000
0000
0100
0000
0000
0000
0000
0000
0000
0000
0000
0000
0000
0000
0000
0000
0000
0000
0000
0000
0000
0000
0000
0000
0010
0000
0000
0000
0000
0000
0100
0000
0000
0000
0000
0000
0000
0000
0000
0000
0000
0000
0000
0000
0000
0000
0000
0000
0000
0000
1000
0000
0000
0000
0000
0000
0000
0000
0000
0000
0000
0000
0000
0000
0000
0000
0000
0000
0000
0000
0000
0000
0001
0000
0000
0000
0000
0000
0100
0000
0000
0000
0000
0000
0000
0000
0000
0000
0000
0000
0000
0000
0000
0000
0000
0000
0000
0000
0000
0000
0000
0000
0000
0000
0000
0000
0000
0000
0000
0000
0000
0000
0000
0000
0104
0000
0000
0000
0000
0000
0000
0000
0000
0000
0000
0000
0000
0000
0000
0000
0000
0000
0000
0000
0000
0000
0000
0000
,  // measure 43
1003
0000
0004
0100
0003
0000
0000
0000
0000
0000
0000
0000
0000
0000
0000
0000
;
