#TITLE:Cosmo Funk;
#SUBTITLE:;
#ARTIST:Snail's House;
#TITLETRANSLIT:;
#SUBTITLETRANSLIT:;
#ARTISTTRANSLIT:;
#GENRE:;
#CREDIT:;
#MUSIC:Cosmo Funk.ogg;
#BANNER:Cosmo Funk.png;
#BACKGROUND:Cosmo Funk-bg.png;
#CDTITLE:;
#SAMPLESTART:78.688;
#SAMPLELENGTH:15.000;
#SELECTABLE:YES;
#OFFSET:1.968;
#BPMS:0.000=122.000;
#STOPS:;
#BGCHANGES:;
#FGCHANGES:;

//--------------- dance-single - Talkion ----------------
#NOTES:
     dance-single:
     Talkion:
     Beginner:
     2:
     0,0,0,0,0:
0000
0000
0000
0000
,
0000
0000
0000
0000
,
0000
0000
0000
0000
,
0000
0000
0000
0000
,
0000
0000
0000
0000
,
0000
1000
0000
1000
,
0000
0001
0000
0001
,
0000
1000
0000
1000
,
0000
0001
0000
0001
,
0000
0100
0100
0100
,
0000
0010
0010
0010
,
0000
0100
0100
0100
,
0000
0010
0010
0010
,
0000
2000
3000
1000
,
0000
0002
0003
0001
,
0000
2000
3000
1000
,
0000
0002
0000
0003
,
1000
0000
1000
0000
,
0002
0003
2000
3000
,
0001
0000
0001
0000
,
2000
0000
3001
0000
,
0100
0000
0100
0000
,
0020
0030
0200
0300
,
0010
0000
0010
0000
,
0200
0000
0310
0000
,
2000
0000
0000
0000
,
0000
0000
3000
0000
,
0002
0000
0000
0000
,
0000
0000
0003
0000
,
0000
1000
0000
1000
,
0000
1000
0000
1000
,
0000
0001
0000
0001
,
0000
0001
0000
0001
,
0002
0000
0003
0000
,
0200
0000
0300
0000
,
0020
0000
0030
0000
,
2000
0000
3000
0000
,
0220
0000
0000
0000
,
0000
0000
0330
0000
,
0001
0001
0001
0001
,
0001
0000
1001
0000
,
1000
0000
1000
0000
,
0020
0030
0200
0300
,
0001
0000
0001
0000
,
0020
0000
0130
0000
,
1000
0000
1000
0000
,
0200
0300
0020
0030
,
0001
0000
0001
0000
,
0200
0000
0310
0000
,
1000
1000
1000
0000
,
0002
0003
0020
0030
,
0001
0001
0001
0000
,
2000
0000
3010
0000
,
1000
1000
1000
0000
,
0001
0001
0001
0000
,
0100
0100
0100
0000
,
0010
0010
0010
0000
,
2000
0000
0000
0000
,
0000
0000
3000
0000
,
0001
0100
0000
0100
,
0000
0100
0100
0000
;

//--------------- dance-single - Talkion ----------------
#NOTES:
     dance-single:
     Talkion:
     Easy:
     6:
     0,0,0,0,0:
0000
0000
0000
0000
,
0000
0000
0000
0000
,
0000
0000
0000
0000
,
0000
0000
0000
0000
,
0000
0000
0000
0000
,
0001
0001
0100
0100
,
0010
0010
1000
0000
,
1000
1000
0100
0100
,
0010
0010
0001
0000
,
0001
0000
0100
0000
0001
0100
0001
0000
,
1000
0000
0100
0000
1000
0100
1000
0000
,
0001
0000
0100
0000
0001
0100
0001
0000
,
1000
0000
0100
0000
1000
0100
1000
0000
,
0001
0100
0002
0013
,
0100
1000
0200
0310
,
0001
1000
0002
0103
,
0010
1000
0020
0130
,
0001
0000
0100
0001
0200
0000
0300
0000
,
1020
0000
0100
0130
,
0001
1000
0001
0000
1000
0000
0100
0000
,
1000
0100
1000
0000
0110
0000
0000
0000
,
1000
0000
0010
1000
0020
0000
0030
0000
,
0201
0000
0010
0310
,
1000
0001
1000
0000
0001
0000
0010
0000
,
0001
0010
0001
0000
0110
0000
0000
0000
,
0002
1000
0000
1000
,
0000
1000
0000
1003
,
2000
0001
0000
0001
,
0000
0001
0000
3001
,
0200
0010
0000
0010
,
0000
1000
0000
0301
,
0020
0100
0000
0100
,
0000
1000
0000
0031
,
2000
0010
0100
3010
,
0002
0010
0100
0013
,
2000
0000
3100
0000
1000
0100
1000
0000
,
0002
0000
0103
0000
0001
0100
0001
0000
,
0220
0000
0000
0000
,
0000
0000
0000
0330
,
1000
0001
1000
0000
0001
1000
0001
0000
,
0100
0000
0000
0000
0010
0000
0000
0010
0000
0000
0000
0000
0110
0000
0000
0000
,
1000
0000
0100
1000
0020
0000
0030
0000
,
0021
0000
0100
0130
,
0001
1000
0100
0000
1000
0000
0100
0000
,
1000
0001
0100
0000
0101
0000
0000
0000
,
0001
0000
0010
0001
0200
0000
0300
0000
,
1200
0000
0010
0310
,
1000
0001
0010
0000
0001
0000
0010
0000
,
0001
1000
0010
0000
1010
0000
0000
0000
,
2000
0100
0001
3100
,
0002
0100
1000
0103
,
2000
0010
0100
3010
,
0002
0010
0100
0013
,
1000
0100
1000
0100
1000
0001
0100
0000
,
0020
1030
0020
0031
,
0010
0100
0010
0000
0100
0010
0100
0000
,
0001
0000
0000
1000
0000
0000
0001
0000
0000
1000
0000
0000
0001
0000
0000
0000
,
2000
0100
0000
0100
,
0000
0001
3001
0000
,
0002
0100
0000
0100
,
0000
1000
1003
0000
;

//--------------- dance-single - Talkion ----------------
#NOTES:
     dance-single:
     Talkion:
     Medium:
     9:
     0,0,0,0,0:
0000
0000
0000
0000
,
0000
0000
0000
0000
,
0000
0000
0000
0000
,
0000
0000
0000
0000
,
0000
0000
0000
0000
,
1000
0000
0000
0000
1100
0000
0000
0000
1000
0000
0000
1000
0000
0000
0010
0000
,
0000
0100
0100
0010
0100
0000
0110
0000
,
0001
0000
0000
0000
0011
0000
0000
0000
0001
0000
0000
0001
0000
0000
0100
0000
,
0000
0010
0010
0100
0010
0000
0110
0000
,
1000
0000
0100
0000
1000
0000
0000
0100
0000
0100
0000
0000
1000
0000
0000
0000
,
0001
0000
0100
0000
0001
0000
0000
0100
0000
0100
0000
0000
0001
0000
0000
0000
,
1000
0000
0001
0000
1000
0000
0000
0010
0000
0010
0000
0000
0100
0000
0000
0000
,
0010
0000
0100
0000
0010
0000
0000
1000
0000
1000
0000
0000
0001
0000
0000
0000
,
1000
0100
0020
0000
1000
0000
0031
0000
,
0001
0100
0020
0000
0001
0000
1030
0000
,
1000
0100
0010
0001
0200
0000
1300
0000
,
0100
0010
0100
0000
0120
0000
0130
0000
,
0001
0000
0000
0010
0000
0001
0000
0020
0000
0000
0000
0000
0130
0000
0000
0000
,
1000
0200
0000
0301
0100
0000
0110
0000
,
1000
0010
1000
0010
0100
0000
0001
0000
,
0010
0000
0001
0000
0100
0000
0000
0100
0000
0000
0010
0000
0110
0000
0000
0000
,
1000
0000
0000
0100
0000
1000
0000
0200
0000
0000
0000
0000
0310
0000
0000
0000
,
0001
0020
0000
1030
0010
0000
0110
0000
,
0001
0100
0001
0100
0010
0000
1000
0000
,
0100
0000
1000
0000
0010
0000
0000
0010
0000
0000
0100
0000
0110
0000
0000
0000
,
0002
0000
0000
0000
1000
0000
0000
0000
1000
0000
0000
1000
0000
0000
0103
0000
,
0000
0100
0010
0000
0110
0000
0000
0000
,
2000
0000
0000
0000
0001
0000
0000
0000
0001
0000
0000
0001
0000
0000
3100
0000
,
0000
0100
0010
0000
0110
0000
0000
0000
,
0002
0010
2003
0010
,
3002
0010
1003
1001
,
2000
0100
3002
0100
,
2003
0100
3001
1001
,
0001
0000
0000
0100
0000
0000
1000
0000
0000
0100
0000
0000
0001
0000
0000
0000
,
1000
0000
0000
2000
0000
0000
3001
0000
0001
0000
0000
0002
0000
0000
1003
0000
,
1000
0000
0010
0000
0100
0010
0100
0000
,
0002
0000
0000
2000
0000
0000
0000
0000
0000
0000
3003
0000
1001
0000
0000
0000
,
0001
0001
0100
0100
,
0010
0010
1000
1000
,
0100
0100
0010
0010
,
0001
0000
1000
0000
1000
0000
0000
1001
0000
0000
0010
0000
0110
0000
0000
0000
,
0001
0000
0000
0010
0000
0001
0000
0200
0000
0000
0000
0000
0310
0000
0000
0000
,
0001
0020
0000
1030
0200
0000
0310
0000
,
0100
1000
0100
1000
0010
0000
0001
0000
,
0010
0000
0100
0000
0010
0000
0000
0010
0000
0000
1000
0000
1001
0000
0000
0000
,
1000
0000
0000
0100
0000
1000
0000
0020
0000
0000
0000
0000
0130
0000
0000
0000
,
1000
0200
0000
0301
0020
0000
0130
0000
,
0010
0001
0010
0001
0100
0000
1000
0000
,
0100
0000
0010
0000
0100
0000
0000
0100
0000
0000
0001
0000
1001
0000
0000
0000
,
0010
0000
0000
0001
0000
0001
0000
0002
0000
0000
0000
0000
0103
0000
0000
0000
,
0010
2000
0000
0000
3100
0000
0000
0000
0100
2000
0000
0000
3010
0000
0000
0000
,
0100
0000
0001
0000
0100
0000
0000
0010
0000
0020
0000
0000
1030
0000
0000
0000
,
0100
0000
0000
0010
0000
0010
0000
0020
0000
0000
0000
0000
0031
0000
0000
0000
,
2000
0000
0000
3020
0000
0000
0032
0000
0000
0023
0000
0000
1030
0000
0000
0000
,
0001
0010
0000
0002
0000
0000
0003
0000
1000
0010
0000
2000
0000
0000
3000
0000
,
0001
0000
0010
0000
0001
0000
0000
0100
0000
0100
0000
0000
0110
0000
0000
0000
,
1000
0000
0000
1001
0000
0000
0101
0000
0000
0110
0000
0000
0100
0000
0010
0000
,
2000
0000
0000
0000
0010
0000
0000
0000
0010
0000
0000
0010
0000
0000
0001
0000
,
0000
3001
1000
0000
1001
0000
0000
0000
,
0002
0000
0000
0000
0010
0000
0000
0000
0010
0000
0000
0010
0000
0000
1003
0000
,
0001
0100
0001
0010
0010
0000
0000
0000
;

//--------------- dance-single - Talkion ----------------
#NOTES:
     dance-single:
     Talkion:
     Hard:
     11:
     0,0,0,0,0:
0000
0000
0000
0000
,
0000
0000
0000
0000
,
0000
0000
0000
0000
,
0000
0000
0000
0000
,
0000
0000
0000
1001
,
0001
0000
0100
0000
0001
0000
0100
0000
0010
0000
0000
0010
0000
0000
1010
0000
,
0000
1000
0100
1000
0100
0010
0010
0000
,
0100
0000
1000
0000
0100
0000
1000
0000
0001
0000
0000
0001
0000
0000
0101
0000
,
0000
0000
0100
0000
0010
0000
0100
0000
0010
0000
1000
0001
1000
0000
0000
0000
,
0001
0000
0010
0000
0010
0000
0000
0001
0000
0001
0000
0001
0100
0000
0010
0000
,
0000
0000
0010
0000
0010
0000
0000
1000
0000
1000
0000
1000
0100
0000
0010
0000
,
0000
0000
0010
0000
0010
0000
0000
0001
0000
0001
0000
0001
0100
0000
0010
0000
,
0000
0000
0010
0000
0010
0000
1000
0100
0000
0100
0000
0100
1000
0000
0000
0000
,
0001
0000
0100
0000
0100
0000
0000
0010
0000
0010
0000
0010
1000
0000
0100
0000
,
0000
0000
0100
0000
0100
0000
0000
1000
0000
1000
0000
1000
0001
0000
0100
0000
,
0000
0000
0100
0000
0100
0000
0000
0001
0000
0001
0000
0001
1000
0000
0100
0000
,
0000
0000
0100
0000
0100
0000
0001
0000
0100
0000
1000
0001
1000
0000
0000
0000
,
0001
0000
0100
0001
0000
0100
0000
0010
0000
0020
0000
0000
1030
0000
0100
0000
,
1000
0200
0000
0000
0301
0000
0100
0000
0001
0200
0000
1000
0000
1300
0000
0000
,
0010
0000
0100
0000
0010
0000
0100
0001
0000
0002
0000
0000
1003
0000
0100
0000
,
0010
0000
0001
0000
1000
0000
0010
0200
0000
0000
0010
0000
0310
0000
0000
0000
,
1000
0000
0010
1000
0000
0010
0000
0100
0000
0200
0000
0000
0301
0000
0010
0000
,
0001
0020
0000
0000
1030
0000
0010
0000
1000
0020
0000
0000
0031
0000
0000
0000
,
0100
0000
0010
0000
0100
0000
0010
1000
0000
2000
0000
0000
3001
0000
0010
0000
,
0100
0000
1000
0000
0001
0100
0000
0110
0000
0000
1001
0000
1001
0000
0000
0000
,
2000
0000
0000
0000
0100
0000
0000
0000
0010
0000
0000
0010
0000
0000
0100
0000
,
0000
0100
3100
1000
0001
0000
1001
0000
,
0002
0000
0000
0000
0010
0000
0000
0000
0100
0000
0000
0100
0000
0000
0010
0000
,
0000
0010
0013
0001
1000
0000
1001
0000
,
1000
0000
0000
0000
1100
0000
0000
0000
0100
0000
0000
0100
0000
0000
0010
0000
,
0000
0010
0010
0001
0011
0000
1001
0000
,
0001
0000
0000
0000
0101
0000
0000
0000
0100
0000
0000
0100
0000
0000
0010
0000
,
0000
0010
0010
1000
1010
0000
1001
0000
,
2000
0000
0000
3200
0000
0000
0302
0000
1003
0000
0010
0000
0001
0000
0100
0000
,
0010
0000
0000
0020
0000
0000
1030
0000
0100
0000
0000
0200
0000
0000
0310
0000
,
0000
0000
0010
0000
0010
0000
0000
0001
0000
0001
0000
0001
0100
0000
0010
0000
,
0100
0000
0000
0200
0000
0000
0000
0000
0000
0000
0001
0000
0301
0000
0000
0000
,
1000
0100
1000
0000
0100
0001
0100
0000
,
0001
0010
0001
0000
0010
1000
0010
0000
,
1000
0100
0010
0001
0010
0100
1000
0001
,
0100
0000
0010
0000
0100
0010
0000
0100
0010
0000
1000
0100
0010
0000
0000
0000
,
0010
0000
0001
1000
0000
0010
0000
0100
0000
0200
0000
0000
1300
0000
0100
0000
,
0001
0020
0000
0000
1030
0000
0010
0000
0001
0200
0000
0010
0000
0310
0000
0000
,
1000
0000
0100
0000
1000
0000
0001
0100
0000
0200
0000
0000
0310
0000
1000
0000
,
0100
0000
0010
0000
0001
0000
1000
0002
0000
0000
0100
0000
0103
0000
0000
0000
,
0010
0000
1000
0001
0000
0010
0000
0100
0000
0200
0000
0000
0301
0000
0100
0000
,
1000
0020
0000
0000
0031
0000
0010
0000
1000
0200
0000
0000
0310
0000
0000
0000
,
0001
0000
0100
0000
0001
0000
1000
0100
0000
0200
0000
0000
0301
0000
0100
0000
,
1000
0000
0001
0000
0100
0010
0000
0020
0000
0000
1000
0000
1030
0000
0000
0000
,
0001
0000
0010
0002
0000
0203
0000
0320
0000
2030
0000
0000
3100
0000
0010
0100
,
0010
0002
0000
0000
0103
0001
0000
0100
0000
0100
0000
0010
0000
0020
0000
0000
,
1030
0000
0100
0000
1000
0000
0001
0100
0000
0200
0000
0000
1300
0000
0100
0000
,
0001
0000
1000
0001
0000
0010
0000
0020
0000
0000
0130
0010
0001
0000
0000
0000
,
2000
0000
3100
0020
0000
0130
1000
0000
0010
0100
0001
0100
0020
0000
1030
0000
,
0001
0010
0000
0002
0000
0000
0103
0000
1000
0100
0000
2000
0000
0000
3100
0000
,
0001
0000
1000
0000
0001
0000
0100
0010
0000
0010
0000
0010
1000
0000
0100
0000
,
0010
0000
0100
0010
0000
0100
0010
0000
0100
1000
0000
0001
0010
0100
1000
0000
,
0002
0000
0000
0000
0010
0000
0000
0000
0100
0000
0000
0100
0000
0000
0010
0000
,
0000
0010
0013
0001
1000
0110
0110
0000
,
2000
0000
0000
0000
0100
0000
0000
0000
3010
0000
1000
0000
0010
1000
0000
0010
,
1000
0000
0100
0010
0001
0000
0110
0000
0110
0000
0000
0000
0000
0000
0000
0000
;

//--------------- dance-single - Talkion ----------------
#NOTES:
     dance-single:
     Talkion:
     Challenge:
     14:
     0,0,0,0,0:
0000
0000
0000
0000
,
0000
0000
0000
0000
,
0000
0000
0000
0000
,
0000
0000
0000
0000
,
0000
0000
0000
1001
,
1000
0000
0100
1000
0000
1000
0000
1000
0000
0001
0100
0000
0010
0100
0000
0200
,
0000
0000
1300
0000
0100
0010
0000
0020
0000
0000
1030
0000
1001
0000
0000
0000
,
0001
0000
0010
0001
0000
0001
0000
0001
0000
1000
0010
0000
0100
0010
0000
0020
,
0000
0000
0031
0000
0010
0100
0000
0200
0000
0000
0301
0000
1001
0000
0000
0000
,
1000
0000
0010
0000
0010
0000
0000
1100
0000
0101
0000
0100
0010
0000
0100
0000
,
0001
0000
0010
0000
0010
0000
0000
0101
0000
1100
0000
0100
0010
0000
0100
0000
,
1000
0000
0001
0000
0001
0000
0000
1010
0000
0011
0000
0010
0100
0000
0010
0000
,
0001
0000
1000
0000
1000
0000
0010
0100
0000
0010
1000
0100
0010
0000
0000
0000
,
0010
0000
0001
0000
0001
0000
0000
0101
0000
1100
0000
1000
0001
0000
0100
0000
,
0010
0000
1000
0000
1000
0000
0000
1100
0000
0101
0000
0001
1000
0000
0100
0000
,
0010
0000
0001
0000
0001
0000
0000
1001
0000
0110
0000
0010
0100
0000
0001
0000
,
1000
0000
0100
0000
0100
0000
1000
0001
1000
0000
0001
0100
0001
0100
0010
0000
,
1000
0000
0100
2000
0000
3002
0000
0203
0000
0320
0000
0000
0031
0000
0010
0100
,
0001
0010
0000
0000
0010
0000
0100
1000
0010
0200
0000
0010
0000
0310
0000
0000
,
1000
0000
0001
1000
0001
0000
0010
0200
0000
2300
0000
0000
3001
0000
0100
0000
,
0010
0000
0100
0000
0010
1000
0010
0100
0000
0000
0100
0001
0100
0001
1000
0000
,
0001
0000
0010
0002
0000
2003
0000
3020
0000
0230
0000
0000
1300
0000
0100
0010
,
1000
0100
0000
0000
0100
0000
0010
0001
0100
0010
0000
0000
0110
0000
0000
0000
,
0010
0000
1000
0001
1000
0000
0100
0020
0000
0032
0000
0000
0103
0000
0010
0000
,
0100
0000
0010
0000
1000
0001
1000
0100
0000
0000
0100
0001
0100
1000
0100
0000
,
0020
0000
0000
0000
0001
0000
0000
0000
1000
0000
0000
1000
0000
0000
0100
0000
,
0000
0100
0130
0010
0100
0000
1001
0000
,
0200
0000
0000
0000
1000
0000
0000
0000
0001
0000
0000
0001
0000
0000
0010
0000
,
0000
0010
0310
0100
0010
0000
1001
0000
,
1000
0000
0100
0010
0000
0010
0000
0020
0000
0000
0000
0000
0031
0000
1000
0010
,
0000
0020
0000
0000
0130
0010
0000
1000
0000
1000
0000
0100
0000
0200
0000
0000
,
0310
0000
0001
0000
0010
0000
0001
0020
0000
0000
0230
0000
0000
0000
1300
0000
,
0001
0000
1000
0010
0000
0010
0000
0020
0000
0000
0100
0000
0130
0000
0000
0000
,
0001
0010
0001
1000
0010
1000
0001
0010
0001
1000
0010
1000
0010
0100
0010
0100
,
0001
1000
0000
2000
0000
0000
3100
0000
0001
0100
0000
0200
0000
0000
0310
0000
,
0001
0000
1000
0000
0001
0000
0100
0010
0000
0010
0000
0010
1000
0000
0001
0000
,
1000
0100
0010
0002
0000
0000
1000
1003
0001
0000
0100
0010
1000
0100
0010
0001
,
2000
0010
0100
0010
,
0001
0000
0100
0000
3001
1000
1000
0000
,
0001
0100
0001
0000
1000
0100
1000
0000
0001
0100
0001
0100
0010
1000
0010
1000
,
0001
0000
0100
0100
0010
0100
0000
0010
0010
0000
1000
0001
0020
0000
0000
0000
,
0130
0000
1000
0100
1000
0010
0000
0100
0000
0200
0000
0000
0301
0000
1000
0100
,
0010
1000
0000
0000
0001
0000
0100
0010
0001
2000
0000
0001
0000
3001
0000
0000
,
0100
0000
0010
1000
0010
0000
0100
0001
0000
0002
0000
0000
0013
0000
0100
0000
,
0010
0000
0100
0000
1000
0001
1000
0010
0000
0000
0010
0100
0010
0100
0001
0000
,
0100
0000
0010
1000
0100
1000
0000
0100
0000
0200
0000
0000
1300
0000
0001
0010
,
0100
0001
0000
0000
1000
0000
0010
0100
1000
0001
0000
0000
1001
0000
0000
0000
,
0001
0000
0100
1000
0100
0000
0001
0010
0000
0020
0000
0000
0130
0000
0010
0000
,
0100
0000
0010
0000
0001
1000
0001
0100
0000
0000
0110
0000
0110
0000
0000
0000
,
0100
0000
1000
0200
0000
0302
0000
2003
0000
3020
0000
0000
0031
0000
0010
1000
,
0100
0010
0000
0001
0010
0100
0000
0100
0010
0001
0000
1000
0000
2000
0000
0000
,
3010
0000
0001
0010
1000
0000
0001
2000
0000
3200
0000
0000
0310
0000
0100
0000
,
0010
0000
0001
1000
0001
0200
0000
0320
0000
0000
1030
0010
0100
0010
0100
0000
,
0001
0100
0001
1000
0100
1000
0001
0100
0001
1000
0100
0001
0100
1000
0100
0010
,
0001
0100
0010
0200
0000
0000
0310
0100
0010
1000
0100
0020
0000
0000
0031
0010
,
0100
1000
0001
0000
0100
0000
1000
0100
0000
0100
0000
0100
0001
0000
0010
0001
,
0100
0010
0100
0010
0000
0100
0100
0010
1000
0001
0010
1000
0010
0100
1000
0001
,
0200
0000
0000
0000
1000
0000
0000
0000
0001
0000
0000
0001
0000
0000
0010
0000
,
0000
0010
0310
0100
0010
1001
1001
0000
,
0020
0000
0000
0000
1000
0000
0000
0000
0130
0000
0010
0010
0100
0010
0000
0100
,
0100
0000
0001
1000
0100
0010
0001
0000
1001
0000
0000
0000
0000
0000
0000
0000
;
