#VERSION:0.83;
#TITLE:City Night Line;
#SUBTITLE:;
#ARTIST:Shinji Hosoe;
#TITLETRANSLIT:;
#SUBTITLETRANSLIT:;
#ARTISTTRANSLIT:;
#GENRE:;
#ORIGIN:;
#CREDIT:;
#BANNER:;
#BACKGROUND:;
#PREVIEWVID:;
#JACKET:;
#CDIMAGE:;
#DISCIMAGE:;
#LYRICSPATH:;
#CDTITLE:;
#MUSIC:citynightline.ogg;
#OFFSET:-0.025000;
#SAMPLESTART:70.018913;
#SAMPLELENGTH:20.000000;
#SELECTABLE:YES;
#BPMS:0.000=120.010;
#STOPS:;
#DELAYS:;
#WARPS:;
#TIMESIGNATURES:0.000=4=4;
#TICKCOUNTS:0.000=4;
#COMBOS:0.000=1;
#SPEEDS:0.000=1.000=0.000=0;
#SCROLLS:0.000=1.000;
#FAKES:;
#LABELS:0.000=Song Start;
#BGCHANGES:;
#KEYSOUNDS:;
#ATTACKS:
;

//---------------dance-single - ----------------
#NOTEDATA:;
#CHARTNAME:;
#STEPSTYPE:dance-single;
#DESCRIPTION:;
#CHARTSTYLE:;
#DIFFICULTY:Hard;
#METER:14;
#RADARVALUES:0.673235,0.671362,0.464124,0.107106,0.606932,528.000000,476.000000,52.000000,12.000000,0.000000,0.000000,0.000000,0.000000,0.000000,0.673235,0.671362,0.464124,0.107106,0.606932,528.000000,476.000000,52.000000,12.000000,0.000000,0.000000,0.000000,0.000000,0.000000;
#CREDIT:TonyAkita;
#NOTES:
// measure 0
0000
0000
0000
0000
,  // measure 1
0000
0000
0000
0000
,  // measure 2
1010
0000
1010
0000
1000
0100
0000
0000
0011
0000
0011
0000
0001
1000
0000
0001
,  // measure 3
1000
0000
1000
0000
0010
0100
0000
0000
0101
0000
0101
0000
0001
0010
0000
0100
,  // measure 4
1000
0000
1000
0000
0001
0100
0000
0000
0110
0000
0110
0000
1000
0001
0000
1000
,  // measure 5
0100
0010
0001
0000
0011
0000
0010
0100
1000
0100
0010
0100
1000
0001
0100
0000
,  // measure 6
1010
0000
1010
0000
1000
0100
0000
0000
0011
0000
0011
0000
0001
0100
0000
1000
,  // measure 7
0100
0000
0100
0000
0001
1000
0000
0000
1100
0000
1100
0000
1000
0100
0000
0001
,  // measure 8
0100
0000
0100
0000
1000
0001
0000
0000
1001
0000
1001
0000
0001
0010
0000
0100
,  // measure 9
1000
0100
1000
0000
0001
0000
1000
0100
0010
0000
0001
0000
1000
0001
1000
0001
,  // measure 10
0100
0000
0100
0000
0001
0010
0001
0000
0100
0000
0100
0000
0001
0100
0010
1000
,  // measure 11
0010
0000
0010
0000
1000
0100
1000
0000
0010
0000
0010
0000
1000
0100
0010
0001
,  // measure 12
0010
0000
0010
0000
0001
0100
0001
0000
0010
0000
0010
0000
0100
1000
0100
0001
,  // measure 13
0100
0010
0100
0000
0110
0000
1000
0100
0010
0100
1000
0100
0010
0001
0100
0000
,  // measure 14
0010
0000
0010
0000
1000
0100
1000
0000
0010
0000
0010
0000
0100
0001
0010
0001
,  // measure 15
0100
0000
0100
0000
0001
0010
0001
0000
0100
0000
0100
0000
0010
1000
0100
1000
,  // measure 16
0010
0000
0010
0000
1000
0100
1000
0000
0010
0000
0010
0000
0100
0001
0000
1000
,  // measure 17
0001
0010
0100
0010
0001
0100
0010
1000
0100
1000
0010
0100
0001
0010
0100
1000
,  // measure 18
0001
0000
0001
0000
1000
0001
0100
0000
0020
1000
0000
1030
0001
0000
1000
0000
,  // measure 19
0020
0000
0000
0130
0000
0010
0000
0000
0200
0000
0001
0000
0301
1000
0000
0000
,  // measure 20
1000
0000
1000
0000
0001
1000
0100
0000
0020
0001
0000
0031
1000
0000
0001
0000
,  // measure 21
0020
0000
0000
0130
0000
0010
0000
0000
0200
0000
1000
0000
1300
0001
0000
0000
,  // measure 22
0001
0000
0001
0000
1000
0100
0010
0000
0200
1000
0000
1300
0001
0000
1000
0001
,  // measure 23
0200
0000
0000
0310
0000
0100
0000
0010
2000
0000
0010
0000
3010
0100
0000
0000
,  // measure 24
0001
0000
1000
0000
0001
0100
0010
0000
0200
0001
0000
0301
1000
0000
0001
0000
,  // measure 25
1000
0100
0010
0100
1000
0001
0100
0010
1000
0010
0100
0001
1000
0100
0000
0000
,  // measure 26
0010
0000
0001
0010
0001
0000
0010
0000
1100
0000
1000
0000
1010
0000
0000
0000
,  // measure 27
0101
0100
1100
0000
0101
1000
0100
0001
,  // measure 28
0100
0000
1000
0010
1000
0000
0100
0000
0011
0000
0001
0000
0101
0000
0000
0000
,  // measure 29
0100
0000
0010
0000
1000
0000
0010
0000
0100
0000
0001
0010
0001
0000
0100
0010
,  // measure 30
1000
0000
0010
0000
1000
0000
0001
0010
0100
0000
1000
0000
0001
0000
0000
0000
,  // measure 31
1000
0000
0100
0000
0001
0000
0100
1000
0100
0000
1000
0000
0010
0100
0001
0100
,  // measure 32
0010
0000
1000
0000
0010
0000
0100
0001
0010
0000
0001
0000
0010
0000
0000
0000
,  // measure 33
0200
1000
0000
0001
0000
1000
0000
0301
,  // measure 34
1100
1000
1010
0000
0110
0001
1001
0000
,  // measure 35
0110
0000
0110
0000
0001
1000
0000
0000
1010
0000
1010
0000
1000
0100
0000
1000
,  // measure 36
0100
0000
0100
0000
0010
0001
0000
0000
0011
0000
0011
0000
1000
0010
0000
0100
,  // measure 37
0001
0000
0001
0000
0010
0100
0000
0000
1100
0000
1100
0000
0001
1000
0000
0001
,  // measure 38
0010
0100
1000
0000
1010
0000
0010
0100
0001
0100
0010
0100
0001
1000
0100
0000
,  // measure 39
0110
0000
0110
0000
0001
1000
0000
0000
0011
0000
0011
0000
1000
0010
0000
0001
,  // measure 40
0010
0000
0010
0000
0100
0001
0000
0000
1010
0000
1010
0000
0001
0010
0000
1000
,  // measure 41
0010
0000
0010
0000
0100
1000
0000
0000
0011
0000
0011
0000
1000
0001
0000
1000
,  // measure 42
0100
0010
0001
0000
0101
0000
0100
0010
0100
0000
0001
0000
1000
0100
0001
0100
,  // measure 43
1000
0000
0100
0000
0010
0000
0100
1000
0010
0000
0100
0000
0001
0000
0000
0000
,  // measure 44
1000
0000
0100
0000
0001
0000
0100
1000
0100
0000
1000
0000
0010
0100
0001
0100
,  // measure 45
0010
0000
1000
0000
0010
0000
0100
0001
0010
0000
0001
0000
1000
0000
0000
0000
,  // measure 46
0010
0000
1000
0000
0010
0000
0001
0000
0010
0000
1000
0010
1000
0000
0001
0100
,  // measure 47
0010
0000
1000
0000
0010
0000
1000
0100
0010
0000
0001
0000
1000
0000
0000
0000
,  // measure 48
0001
0000
0100
0000
1000
0000
0100
0001
0100
0000
0001
0000
0010
0100
1000
0100
,  // measure 49
0010
0000
0001
0000
0010
0000
0100
1000
0010
0000
0100
0000
0010
0000
0000
0000
,  // measure 50
0200
0001
0000
1000
0000
0001
0000
1300
,  // measure 51
0101
0001
0011
0000
0110
1000
1001
0110
;
