#VERSION:0.82;
#TITLE:tomato explosion;
#SUBTITLE:;
#ARTIST:Takahiro Eguchi;
#TITLETRANSLIT:;
#SUBTITLETRANSLIT:;
#ARTISTTRANSLIT:;
#GENRE:;
#ORIGIN:;
#CREDIT:;
#BANNER:tomato explosion.png;
#BACKGROUND:tomato explosion-bg.png;
#PREVIEWVID:;
#JACKET:tomato explosion-jacket.png;
#CDIMAGE:;
#DISCIMAGE:;
#LYRICSPATH:;
#CDTITLE:;
#MUSIC:tomato explosion.ogg;
#OFFSET:-0.027000;
#SAMPLESTART:21.275024;
#SAMPLELENGTH:15.000000;
#SELECTABLE:YES;
#BPMS:0.000=180.000;
#STOPS:31.000=0.333,
254.000=0.333;
#DELAYS:;
#WARPS:;
#TIMESIGNATURES:0.000=4=4;
#TICKCOUNTS:0.000=4;
#COMBOS:0.000=1;
#SPEEDS:0.000=1.000=0.000=0;
#SCROLLS:0.000=1.000;
#FAKES:;
#LABELS:0.000=Song Start;
#BGCHANGES:;
#KEYSOUNDS:;
#ATTACKS:
;

//---------------dance-single - ----------------
#NOTEDATA:;
#CHARTNAME:;
#STEPSTYPE:dance-single;
#DESCRIPTION:;
#CHARTSTYLE:;
#DIFFICULTY:Hard;
#METER:12;
#RADARVALUES:0.690653,0.880313,0.378358,0.605373,0.004204,458.000000,45.000000,72.000000,0.000000,0.000000,0.000000,0.000000,0.000000,0.690653,0.880313,0.378358,0.605373,0.004204,458.000000,45.000000,72.000000,0.000000,0.000000,0.000000,0.000000,0.000000;
#CREDIT:;
#NOTES:
0000
0000
0000
0000
,
0000
0000
0000
0000
,
0000
0000
0000
0000
,
0000
0000
0000
0000
,
0000
0000
0000
0000
,
0000
0000
0000
0000
,
0000
0000
0000
0000
,
0001
0000
1000
0000
0100
0000
1000
0000
0100
0000
1000
0000
0002
0003
0000
0000
,
0001
0100
0010
0010
0100
0001
0000
0001
,
1000
0100
0000
0100
0010
0000
0001
0000
,
1000
0100
0010
0010
0100
1000
0000
1000
,
0001
0010
0000
0001
1000
0010
1000
0000
,
0001
0100
0010
0010
0100
0001
0000
1000
,
0001
0010
0000
0010
0100
0000
1000
0000
,
0001
0100
0001
0000
1000
0100
1000
0001
,
0100
0000
0001
0000
1000
0000
0001
0000
0020
0030
0000
0000
0002
0000
0000
0000
,
0013
0001
1000
0100
1000
0100
1000
0010
,
1000
0010
0100
0002
0003
0000
0100
0010
,
1000
0010
0100
0001
1000
0100
0010
0000
,
0001
2000
0000
3100
2000
0000
3001
1000
,
0000
0001
1000
0100
0010
0100
1000
0001
,
0100
0020
0000
0130
0001
1000
0100
0020
,
0030
0010
0100
1000
0001
1000
2200
3300
,
2002
3003
2200
3300
0220
0330
0002
0000
,
0013
0100
0010
0100
1000
0000
0001
1000
,
0100
0110
1001
0001
,
1000
0010
0100
0000
0100
0001
1000
0020
,
0000
1030
0001
0010
0100
0010
0001
0000
,
1000
0100
1000
0001
0010
0200
0300
0100
,
0010
0001
0100
1000
0100
0001
0010
1000
,
0020
0000
0031
1000
0001
0100
0202
0303
,
2002
3003
0202
0303
0120
0000
1030
0000
,
0001
0000
0010
0001
0000
1000
0100
0000
,
0100
1000
0000
0001
0010
0000
0110
0000
,
0110
0000
0010
0001
0000
1000
0001
0000
,
0100
0020
0000
0000
0130
0000
1000
0000
,
0001
0000
1000
0100
0010
0002
0000
1003
,
0001
0200
0000
0301
1000
0020
0000
0130
,
0010
1000
0000
0101
0000
1001
0000
1100
,
0000
1010
0000
0011
0000
1001
0000
2002
,
0000
0000
3003
0000
0000
0000
1000
0000
0100
0000
0002
0000
0000
0000
0103
0010
,
0100
2000
0000
0000
3001
0000
0100
0001
,
0100
0020
0000
0130
0001
2000
0000
3000
,
0200
0020
0000
0330
1001
0000
0101
0000
,
1100
0000
0001
0100
0010
2000
0000
3001
,
1000
0200
0000
1300
0001
0020
0000
0031
,
1000
0010
0000
0101
0000
1010
0000
1100
,
0000
0011
0000
0110
0000
1001
0000
2001
,
0000
0000
0000
0100
0100
0000
0001
0000
,
0001
0000
0010
0010
0000
0001
0000
0001
,
0000
0100
0100
0000
0100
0000
0001
0000
,
3001
0000
0001
1000
0001
1001
0000
1002
,
0000
0000
0000
0100
0100
0000
1000
0000
,
1000
0000
0010
0010
0000
1000
0000
1000
,
0000
0100
0100
0000
1003
0000
1000
0001
,
0010
0100
0010
0001
1000
1100
0000
1200
,
0000
0000
0000
0010
0010
0000
1000
0000
,
1000
0000
0010
0010
0000
0001
0000
0001
,
0000
0010
0010
0000
1000
0000
1000
0000
,
0310
0000
0010
0001
1000
1010
0000
1020
,
0000
0000
0000
0100
0100
0000
1000
0000
,
1000
0000
0100
0100
0000
0001
0000
0001
,
0000
0100
0100
0000
1030
0000
1000
0010
,
0100
0000
0010
0000
1000
0000
0001
0000
0200
0300
0000
0000
0100
0000
0001
0000
,
1000
0010
1000
0010
1000
0100
1000
0100
,
0010
0002
0003
0000
0010
0100
1000
0100
,
0010
0001
1000
0010
0100
0000
0001
0200
,
0000
0310
0200
0000
0301
0100
0000
0100
,
0001
1000
0010
0100
0001
1000
0100
0020
,
0030
0010
0001
1000
0001
0200
0300
0100
,
0010
1000
0001
0100
0202
0303
2002
3003
,
2200
3300
0220
0330
2000
0000
3100
0010
,
0100
0010
0001
0000
1000
0001
0100
0000
,
0110
0000
1001
0000
1000
0000
0001
0010
,
0100
0000
0100
1000
0001
0020
0000
0031
,
1000
0010
0100
0010
1000
0000
0001
0100
,
0001
0001
1000
0200
0300
0100
0010
0001
,
0010
1000
0010
0001
0100
1000
0200
0000
,
0301
1000
0100
1000
2200
3300
2002
3003
,
0202
0303
0110
0000
1000
0000
0010
0100
,
0001
0000
0100
0010
0000
1000
0001
0100
,
0000
0100
0001
0000
0001
0000
0010
0100
,
1000
0000
0100
0010
0000
0100
1000
0002
,
1003
0002
0003
0000
1000
0000
0010
0100
,
0001
0000
0100
0010
0000
1000
0001
0010
,
0000
0010
0100
0000
1000
0100
1000
0001
,
0100
0001
1000
0100
0010
0100
0010
0001
,
0010
0100
1000
0000
0000
0000
0000
0000
;

//---------------dance-single - ----------------
#NOTEDATA:;
#CHARTNAME:;
#STEPSTYPE:dance-single;
#DESCRIPTION:;
#CHARTSTYLE:;
#DIFFICULTY:Medium;
#METER:9;
#RADARVALUES:0.470845,0.550196,0.378358,0.319502,0.000000,309.000000,45.000000,38.000000,0.000000,0.000000,0.000000,0.000000,0.000000,0.470845,0.550196,0.378358,0.319502,0.000000,309.000000,45.000000,38.000000,0.000000,0.000000,0.000000,0.000000,0.000000;
#CREDIT:;
#NOTES:
0000
0000
0000
0000
,
0000
0000
0000
0000
,
0000
0000
0000
0000
,
0000
0000
0000
0000
,
0000
0000
0000
0000
,
0000
0000
0000
0000
,
0000
0000
0000
0000
,
0001
1000
0100
0000
1000
0001
0010
0000
,
0001
0000
1000
0000
1000
0100
0000
0000
,
1000
0001
1000
0010
,
0010
0000
0100
0000
0100
0001
0000
0000
,
0001
0000
0100
0010
0100
0000
0001
0000
,
1000
0000
0100
0000
1000
0001
1000
0000
,
0001
0000
0100
0000
0001
1000
0010
0000
,
0010
0100
0100
0110
,
1001
0110
1001
0001
,
1000
0001
0100
0000
0100
0000
0001
0000
,
0001
0000
1000
0002
0003
0000
0010
0000
,
0100
0010
0001
1000
,
0100
1000
0000
0001
1000
0000
0100
1000
,
0000
1000
0001
0000
0001
0000
0100
0000
,
0100
0020
0000
0030
0100
0000
0001
0000
,
1000
0001
1000
1100
,
1100
0011
0011
0001
,
0100
0000
0010
0000
0100
0000
0001
1000
,
0001
0020
0030
0100
,
1000
0100
1000
0000
0001
0000
0010
0001
,
0000
0001
1000
0000
0001
0000
0100
0000
,
1000
0000
0100
0000
0100
0001
0000
1000
,
0001
0000
1000
0000
0100
0000
0010
0100
,
0010
0000
0001
1000
0001
0000
0101
0000
,
0101
1010
1010
0010
,
1000
0002
0003
0101
,
0000
1001
0000
0000
1100
0000
0100
0000
,
0010
0000
0100
0000
0000
1000
0100
0000
,
0010
0002
0000
0000
0003
0000
1000
0000
,
0001
0000
0100
0001
0000
2020
0000
3030
,
0000
0202
0000
0303
0000
0022
0000
0033
,
0000
0010
0000
0001
0000
1000
0000
0010
,
0000
0100
0000
0001
1000
0010
0000
2002
,
0000
3003
0000
1000
0001
0020
0000
0030
,
0000
0200
0000
0000
0310
0000
0001
0000
,
1000
0001
0000
0001
0000
0200
0000
0300
,
0010
2000
0000
0000
3001
0000
1000
0000
,
0001
0000
1000
0100
0010
0002
0000
0003
,
0000
2200
0000
3300
0000
2002
0000
3003
,
0000
0101
0000
0100
0000
0010
0000
1000
,
0000
0001
0000
0010
0000
1001
0000
2001
,
0000
0100
0020
0000
,
0000
0000
0000
0000
,
0000
0000
0000
0000
3030
0000
0100
0010
,
0100
0010
0200
0300
0000
1001
0000
1002
,
0000
0100
0020
0000
,
0000
0000
0000
0000
,
0000
0000
0033
1100
,
0011
0000
1100
0000
0000
0110
0000
0210
,
0000
0010
2000
0000
,
0000
0000
0000
0000
,
0000
0000
0000
0000
3300
0000
0001
1000
,
0001
1000
0002
0003
0000
0110
0000
1002
,
0000
0203
0020
0000
,
0000
0000
0000
0000
,
0000
0000
0000
0000
0330
0000
0010
1000
,
0001
0000
0100
0001
1000
0000
0001
1000
,
0100
0100
1000
1000
,
0001
2000
3000
0000
0010
0000
0100
0000
,
0010
0000
1000
0000
0001
0000
0100
0001
,
0000
1000
0001
0000
0100
0001
0000
0001
,
1000
0000
1000
0000
0100
0000
0100
0010
,
0000
0000
0100
0000
1000
0001
0100
0000
,
0001
0001
0101
1010
,
0101
1010
1000
0100
,
0010
0000
0100
0000
1000
0001
1000
0000
,
0020
0000
0030
0000
0100
0000
0001
0100
,
0001
0000
1000
0000
0010
1000
0000
1000
,
0001
1000
0100
0001
,
0100
0000
0100
1000
0000
0001
1000
0000
,
0001
0000
0100
0000
0010
0100
0010
0000
,
1000
0001
1000
0000
1100
0000
0011
0000
,
1100
0011
0001
0001
,
0200
0300
0000
0001
0000
0001
0100
0001
,
0100
0010
1000
1000
,
0200
0300
0000
1000
0000
1000
0100
0010
,
0000
0010
0000
0000
0001
0000
0001
0000
,
0200
0300
0000
0001
0000
1000
0100
1000
,
0100
0010
0001
0100
,
1000
0010
1001
0110
,
0110
1001
0000
0000
;

//---------------dance-single - ----------------
#NOTEDATA:;
#CHARTNAME:;
#STEPSTYPE:dance-single;
#DESCRIPTION:;
#CHARTSTYLE:;
#DIFFICULTY:Easy;
#METER:6;
#RADARVALUES:0.273859,0.330117,0.058856,0.100895,0.000000,209.000000,7.000000,12.000000,0.000000,0.000000,0.000000,0.000000,0.000000,0.273859,0.330117,0.058856,0.100895,0.000000,209.000000,7.000000,12.000000,0.000000,0.000000,0.000000,0.000000,0.000000;
#CREDIT:;
#NOTES:
0000
0000
0000
0000
,
0000
0000
0000
0000
,
0000
0000
0000
0000
,
0000
0000
0000
0000
,
0000
0000
0000
0000
,
0000
0000
0000
0000
,
0000
0000
0000
0000
,
0000
0000
0000
1001
,
0001
0000
0001
0100
,
0001
1000
0001
0000
,
1000
0000
1000
0100
,
1000
0001
1000
0000
,
0001
0000
0001
0100
,
0001
0010
0001
0000
,
1000
0000
1000
0100
,
0010
0010
0010
0001
,
0010
0001
0000
1000
,
0100
1000
0000
0001
,
0100
0001
0100
0010
,
0000
0010
0000
0010
,
1000
0001
1000
0001
,
0000
1000
0001
1000
,
0100
0000
0100
1000
,
0010
0010
0010
0100
,
0001
0100
0000
0010
,
1000
0010
0000
0110
,
0000
1001
0000
1000
,
0000
0001
1000
0010
,
1000
0001
0000
1000
,
0001
0010
0000
0001
,
0010
0100
1000
0100
,
0010
0010
0010
0002
,
0003
2000
3000
0002
,
0003
2000
3000
0100
,
0010
0100
0000
1000
,
0002
0000
0003
0100
,
0010
0000
1000
0000
0000
0001
0000
0000
,
0000
0100
0000
0000
0000
0010
0000
0000
,
0000
0100
0000
0001
0000
1000
0000
0100
,
0000
0010
0000
0001
0000
1000
0000
2000
,
0000
3000
0000
0001
0000
1001
0000
0000
,
0000
0110
0000
0000
0000
0000
1000
0000
,
0001
0000
0000
1000
0000
0100
0000
0000
,
0000
0020
0000
0000
0030
0000
0100
0000
,
1000
0000
0001
0000
0000
1000
0000
0000
,
0000
0100
0000
0000
0000
0010
0000
0000
,
0000
0001
0000
0010
0000
0100
0000
1000
,
0000
0001
0000
0100
0000
0010
0000
0020
,
0000
0000
0000
0000
,
0000
0000
0000
0000
,
0000
0000
0030
1000
,
0001
0000
1000
0000
0000
0100
0000
0200
,
0000
0000
0000
0000
,
0000
0000
0000
0000
,
0000
0000
0300
1000
,
0010
0000
0100
0000
0000
0001
0000
0002
,
0000
0000
0000
0000
,
0000
0000
0000
0000
,
0000
0000
0003
0010
,
0100
0000
0010
0000
0000
1000
0000
2000
,
0000
0000
0000
0000
,
0000
0000
3000
0001
,
0000
1000
0000
0001
,
1000
0100
0020
0030
,
0001
0000
1000
0100
,
1000
0000
0001
0100
,
0010
0100
0001
0000
,
0001
0000
0010
0001
,
1000
0001
1000
0000
,
0001
1000
0001
0100
,
0000
0100
0001
0010
,
0010
0010
0100
1000
,
0100
0000
0010
0001
,
0010
0000
0110
0000
,
1001
0000
0001
0000
,
1000
0001
0010
0100
,
1000
0000
0001
1000
,
0010
0000
1000
0010
,
0100
0001
0100
0010
,
0010
0010
0000
1000
,
0000
1000
0000
0001
,
0000
0001
0000
1000
,
0000
1000
0000
0010
,
0000
0010
0000
0001
,
0000
0001
0000
0010
,
0000
0010
0000
0100
,
0000
0100
1000
0001
,
1000
0001
0000
0000
;

//---------------dance-single - ----------------
#NOTEDATA:;
#CHARTNAME:;
#STEPSTYPE:dance-single;
#DESCRIPTION:;
#CHARTSTYLE:;
#DIFFICULTY:Beginner;
#METER:3;
#RADARVALUES:0.129723,0.293438,0.016816,0.000000,0.000000,106.000000,2.000000,0.000000,0.000000,0.000000,0.000000,0.000000,0.000000,0.129723,0.293438,0.016816,0.000000,0.000000,106.000000,2.000000,0.000000,0.000000,0.000000,0.000000,0.000000,0.000000;
#CREDIT:;
#NOTES:
// measure 0
0000
0000
0000
0000
,  // measure 1
0000
0000
0000
0000
,  // measure 2
0000
0000
0000
0000
,  // measure 3
0000
0000
0000
0000
,  // measure 4
0000
0000
0000
0000
,  // measure 5
0000
0000
0000
0000
,  // measure 6
0000
0000
0000
0000
,  // measure 7
0000
0000
0000
1001
,  // measure 8
0000
0000
0000
0000
0000
0001
0000
0000
,  // measure 9
0000
0000
0000
0100
,  // measure 10
0000
0000
0000
0000
0000
1000
0000
0000
,  // measure 11
0000
0000
0000
0100
,  // measure 12
0000
0000
0000
0000
0000
0001
0000
0000
,  // measure 13
0000
0000
0000
0100
,  // measure 14
0000
0000
0000
0010
,  // measure 15
0010
0010
0010
0000
,  // measure 16
0000
1000
0000
0000
,  // measure 17
0000
0100
0000
0000
,  // measure 18
0000
0001
0000
0000
,  // measure 19
0000
0100
0000
0000
,  // measure 20
0000
1000
0000
0000
,  // measure 21
0000
0010
0000
0000
,  // measure 22
0000
0001
0000
0010
,  // measure 23
0010
0010
0010
0000
,  // measure 24
0000
0001
0000
0000
,  // measure 25
0000
0100
0000
0000
,  // measure 26
0000
1000
0000
0000
,  // measure 27
0000
0100
0000
0000
,  // measure 28
0000
0001
0000
0000
,  // measure 29
0000
0100
0000
0000
,  // measure 30
0000
1000
0000
0010
,  // measure 31
0010
0010
0010
1000
,  // measure 32
0000
0000
0000
0100
,  // measure 33
0000
0000
0000
0001
,  // measure 34
0000
0000
0000
0010
,  // measure 35
0000
0000
0000
0001
,  // measure 36
0000
0000
0000
0000
0000
0100
0000
0000
,  // measure 37
0000
0100
0000
0000
0000
0100
0000
0000
,  // measure 38
0000
0001
0000
1000
0000
0001
0000
1000
,  // measure 39
0000
0001
0000
1000
0000
0100
0000
0100
,  // measure 40
0000
0000
0000
1000
0000
0001
0000
0000
,  // measure 41
0000
0010
0000
0000
0000
0000
0001
0000
,  // measure 42
1000
0000
0000
0000
0000
0001
0000
0000
,  // measure 43
0000
0100
0000
0000
0000
0000
0010
0000
,  // measure 44
0010
0000
0000
0000
0000
1000
0000
0000
,  // measure 45
0000
0001
0000
0000
0000
0010
0000
0000
,  // measure 46
0000
0001
0000
0000
0000
0100
0000
0000
,  // measure 47
0000
0010
0000
0000
0000
1000
0000
1000
,  // measure 48
0000
0000
0000
0000
,  // measure 49
0000
0000
0000
0000
,  // measure 50
0000
0000
0000
0000
,  // measure 51
0000
0000
0000
0000
0000
0100
0000
0100
,  // measure 52
0000
0000
0000
0000
,  // measure 53
0000
0000
0000
0000
,  // measure 54
0000
0000
0000
0000
,  // measure 55
0000
0000
0000
0000
0000
0010
0000
0010
,  // measure 56
0000
0000
0000
0000
,  // measure 57
0000
0000
0000
0000
,  // measure 58
0000
0000
0000
0000
,  // measure 59
0000
0000
0000
0000
0000
0001
0000
0001
,  // measure 60
0000
0000
0000
0000
,  // measure 61
0000
0000
0000
0000
,  // measure 62
0000
0000
0000
0000
,  // measure 63
0000
0000
1001
0000
,  // measure 64
0001
0000
0000
0000
,  // measure 65
0100
0000
0000
0000
,  // measure 66
1000
0000
0000
0000
,  // measure 67
0100
0000
0000
0000
,  // measure 68
0001
0000
0000
0000
,  // measure 69
0010
0000
0000
0000
,  // measure 70
1000
0000
0010
0010
,  // measure 71
0010
0010
0000
0000
,  // measure 72
1000
0000
0000
0000
,  // measure 73
0100
0000
0000
0000
,  // measure 74
0001
0000
0000
0000
,  // measure 75
0100
0000
0000
0000
,  // measure 76
1000
0000
0000
0000
,  // measure 77
0100
0000
0000
0000
,  // measure 78
0001
0000
0010
0010
,  // measure 79
0010
0010
0000
0000
,  // measure 80
0001
0000
0000
0000
,  // measure 81
0100
0000
0000
0000
,  // measure 82
0010
0000
0000
0000
,  // measure 83
1000
0000
0000
0000
,  // measure 84
0001
0000
0000
0000
,  // measure 85
0010
0000
0000
0000
,  // measure 86
0100
0000
0010
0010
,  // measure 87
0010
0100
0000
0000
;
