#TITLE:Wicked Legend;
#SUBTITLE:;
#ARTIST:D_AAN;
#TITLETRANSLIT:;
#SUBTITLETRANSLIT:;
#ARTISTTRANSLIT:;
#GENRE:;
#CREDIT:BadWolf;
#BANNER:[Week 5] - Wicked Legend.png;
#BACKGROUND:[Week 5] - Wicked Legend-bg.png;
#LYRICSPATH:;
#CDTITLE:cdtitle.png;
#MUSIC:[Week 5] - Wicked Legend.ogg;
#OFFSET:0.460000;
#SAMPLESTART:63.534016;
#SAMPLELENGTH:12.780003;
#SELECTABLE:YES;
#BPMS:0.000000=150.000000
;
#STOPS:
;
#BGCHANGES:;
#KEYSOUNDS:;
#ATTACKS:;

//---------------dance-single - ----------------
#NOTES:
     dance-single:
     :
     Hard:
     17:
     0.890114,1.035166,0.190836,0.028625,0.844450,653.000000,633.000000,20.000000,3.000000,0.000000,0.000000,0.890114,1.035166,0.190836,0.028625,0.844450,653.000000,633.000000,20.000000,3.000000,0.000000,0.000000:
// measure 0
0000
0000
0000
0000
,  // measure 1
1001
0000
0000
0000
0000
0001
1000
0000
,  // measure 2
0000
0000
0000
1000
0001
0000
0000
0000
,  // measure 3
0000
0000
0001
0000
1000
0000
0001
1000
0001
0000
1000
0010
1000
0000
0001
0100
,  // measure 4
0001
0010
0100
1000
0100
0010
0001
0100
,  // measure 5
0010
1000
0010
0100
0001
0001
1000
0100
,  // measure 6
0010
0001
1000
1000
0001
0100
0010
1000
,  // measure 7
0001
0010
0100
0001
0100
1000
0001
0100
,  // measure 8
0010
0001
0010
1000
0001
0010
1000
0001
,  // measure 9
0100
0000
1000
0000
0001
0100
0001
0100
0010
1000
0010
1000
0100
0010
0100
0010
,  // measure 10
0001
0000
0001
0000
1000
0010
1010
1000
,  // measure 11
0100
0000
0001
0000
0100
0000
1000
0000
1001
0000
0000
0000
0001
0010
0100
0010
,  // measure 12
0001
1000
1010
0010
0100
0101
0001
1000
,  // measure 13
1001
0000
0001
0010
1000
0010
0011
0000
,  // measure 14
1001
0000
1000
0010
0110
0000
0001
0010
,  // measure 15
1000
0000
0010
0000
0001
1000
0100
1000
0001
0000
1000
0001
1000
0000
0001
0000
,  // measure 16
1000
0100
1000
0100
1000
0100
0010
0001
1000
0000
0001
0000
0100
0010
0100
0010
,  // measure 17
0100
0010
1000
0001
0100
0000
0010
0000
1000
0000
0100
0000
0001
0000
1000
0000
,  // measure 18
0010
0001
1000
0010
0100
1000
0100
0001
,  // measure 19
1000
0001
1000
0001
1000
0001
0010
0100
1000
0000
0001
0000
0100
0010
0100
0010
,  // measure 20
0100
0010
1000
0001
1000
0100
0010
0100
1000
0000
0010
0000
0100
0000
0001
0000
,  // measure 21
0100
0010
1000
0100
0010
0001
1000
0000
,  // measure 22
0001
0100
0001
1000
0010
1000
0001
0010
,  // measure 23
0001
1000
0010
1000
0001
0010
0100
1000
,  // measure 24
0100
0010
0001
0100
0010
1000
0010
0100
,  // measure 25
0001
0010
1000
0001
0100
1000
0001
0100
,  // measure 26
1000
0001
0010
1000
0001
0010
0100
0001
,  // measure 27
0100
1000
0001
0100
0010
0001
0010
1000
,  // measure 28
0001
0000
0000
0010
0000
0000
0100
0000
0000
0000
1000
0000
0010
0000
1000
0000
,  // measure 29
0100
0010
0100
0010
0000
0001
1000
0000
0010
0000
0000
0100
0000
0000
0001
0000
,  // measure 30
0000
0000
1000
0000
0001
0010
0100
0010
0001
0010
0100
1000
0100
0010
0001
1000
,  // measure 31
0001
0000
0000
1000
0000
0000
0001
0000
0000
0000
1000
0000
0010
0000
0100
0001
,  // measure 32
0100
0001
1000
0001
0000
0010
0100
0000
1000
0000
0000
0001
0000
0000
1000
0000
,  // measure 33
0000
0000
0001
0000
1000
0010
0100
0010
1000
0010
0100
0001
0100
0010
1000
0001
,  // measure 34
1000
0100
1000
0100
1000
0100
0010
0001
1000
0000
0001
0000
0100
0010
0100
0010
,  // measure 35
0100
0010
1000
0001
0010
0000
0100
0000
1000
0001
1000
0001
1000
0001
0100
0010
,  // measure 36
1000
0000
0001
0000
0010
0100
0010
0100
0010
0100
1000
0010
1000
0000
0001
0000
,  // measure 37
1000
0010
0100
1000
0100
0001
1000
0100
,  // measure 38
0010
0000
1000
0000
0010
0000
0001
0000
1000
0010
0100
0001
0100
0010
1000
0001
,  // measure 39
1000
0100
0010
0001
2000
0000
0000
0000
3001
0000
0000
0000
1000
0001
1000
0001
,  // measure 40
1000
0000
0100
0000
0010
0001
0010
0001
0000
1000
0001
0000
0100
0000
0010
0000
,  // measure 41
1000
0001
1000
0001
0000
0010
0100
0000
1000
0000
0001
0000
0100
0010
0100
0010
,  // measure 42
0100
0001
1000
0000
0001
0010
0001
0010
0100
1000
0100
0010
0001
1000
0001
1000
,  // measure 43
0001
0000
0100
0000
0010
1000
0010
1000
0000
0001
1000
0000
0100
0000
0010
0000
,  // measure 44
0001
1000
0001
1000
0000
0010
0100
0000
0001
0000
1000
0000
0100
0010
0100
0010
,  // measure 45
0100
1000
0001
0000
1000
0010
1000
0010
0100
0001
0100
0010
1000
0001
1000
0001
,  // measure 46
1000
0000
0100
0000
0010
0001
0010
0001
0010
0001
1000
0000
0001
0000
0100
0000
,  // measure 47
0010
1000
0010
1000
0010
1000
0001
0000
1000
0000
0001
0000
0010
0100
0010
0100
,  // measure 48
0010
0100
1000
0000
0001
1000
0001
1000
0100
0000
0010
0001
0010
0001
1000
0000
,  // measure 49
0001
0100
0010
1000
0100
0010
0001
0100
,  // measure 50
1000
0001
0010
1000
0001
0010
0100
1000
,  // measure 51
0010
0000
0100
0000
0001
0000
0010
0000
0100
0000
1000
0001
1000
0000
0000
0000
,  // measure 52
0001
0100
0001
0000
1001
0000
1000
0010
1000
0000
0000
0000
1001
0000
1000
0001
,  // measure 53
1000
0000
0010
0100
0010
0000
1000
0000
0001
0000
0010
0000
0100
0000
1000
0010
,  // measure 54
1000
0000
0001
0100
0001
0000
0000
0000
1100
0000
0000
0000
0010
0000
0010
0000
,  // measure 55
0110
0000
0000
0000
1010
0000
0000
0000
1001
0000
1000
0001
1000
0000
0000
0000
,  // measure 56
0101
0000
0000
0000
1001
0000
0001
1000
0001
0000
0000
0000
1100
0000
0000
0000
,  // measure 57
1001
0000
1000
0000
0010
0000
0100
0000
0101
0000
0001
1000
0001
0000
1000
0001
,  // measure 58
1000
0100
1000
0100
0010
0001
0010
0001
1000
0000
0001
1000
0001
0100
0001
0100
,  // measure 59
0010
1000
0010
1000
0001
0000
1000
0001
1000
0100
1000
0100
0010
0001
0010
0001
,  // measure 60
1000
0000
0001
1000
0001
0100
0001
0100
0010
1000
0010
1000
0001
0000
1000
0001
,  // measure 61
1000
0100
1000
0100
0010
0001
0010
0001
0100
0010
0100
0010
1000
0001
1000
0001
,  // measure 62
1000
0100
0010
0100
1000
0100
0010
0001
1000
0010
0100
0010
1000
0010
0100
0001
,  // measure 63
1000
0100
0010
0001
0010
0100
1000
0001
1000
0010
0100
0001
0100
0010
1000
0001
,  // measure 64
2000
0000
0000
0002
,  // measure 65
0000
0000
0000
3003
;

//---------------dance-single - ----------------
#NOTES:
     dance-single:
     :
     Medium:
     13:
     0.617491,0.658742,0.257629,0.066793,0.114502,453.000000,426.000000,27.000000,7.000000,0.000000,0.000000,0.617491,0.658742,0.257629,0.066793,0.114502,453.000000,426.000000,27.000000,7.000000,0.000000,0.000000:
0000
0000
0000
0000
,
1001
0000
0000
0000
0000
0001
1000
0000
,
0000
0000
0000
1000
0001
0000
0000
0000
,
0000
0000
0001
0000
1000
0000
0010
0100
0010
0000
1000
0001
1000
0000
0001
0000
,
1000
0100
1000
0100
1000
0100
0010
0001
,
0010
0001
0010
0001
0100
0010
0100
0010
,
0100
0010
1000
0001
1000
0001
1000
0001
,
1000
0100
0010
0001
0010
0100
1000
0010
,
0100
0001
0100
0010
1000
0100
0010
0001
,
0100
0010
2000
0000
0000
0000
0000
0000
,
3001
0000
0001
0000
1000
0001
1000
0010
,
0001
0000
0010
0000
1000
0000
0100
0000
0010
0000
0000
0000
0001
1000
0001
1000
,
0001
0100
0010
1000
0001
0010
0100
1000
,
0001
0000
1000
0010
0001
0010
1000
0000
,
1001
0000
0001
0100
0010
0000
1000
0100
,
0010
0000
0001
0000
1000
0001
1000
0001
1000
0000
0010
0000
0100
0000
0001
0000
,
1000
0100
0001
0100
1000
0000
0001
0010
,
1000
0010
0001
0000
0100
0010
0100
0010
,
1000
0100
0010
0001
0100
0010
1000
0001
,
1000
0000
1001
0000
0001
0010
0100
0000
,
0110
0000
0000
0000
0010
0001
0010
0001
1000
0000
0001
0000
1000
0000
0010
0000
,
0100
0010
1000
0100
0010
0001
1000
0000
,
2001
0100
3100
0002
,
0100
0103
2000
0010
,
3010
0002
0010
0013
,
1000
0100
0010
0100
1000
0000
0001
0100
,
0010
0100
0001
0000
1000
0001
0010
0001
,
1000
0000
0001
1000
0010
1000
0001
0000
,
1000
0000
0000
0100
0000
0000
0010
0000
0000
0000
0001
0000
1000
0000
0001
0000
,
0100
0000
0010
0000
1000
0000
0000
0000
0001
0000
0000
0010
0000
0000
0100
0000
,
0000
1000
0001
0100
1000
0100
0001
1000
,
0001
0000
0000
1000
0000
0000
0010
0000
0000
0000
1000
0000
0001
0000
1000
0000
,
0100
0000
0010
0000
0001
0000
1000
0000
0001
0000
0000
0100
0000
0000
0010
0000
,
0000
1000
0001
0010
1000
0010
0001
1000
,
0001
0100
0010
0100
0001
0000
1000
0100
,
0010
0100
1000
0000
0001
1000
0010
1000
,
0001
0000
1000
0001
0010
0001
1000
0000
,
0001
0100
0001
0100
0001
0100
0010
1000
,
0010
1000
0010
1000
0100
0010
0100
0010
,
0100
0010
0001
0000
1001
0000
1000
0001
,
1001
0000
1000
0100
0010
0000
1001
0000
,
0001
0010
0100
0000
1001
0000
1000
0010
,
0100
0000
0001
0010
0100
1000
0100
0010
,
1001
0000
1000
0010
0100
0000
1001
0000
,
0001
0100
0010
0000
1001
0000
1000
0100
,
0010
0000
0001
0100
0010
1000
0010
0100
,
0001
0101
1001
1000
,
1100
1001
0001
0011
,
1010
0000
1000
0100
0010
0001
0100
0010
,
1000
0100
1000
0001
0010
0001
1000
0010
,
1000
0001
0100
0001
1000
0010
1000
0001
,
0100
0001
1000
0100
1000
0001
0100
0001
,
1000
0000
1000
0000
0001
0000
0100
0010
0100
0000
0000
0000
0001
0000
1000
0001
,
1000
0000
0100
0010
0100
0000
1000
0000
0010
0000
0010
0000
0100
0000
0001
1000
,
0001
0000
1000
0001
1000
0000
0000
0000
1001
0000
0000
0000
1000
0000
0001
0000
,
0101
0000
0000
0000
1100
0000
0000
0000
1000
0000
0001
1000
0001
0000
0000
0000
,
1010
0000
0000
0000
0001
0000
1000
0001
1000
0000
0000
0000
0011
0000
0000
0000
,
1000
0000
0001
0000
1000
0000
0100
0000
0010
0000
0001
1000
0001
0000
1000
0000
,
0001
0000
0000
0000
1001
0000
0000
0000
1000
0000
0010
0100
0010
0000
0000
0000
,
1001
0000
0000
0000
0001
0000
0100
0010
0100
0000
0000
0000
1001
0000
0000
0000
,
1000
0000
0100
0010
0100
0000
0000
0000
1001
0000
0000
0000
0001
0000
0010
0100
,
0010
0001
1000
0010
1000
0001
1000
0100
,
0010
0100
0010
0001
1000
0010
1000
0001
,
0100
0001
0010
0100
1000
0010
0100
0001
,
2000
0000
0000
0002
,
0000
0000
0000
3003
;

//---------------dance-single - ----------------
#NOTES:
     dance-single:
     :
     Easy:
     8:
     0.433470,0.564636,0.467548,0.057251,0.000000,318.000000,269.000000,49.000000,6.000000,0.000000,0.000000,0.433470,0.564636,0.467548,0.057251,0.000000,318.000000,269.000000,49.000000,6.000000,0.000000,0.000000:
0000
0000
0000
0000
,
1001
0000
0000
0000
0000
0001
1000
0000
,
0000
0000
0000
1000
0001
0000
0000
0000
,
0000
0001
1000
0000
1001
0000
0001
1000
,
0001
0010
0100
1000
,
0100
0010
0001
0100
,
0010
1000
0010
0100
,
1001
0000
0000
0110
0000
0000
1001
0000
,
0000
0110
0000
0000
1000
0000
0100
0000
,
0010
0002
0000
0000
,
1003
1000
0001
1001
,
0100
0000
0010
0100
0010
0000
1000
0001
,
1000
0001
1000
0000
0001
0100
0001
0000
,
1001
0000
1000
0100
0010
0000
0011
0000
,
0001
0000
0100
0010
1000
0000
0001
1000
,
0001
0000
1000
0000
0100
0000
0010
0001
,
1000
0010
0001
1000
,
0100
0001
1000
0100
,
0010
0001
0010
0100
,
1000
0010
0100
0001
,
0100
0010
1000
0100
,
0001
1000
0010
0001
,
2000
0000
0000
0000
,
0000
0000
3002
0000
,
0000
0000
0000
0000
,
1003
0100
0010
0100
,
1000
0001
0100
0010
,
1000
0001
0010
0100
,
1000
0001
1000
0010
,
0100
0001
0100
0000
0001
0000
1000
0000
,
0001
0000
1000
0100
1000
0100
0010
0001
,
1000
0010
1000
0001
,
0100
0010
0100
0000
0001
0000
0010
0000
,
0001
0000
1000
0000
0100
0010
0100
0000
,
1000
0010
1000
0001
,
0100
0001
1000
0100
,
1000
0001
0100
0001
,
1000
0010
0001
1000
,
0100
0001
1000
0100
,
0010
0000
0002
0000
1003
0000
0001
1000
,
0001
0101
0101
1000
,
1100
1100
0001
0011
,
0011
0000
1010
0000
1001
0000
1000
0001
,
1000
1100
1100
0001
,
0101
0101
1000
1010
,
1010
0000
1000
0001
1000
0100
0010
0001
,
1000
1001
1001
0010
,
0110
0110
1000
1001
,
1001
0000
1000
0100
1000
0100
0010
0001
,
1000
0010
0001
1000
,
0100
0001
1000
0100
,
0001
1000
0010
0001
,
1000
0010
1000
0010
1000
0000
0001
1000
,
0001
1000
0001
1000
0010
0100
0010
0100
,
0010
0100
0010
0000
1001
0000
1000
0001
,
1000
1010
1010
0101
,
0101
0011
1001
1001
,
0110
1100
1100
1010
,
0001
0101
0101
1000
,
1100
1100
0001
0011
,
0011
1000
1010
1010
,
0001
0010
1000
0001
,
0100
1000
0001
0100
,
1000
0001
0010
1000
,
0002
0000
0000
2000
,
0000
0000
0000
3003
;

//---------------dance-single - ----------------
#NOTES:
     dance-single:
     :
     Beginner:
     4:
     0.137675,0.185350,0.200378,0.076334,0.000000,101.000000,80.000000,21.000000,8.000000,0.000000,0.000000,0.137675,0.185350,0.200378,0.076334,0.000000,101.000000,80.000000,21.000000,8.000000,0.000000,0.000000:
0000
0000
0000
0000
,
1000
0000
0000
0001
,
0000
0000
1000
0000
,
0000
0001
0000
0000
,
1000
0000
0000
0100
,
0000
0000
0010
0000
,
0000
0001
0000
0000
,
2000
0000
0000
3000
0000
0000
0002
0000
,
0000
0003
0000
0000
0200
0000
0000
0300
,
0000
0002
0000
0000
,
1003
0000
0000
0001
,
0000
0000
1000
0000
,
0000
0001
0000
0000
,
0100
0000
0000
0010
,
0000
0000
0100
0000
,
0000
0010
0000
0000
,
1000
0000
0000
0100
,
0000
0000
0010
0000
,
0000
0001
0000
0000
,
1000
0000
0000
0010
,
0000
0000
0100
0000
,
0000
0001
0000
0000
,
2000
0000
0000
0000
,
3000
0000
0002
0000
,
0000
0000
0003
0000
,
1000
0000
0000
0001
,
0000
0000
1000
0000
,
0000
0001
0000
0000
,
1000
0000
0000
0100
,
0000
0000
0010
0000
,
0000
0001
0000
0000
,
1000
0000
0000
0010
,
0000
0000
0100
0000
,
0000
0001
0000
0000
,
1000
0000
0000
0001
,
0000
0000
1000
0000
,
0000
0001
0000
0000
,
0100
0000
0000
0010
,
0000
0000
0100
0000
,
0000
0010
0000
0000
,
1001
0000
0000
1001
,
0000
0000
1001
0000
,
0000
1001
0000
0000
,
0110
0000
0000
0110
,
0000
0000
0110
0000
,
0000
0110
0000
0000
,
1001
0000
0000
1001
,
0000
0000
1001
0000
,
0000
1001
0000
0000
,
1000
0000
0000
0001
,
0000
0000
1000
0000
,
0000
0001
0000
0000
,
1000
0000
0000
0100
,
0000
0000
0010
0000
,
0000
0001
0000
0000
,
1001
0000
0000
1001
,
0000
0000
1001
0000
,
0000
1001
0000
0000
,
0110
0000
0000
0110
,
0000
0000
0110
0000
,
0000
0110
0000
0000
,
2002
0000
0000
0000
,
0000
0000
0000
0000
,
0000
0000
0000
0000
,
3003
0000
0000
0001
;
